#TITLE:Z;
#SUBTITLE:;
#ARTIST:DM Ashura;
#GENRE:Electronic Orchestra;
#TITLETRANSLIT:;
#SUBTITLETRANSLIT:;
#ARTISTTRANSLIT:;
#GENRE:;
#CREDIT:;
#BANNER:z.png;
#BACKGROUND:z-bg.png;
#LYRICSPATH:;
#CDTITLE:;
#MUSIC:Z.mp3;
#OFFSET:-5.686;
#SAMPLESTART:34.580;
#SAMPLELENGTH:15.200;
#SELECTABLE:YES;
#BPMS:0.000=300.000,132.000=277.240,132.250=262.840,132.500=248.440,132.750=233.240,133.000=218.840,133.250=204.440,133.500=191.640,133.750=178.840,134.000=165.240,134.250=163.820,134.500=156.020,134.750=145.620,135.000=136.220,135.250=150.840,135.500=148.440,135.750=130.280,140.000=150.000,172.000=300.000;
#STOPS:;
#BGCHANGES:;
#KEYSOUNDS:;

//---------------dance-single - Renard----------------
#NOTES:
     dance-single:
     Renard:
     Challenge:
     11:
     1.000,0.313,0.211,0.044,0.111:
0000
0000
0000
0000
,
1000
0100
0000
0010
0001
0000
1000
0100
,
0000
0010
0001
0000
0011
0000
1100
0000
,
1000
0010
0000
0100
0001
0000
1000
0010
,
0000
0100
0001
0000
1010
0000
0101
0000
,
0001
0010
0000
0100
1000
0000
0001
0010
,
0000
0100
1000
0000
0011
0000
1100
0000
,
0001
0100
0000
0010
1000
0000
0001
0100
,
0000
0010
1000
0000
0001
0100
0001
0000
,
1000
0100
1000
0010
1000
0000
0001
0100
,
0001
0010
0001
0000
1001
0000
1001
0000
,
1000
0010
1000
0100
1000
0000
0001
0010
,
0001
0100
0001
0000
1001
0000
1001
0000
,
1000
0010
0100
0001
0100
0000
0001
0100
,
0010
1000
0010
0000
1010
0000
0101
0000
,
0001
0100
0010
1000
0010
0100
0001
1000
,
0100
0010
0001
0010
0100
1000
0001
1000
,
0001
0010
0001
0010
0001
0010
0001
0010
,
0001
0100
0001
0100
0001
0100
0001
0100
,
0001
1000
0001
1000
0001
1000
0001
1000
,
0001
1000
0001
0100
0001
0010
0001
0000
,
1000
0100
1000
0100
1000
0100
1000
0100
,
1000
0010
1000
0010
1000
0010
1000
0010
,
1000
0001
1000
0001
1000
0001
1000
0001
,
1000
0001
1000
0010
1000
0100
1000
0000
,
1000
0100
0010
0001
0010
0100
1000
0010
,
0100
0001
0100
0010
1000
0001
0100
0001
,
1000
0100
0010
0001
0010
0100
1000
0010
,
0100
0001
1000
0100
1000
0001
0010
0001
,
1000
0010
0100
0001
1000
0100
0010
0001
,
1000
0010
0100
0001
0100
0010
1000
0010
,
0100
0001
1000
0100
0010
0001
0010
0100
,
1000
0010
0100
0001
1000
0010
0100
0001
,
2002
0000
0000
0000
,
0000
0000
0000
0000
0000
0000
0000
3003
,
1001
0000
0000
0000
0100
0000
0000
0000
0010
0000
0000
0010
0000
0000
1000
0000
,
0100
0000
0000
0010
0000
0000
0001
0000
0010
0000
0000
0100
0000
0000
1000
0000
,
0010
0000
0000
0000
0000
0000
0100
0001
0100
0000
0000
0000
0010
0000
1000
0000
,
0000
0000
0010
0100
0001
1000
0010
0100
0001
0000
0000
0000
1000
0000
0100
0000
,
1100
0000
0000
0011
0000
0000
0001
0100
,
0010
0000
0000
1000
0000
0000
1100
0000
0000
0000
0000
0000
0010
0000
0000
0000
,
0011
0000
0000
0000
0000
0000
0001
0100
0001
0000
0000
0100
0000
0000
0010
0000
,
1000
0000
0000
0000
0100
0000
0010
0000
0001
0010
0001
0010
0001
0010
0100
1000
,
0001
0010
0100
1000
0010
0100
0001
0100
,
0010
1000
0100
0010
0001
0010
0100
1000
,
0010
0100
0001
1000
0100
1000
0001
0010
,
0001
0100
0010
1000
0001
1000
0001
0000
,
1000
0100
0010
0001
0010
0100
1000
0010
,
0100
0010
0100
0001
1000
0100
0010
0001
,
1000
0001
0010
0100
1000
0001
0100
0010
,
1000
0001
0100
0010
1000
0010
0100
0000
,
0010
1000
0010
0100
0001
1000
0001
0100
,
0010
1000
0100
1000
0010
0100
0001
0000
,
0100
0010
1000
0100
0010
0001
0010
0100
,
1000
0010
0100
0010
0100
0001
1000
0000
,
0001
0100
0010
0000
1000
0010
0100
0000
,
0001
0100
0010
0000
1000
0100
0010
0000
,
0001
0010
0100
1000
0001
0010
0100
1000
,
0010
0100
0001
0100
0010
1000
0010
0100
,
0001
0100
0010
1000
0010
0000
1000
0010
,
0000
0010
0100
0001
1000
0100
0010
0000
,
0100
1000
0001
0010
0100
0000
0100
0010
,
0000
0010
0001
1000
0010
0100
0001
1000
,
0010
0100
0010
1000
0010
0000
0010
0100
,
0000
0001
0100
0001
1000
0100
1000
0000
,
0001
0010
0100
1000
0001
0000
0010
0100
,
0000
1000
0010
0100
0001
1000
0001
0000
,
1000
0010
1000
0001
0100
0001
1000
0100
,
1000
0001
0010
0001
1000
0010
0100
0001
,
1000
0100
1000
0001
0010
0001
1000
0010
,
1000
0001
0100
0001
1000
0100
0010
0001
,
1000
0100
1000
0001
0010
0001
1000
0010
,
1000
0001
0100
0001
1000
0100
0010
0001
,
1000
0010
1000
0001
0100
0001
1000
0100
,
1000
0001
0010
0001
1000
0100
0010
0001
,
1000
0100
0000
0100
1000
0000
0001
0010
,
0000
0010
0001
0000
1000
0100
0010
0001
,
1000
0010
0000
0010
1000
0000
0001
0100
,
0000
0000
0000
0100
0000
0000
0001
0000
0000
0000
0000
0000
1000
0000
0000
0000
0000
0000
0010
0000
1000
0000
0010
0000
,
1000
0001
0000
0001
1000
0000
0001
0100
,
0000
0100
0010
1000
0100
0010
0001
0000
,
1000
0100
0000
0100
1000
0000
0001
0010
,
0000
0000
0000
0010
0000
0000
0001
0000
0000
0000
0000
0000
1000
0000
0000
0000
0000
0000
0001
0000
0100
0000
0001
0000
,
1000
0000
0100
1000
0100
1000
0100
0000
,
0010
0001
0010
0100
1000
0000
0010
0000
,
0100
0000
0001
1000
0001
1000
0001
0000
,
0100
0000
0000
0010
0000
0000
1000
0000
0000
0010
0000
0000
1000
0000
0000
0000
0000
0000
0001
0000
0100
0000
0001
0000
,
0100
0000
0010
1000
0010
1000
0001
0000
,
1000
0100
1000
0001
0010
0000
0100
0000
,
1000
0000
0001
0010
0001
0100
0010
0000
,
1000
0010
0100
0001
0100
0010
1000
0010
,
2002
0000
0000
0000
,
0000
0000
0000
0000
,
0000
0000
0000
0000
,
3003
0000
0000
0000
;

//---------------dance-single - Renard----------------
#NOTES:
     dance-single:
     Renard:
     Medium:
     9:
     0.577,0.261,0.011,0.055,0.000:
0000
0000
0000
0000
,
1000
0000
0010
0000
0100
0000
0001
0100
,
0000
0010
0100
0000
0001
0000
0000
0000
,
0100
0000
0010
0000
1000
0000
0100
0010
,
0000
0100
1000
0000
0010
0000
0000
0000
,
0100
0000
0001
0000
0100
0000
0010
1000
,
0000
0010
1000
0000
0010
0000
0000
0000
,
0100
0000
0001
0000
0010
0000
0001
1000
,
0000
0001
1000
0000
0001
0000
0100
0000
,
0010
0000
1000
0000
0100
0000
0010
0001
,
0000
0010
0001
0000
0010
0000
0100
0000
,
1000
0000
0010
0000
0100
0000
0001
0100
,
0000
0001
0100
0000
0010
0000
1000
0000
,
0100
0000
0010
0000
0001
0000
1000
0001
,
0000
1000
0001
0000
1000
0000
0010
0000
,
0100
0000
0001
0000
0010
0000
0100
0010
,
0000
0100
0010
0000
0100
0000
1000
0000
,
0010
0000
1000
0010
,
0100
0000
0001
0000
0100
0000
0001
0100
,
0001
0000
0100
0010
,
0000
0000
1000
0000
0100
0000
1000
0001
,
1000
0000
0001
1000
,
0000
0000
0010
0000
0100
0000
0001
1000
,
0001
0000
0000
1000
0010
0000
0100
0000
,
0001
0000
0000
0100
0001
0000
0100
0000
,
0001
0000
1000
0100
,
0000
0000
1000
0000
0001
0000
1000
0001
,
1000
0000
0001
0100
,
0000
0000
0010
0000
1000
0000
0001
1000
,
0001
0000
1000
0010
,
0000
0000
0100
0000
0001
0000
1000
0001
,
1000
0000
0001
0100
,
0010
1000
0100
0010
,
0002
0000
0000
0000
,
0000
0000
0000
0003
,
1000
0010
0100
0000
,
0002
0000
0203
0000
,
0310
0000
1000
0000
0100
0000
0000
0010
,
0001
0000
0000
0010
0100
0000
0000
1000
,
0010
0000
0000
0100
0001
0000
0000
0100
,
0010
0000
0000
1000
0010
0000
0000
0100
,
0001
0000
0000
1000
0100
0000
0000
0010
,
0001
0000
0010
0100
1000
0010
0100
0000
,
0001
0100
0010
1000
,
0100
0010
0001
0010
,
0100
1000
0001
0100
,
0001
1000
0001
0000
0000
1000
0001
0000
,
1000
0100
0010
0001
,
0010
0100
1000
0010
,
0100
0000
0001
0000
1000
0000
0001
1000
,
0001
0000
1000
0001
1000
0000
0000
0000
,
0001
0100
0010
1000
,
0100
0010
0001
1000
,
0010
0000
0100
0000
0001
0000
1000
0001
,
1000
0000
0001
1000
0001
0000
1000
0000
,
0010
0100
0001
1000
,
0100
0010
0001
1000
,
0001
1000
0000
0001
1000
0000
0001
1000
,
0000
0001
1000
0000
0010
0000
0100
0000
,
0001
1000
0000
1000
0001
0000
1000
0001
,
0000
0100
0010
1000
,
0100
0010
0001
1000
,
0010
0000
0000
0000
,
1000
0001
0000
0001
1000
0000
1000
0001
,
0000
1000
0010
0100
,
0001
0010
0100
1000
,
0010
0100
0001
0000
,
1000
0001
0000
0001
1000
0000
1000
0001
,
0000
1000
0010
0100
,
0001
1000
0100
0010
,
0001
0000
1000
0000
,
0001
1000
0000
1000
0001
0000
0001
1000
,
0000
0010
0100
0001
,
1000
0100
0010
0001
,
1000
0000
0001
1000
0001
0000
1000
0000
,
0001
0000
0001
0100
,
0000
0000
0100
0000
0010
0000
1000
0100
,
1000
0000
0100
0010
,
0000
0000
0010
0000
0001
0000
1000
0001
,
1000
0000
0001
1000
,
0000
0000
1000
0000
0010
0000
0100
0001
,
0100
0000
0001
0100
,
0010
1000
0100
0010
,
0001
0000
1000
0000
0001
0000
0100
0001
,
0100
0000
0001
0000
1000
0000
0100
1000
,
0100
1000
0001
1000
,
0001
0000
1000
0000
,
0010
0000
1000
0000
0001
0000
0100
0001
,
0100
0000
0001
0000
1000
0000
0100
1000
,
0100
1000
0010
1000
,
0001
1000
0001
1000
0001
1000
0001
0000
,
2002
0000
0000
0000
,
0000
0000
0000
0000
,
0000
0000
0000
0000
,
3003
0000
0000
0000
;

//---------------dance-single - Renard----------------
#NOTES:
     dance-single:
     Renard:
     Easy:
     7:
     0.506,0.104,0.067,0.067,0.000:
0000
0000
0000
0000
,
1000
0000
0010
0000
,
0100
0001
0100
0010
,
1000
0000
0100
0000
,
0010
0001
1000
0010
,
0100
0000
0001
0000
,
1000
0001
1000
0100
,
0010
0000
0001
0000
,
0100
0010
0100
0010
,
1000
0000
0001
0000
,
1000
0100
0010
0001
,
1000
0000
0001
0000
,
0100
0001
1000
0100
,
0010
0000
0001
0000
,
0100
0010
0100
0010
,
1000
0001
0100
0001
,
1000
0100
0010
0001
,
1000
0001
1000
0001
,
1000
0010
1000
0010
,
1000
0100
1000
0100
,
1000
0100
0010
0001
,
0100
0001
0100
0001
,
1000
0001
1000
0001
,
0010
0001
0100
0001
,
0010
0100
1000
0010
,
0100
0010
0100
0010
,
0100
0001
0100
0001
,
0100
1000
0100
1000
,
0100
0001
0100
0001
,
0010
0100
0010
0100
,
0010
1000
0010
1000
,
0010
0001
0010
0100
,
0010
0001
1000
0001
,
2002
0000
0000
0000
,
0000
0000
0000
3003
,
1000
0000
0010
0100
,
0001
0000
1000
0000
,
0200
0000
0000
0000
,
0320
0000
0000
0000
,
0031
0000
0100
0001
,
1000
0000
0100
0010
,
0001
0000
1000
0000
,
1001
1010
0101
1100
,
0010
0001
0100
0010
,
1000
0100
0010
0001
,
0010
0100
1000
0001
,
0100
0001
1000
0100
,
0010
0100
1000
0010
,
0100
0001
0100
0010
,
1000
0001
0100
0010
,
0100
0010
0100
0000
,
0001
1000
0001
1000
,
0100
1000
0100
1000
,
0001
0010
0001
0010
,
0001
0100
0001
0100
,
0010
0000
1000
0100
,
0010
0000
0100
1000
,
0001
0000
0100
0001
,
1000
0000
0001
0000
,
1000
0100
1000
0100
,
1000
0100
1000
0100
,
0010
0001
0010
0001
,
0010
0001
0010
0001
,
0100
0001
0100
0001
,
0100
0001
0100
0001
,
1000
0010
1000
0010
,
1000
0000
0010
0000
,
1000
0100
1000
0100
,
1000
0100
1000
0100
,
0001
0010
0001
0010
,
0001
0010
0001
0010
,
1000
0100
1000
0100
,
1000
0100
1000
0100
,
0001
0010
0001
0010
,
0001
0010
0001
0010
,
1000
0100
0000
0100
,
1000
0000
1000
0100
,
0001
0010
0000
0010
,
0001
0000
0001
0010
,
1000
0100
0000
0100
,
1000
0000
1000
0100
,
0001
0010
0000
0010
,
0001
0000
0001
0010
,
1000
0100
1000
0100
,
0010
0001
0100
0000
,
0001
0100
0001
0100
,
0010
1000
0100
0000
,
1000
0010
1000
0000
,
0001
0100
0001
0000
,
1000
0100
0010
0001
,
0010
0100
1000
0100
,
2002
0000
0000
0000
,
0000
0000
0000
0000
,
0000
0000
0000
0000
,
3003
0000
0000
0000
;

//---------------dance-single - Alezay1----------------
#NOTES:
     dance-single:
     Alezay:
     Hard:
     10:
     0.934,0.308,0.399,0.178,0.067: // measure 1
0000
0000
0000
0000
,  // measure 2
1000
0100
0000
0010
0001
0000
1000
0001
,  // measure 3
0000
0001
0100
0000
1010
0000
1001
0000
,  // measure 4
1000
0100
0000
0010
0001
0000
1000
0001
,  // measure 5
0000
0001
0100
0000
0101
0000
1001
0000
,  // measure 6
1000
0010
0000
0010
0100
0000
0100
0010
,  // measure 7
0000
0010
1000
0000
1001
0000
1100
0000
,  // measure 8
0010
0001
0000
1000
0001
0000
0001
0100
,  // measure 9
0000
0010
1000
0000
0001
1000
0100
0000
,  // measure 10
0010
0001
0000
0001
0100
0000
0010
1000
,  // measure 11
0000
0001
0100
0000
0101
0000
1001
0000
,  // measure 12
1000
0100
0000
0010
0001
0000
1000
0001
,  // measure 13
0000
0001
0010
0000
1100
0000
0011
0000
,  // measure 14
1000
0010
0000
0010
0100
0000
0100
0001
,  // measure 15
0000
0001
1000
0000
1001
0000
1001
0000
,  // measure 16
1000
0100
0000
0100
1000
0000
0010
0100
,  // measure 17
0000
0100
0001
0000
1000
0100
0010
0001
,  // measure 18
1000
0001
0010
0001
1000
0010
1000
0100
,  // measure 19
0010
0001
1000
0001
0010
0100
1000
0001
,  // measure 20
0010
0001
1000
0100
1000
0001
0100
0001
,  // measure 21
1000
0010
1000
0001
1000
0100
1000
0100
,  // measure 22
0010
0001
0010
0001
1000
0001
0100
0010
,  // measure 23
1000
0010
1000
0001
1000
0001
1000
0001
,  // measure 24
1000
0100
0010
0100
1000
0001
0100
0010
,  // measure 25
0100
0001
1000
0100
0010
0001
0010
0100
,  // measure 26
1000
0100
1000
0100
0010
0001
0010
0001
,  // measure 27
1000
0001
1000
0001
0100
0010
0100
0010
,  // measure 28
0100
0010
1000
0100
0010
0001
0010
0100
,  // measure 29
1000
0001
0100
0010
1000
0001
0100
0010
,  // measure 30
1000
0100
0010
0001
1000
0100
0010
0001
,  // measure 31
0010
0100
1000
0001
0010
0100
1000
0001
,  // measure 32
0100
0001
1000
0010
1000
0001
0010
0001
,  // measure 33
1000
0100
0010
0100
1000
0001
0100
0001
,  // measure 34
2002
0000
0000
0000
,  // measure 35
0000
0000
0000
0000
0000
0000
0000
3003
,  // measure 36
0101
0000
0000
0000
0110
0000
0000
0000
1010
0000
0000
0010
0000
0000
1000
0000
,  // measure 37
0001
0000
0000
0100
0000
0000
0010
0000
1000
0000
0000
0100
0000
0000
1000
0000
,  // measure 38
2002
0000
0000
0000
3003
0000
1000
0001
1000
0000
0000
0000
0001
0000
0101
0000
,  // measure 39
0000
0000
0010
1000
0100
0010
0100
0010
0001
1000
0001
1000
0001
0000
0000
0000
,  // measure 40
0202
0000
0303
2002
0000
3003
1000
0010
,  // measure 41
0100
0000
0000
0101
0000
0000
2002
0000
0000
0000
3003
0000
1010
0000
0000
0000
,  // measure 42
2002
0000
0000
0000
3003
0000
1000
0100
1000
0000
0000
0100
0000
0000
0010
0000
,  // measure 43
2002
0000
0000
0000
0000
0000
0000
3003
,  // measure 44
1000
0001
1000
0010
,  // measure 45
0100
0010
1000
0100
,  // measure 46
0010
0001
1000
0001
,  // measure 47
0100
0000
0010
0000
1000
0000
0001
1000
,  // measure 48
0010
0100
0001
0100
,  // measure 49
0010
1000
0100
0010
,  // measure 50
0001
0010
0100
1000
,  // measure 51
0001
0000
1000
0000
0010
0000
0100
0010
,  // measure 52
1000
1000
0001
0100
,  // measure 53
0010
1000
0100
0010
,  // measure 54
0001
1000
0100
0010
,  // measure 55
0001
0000
1000
0000
0001
0000
0100
0010
,  // measure 56
0100
0010
1000
0001
,  // measure 57
1000
0100
0010
0100
,  // measure 58
1000
0010
0010
0100
,  // measure 59
0001
1000
0010
1000
,  // measure 60
0010
1000
0000
1000
0001
0000
1000
0100
,  // measure 61
0000
0010
0001
0000
1001
0000
0101
0000
,  // measure 62
0001
0100
0000
0100
0010
0000
0010
1000
,  // measure 63
0000
1000
0001
0000
1001
0000
1100
0000
,  // measure 64
1000
0100
0000
0100
1000
0000
1000
0010
,  // measure 65
0000
0010
0100
0000
0101
0000
1001
0000
,  // measure 66
0001
1000
0000
1000
0001
0000
0001
0100
,  // measure 67
0000
0010
1000
0000
0001
1000
0001
0000
,  // measure 68
0001
1000
0000
1000
0001
0000
0001
0100
,  // measure 69
0000
0010
1000
0000
0110
0000
1001
0000
,  // measure 70
1000
0010
0000
0010
0100
0000
0100
0010
,  // measure 71
0000
0010
1000
0000
0001
1000
0001
1000
,  // measure 72
0001
0100
0000
0100
0010
0000
0010
1000
,  // measure 73
0000
1000
0001
0000
0101
0000
1010
0000
,  // measure 74
1000
0100
0000
0010
0001
0000
1000
0001
,  // measure 75
0000
0100
0010
0000
1000
0010
0100
0001
,  // measure 76
1000
0100
0010
0001
0010
0100
1000
0001
,  // measure 77
0010
0001
1000
0100
1000
0001
0100
0001
,  // measure 78
1000
0010
1000
0001
0100
0001
1000
0100
,  // measure 79
0010
0100
1000
0001
0100
0010
0100
0001
,  // measure 80
1000
0100
1000
0100
1000
0100
1000
0001
,  // measure 81
1000
0001
1000
0001
1000
0001
0100
0001
,  // measure 82
0100
0001
0100
0010
0100
0010
0100
0010
,  // measure 83
1000
0010
1000
0010
1000
0001
1000
0100
,  // measure 84
1000
0010
1000
0001
1000
0001
0100
0001
,  // measure 85
1000
0001
0010
0001
1000
0001
1000
0100
,  // measure 86
0010
0001
0010
0100
1000
0001
0100
0001
,  // measure 87
0100
0010
1000
0100
0010
0100
1000
0001
,  // measure 88
0100
0010
1000
0010
0100
0001
1000
0100
,  // measure 89
0010
0001
1000
0100
0010
0001
0010
0100
,  // measure 90
1000
0001
0010
0100
1000
0100
0010
0001
,  // measure 91
1000
0001
0100
0001
1000
0001
1000
0001
,  // measure 92
0202
0000
0000
0010
,  // measure 93
0000
0000
0303
0000
;
