#TITLE:Xhosa;
#SUBTITLE:;
#ARTIST:Emoticon;
#GENRE:Roxorcore;
#TITLETRANSLIT:;
#SUBTITLETRANSLIT:;
#ARTISTTRANSLIT:;
#CREDIT:;
#BANNER:xhosa.png;
#BACKGROUND:xhosa-bg.png;
#LYRICSPATH:;
#CDTITLE:;
#MUSIC:xhosa.ogg;
#OFFSET:-0.000;
#SAMPLESTART:10.472;
#SAMPLELENGTH:13.980;
#SELECTABLE:YES;
#BPMS:0.000=183.000;
#STOPS:;

//---------------dance-single - Renard----------------
#NOTES:
     dance-single:
     Renard:
     Challenge:
     11:
     0.906,1.000,0.431,0.341,0.537:
0000
0000
0000
0000
,
0000
0000
0000
0000
,
0000
0000
0000
0000
,
0000
0000
0000
0000
,
1000
0000
0100
1000
0100
0000
1000
0000
0010
0000
0100
0000
0000
0000
0101
0000
,
0000
1000
0100
1000
0002
0000
1010
0003
,
1000
0000
0010
0100
0001
0000
0100
0000
0001
0000
0010
0000
0000
0000
1001
0000
,
0000
0001
0100
0010
0200
0000
1001
0300
,
0001
0010
0001
0010
0001
0000
1000
0000
0010
0100
0010
0100
0010
0000
0100
0000
,
0001
1000
0100
0010
0100
0000
1000
0000
0001
0010
0100
0010
0001
0000
1000
0000
,
0010
0100
0010
0100
0010
0000
1000
0000
0001
0100
0001
0100
0001
0000
0100
0000
,
0010
1000
0100
1000
0010
0000
0100
0000
0001
0100
0010
0000
1000
0000
0100
0000
,
1000
0100
1000
0100
1000
0000
0001
0000
0100
0010
0100
0010
0100
0000
0010
0000
,
1000
0001
0010
0100
0010
0000
0001
0000
1000
0100
0010
0100
1000
0000
0001
0000
,
0100
0010
0100
0010
0100
0000
0001
0000
1000
0010
1000
0010
1000
0000
0010
0000
,
0100
0001
0010
0001
0100
0000
0010
0000
1000
0010
0100
0000
0001
0000
0010
0000
,
0001
2000
0200
3000
2000
0300
3100
0000
,
1000
0020
0200
0030
0020
0300
0130
0000
,
0001
0200
0020
0300
0200
0030
0310
0000
,
1000
0200
2000
0300
0200
3000
1300
0000
,
0010
0200
0002
0300
0200
0003
0301
0000
,
1000
0020
0200
0030
0020
0300
0130
0000
,
0010
0200
0002
0300
0200
0003
2300
0000
,
3100
0010
1000
0000
1101
0000
1011
0000
,
1010
1100
0011
1100
,
0102
0000
0100
0100
0200
0000
0313
0000
,
1010
1001
0101
0110
,
2020
0030
0010
0010
0020
0000
3130
0000
,
0101
0011
1100
0011
,
2010
0000
0010
0010
0020
0000
3130
0000
,
0101
1011
1010
0111
,
0001
0000
0000
0000
0000
0000
1000
0000
0000
0000
0002
0000
0200
0000
0000
0003
0000
0000
0301
0000
0000
0000
0000
0000
,
1000
0100
0010
0100
1000
0001
0100
1000
,
0100
0001
0010
0001
0010
0100
1000
0100
,
0001
0100
1000
0010
0100
0001
0100
0010
,
1000
0010
0001
0010
1000
0100
0010
0001
,
0010
1000
0010
0001
0010
0100
1000
0100
,
0001
0100
1000
0010
0100
0001
0100
1000
,
0100
0001
0100
0010
1000
0100
0010
0100
,
1000
0001
0010
0100
0001
0100
1000
0010
,
0001
0000
0100
0001
0100
0000
0010
0000
0100
0000
0110
0000
0000
0000
1001
0000
,
0000
1010
0000
0101
0101
0000
1001
0000
,
1000
0000
0010
0100
0001
0000
0100
0000
0010
0000
1000
0000
0000
0000
1010
0000
,
0000
1001
0000
0101
0101
0000
1001
0000
,
0001
0000
0100
0001
0100
0000
0010
0000
0100
0000
0110
0000
0000
0000
1001
0000
,
0000
1010
0000
0101
0101
0000
1001
0000
,
1000
0000
0010
0100
0001
0000
0100
0000
0010
0000
1000
0000
0000
0000
1010
0000
,
0000
0000
0000
0000
0000
0000
0000
0000
1000
0100
0010
0001
1000
0100
0010
0001
,
1000
1000
0100
0100
1000
1000
0010
0010
,
0100
0100
0001
0001
0100
0010
1000
0000
,
0100
0100
1000
1000
0010
0010
0100
0100
,
0001
0100
1000
0100
0002
0000
0013
0000
,
0001
0001
0010
0010
1000
1000
0010
0010
,
0001
0010
0100
1000
0100
0001
0100
0000
,
1000
0100
1000
0100
0000
0000
0001
0010
0001
0010
0000
0000
,
0001
0000
0000
0000
0010
0000
0000
0000
0100
0000
0000
0000
1000
0000
0000
0000
0010
0000
0000
0000
0100
0000
0000
0000
0001
0000
0000
0100
0000
0000
0001
0000
0000
0100
0000
0000
0001
0000
0000
0100
0000
0000
0001
0000
0000
0000
0000
0000
,
1000
0000
0100
0010
0100
0000
1000
0000
0010
0000
0100
0000
0000
0000
0001
0000
,
0000
0000
0100
0010
1000
0000
0100
0000
1000
0000
0010
0100
0001
0000
0100
0000
,
0010
0000
1000
0100
0010
0000
0100
0000
1000
0000
0001
0000
0000
0000
0010
0000
,
0000
0000
0100
0010
0001
0000
0010
0000
0100
1000
0010
0100
0001
0000
1000
0000
,
0001
0000
0100
0010
1000
0000
0010
0100
0001
0000
0100
0000
0000
0000
0010
0000
,
0000
1000
0000
0100
0010
0000
0001
0000
,
0010
0000
0100
1000
0010
0000
0001
0000
0010
0000
1000
0000
0000
0000
0100
0000
,
0000
0000
1000
0000
0000
0000
0010
0100
0001
0000
0100
0010
1000
0100
1000
0000
,
0100
0000
1000
0100
1000
0000
0001
0010
0001
0000
1000
0100
1000
0000
0001
0010
,
0001
0000
1000
0100
1000
0000
0001
0010
0001
0000
1000
0100
1000
0100
1000
0000
,
0010
0000
0100
0010
0100
0000
0001
1000
0001
0000
0100
0010
0100
0000
0001
1000
,
0001
0000
0100
0010
0100
0000
0001
1000
0010
1000
0001
0100
0001
1000
0100
1000
,
0001
0010
0001
0010
0001
0000
0010
0000
0001
1000
0001
1000
0001
0000
1000
0000
,
0010
0100
0010
0100
0010
0000
1000
0000
0100
1000
0100
1000
0100
0000
1000
0000
,
0001
0010
0001
0000
1000
0100
1000
0000
0010
0100
0010
0000
0100
0001
0100
0000
,
0010
1000
0100
0010
0001
0010
0100
1000
0010
0100
0001
0100
0010
1000
0100
0010
,
0100
0000
0100
0000
0100
0000
0100
0000
0100
0000
0100
0000
,
0100
0000
0000
0000
;

//---------------dance-single - Renard----------------
#NOTES:
     dance-single:
     Renard:
     Hard:
     9:
     0.701,0.659,0.441,0.140,0.020:
0000
0000
0000
0000
,
0000
0000
0000
0000
,
0000
0000
0000
0000
,
0000
0000
0000
0000
,
1000
0010
0100
0001
0100
0020
0000
1000
,
0000
1000
0000
1030
0020
0000
0130
0000
,
0010
0100
0001
0100
0010
1000
0000
0200
,
0000
1000
0300
0100
1000
0000
1000
0000
,
0100
1000
0100
0000
0010
0001
0010
0000
,
0100
1000
0010
0000
0100
0001
0010
0000
,
0010
0001
0100
0010
1000
0000
0100
0000
,
1000
0010
0100
0001
0100
0000
0010
0000
,
1000
0000
0010
0100
0001
0000
0100
0010
,
1000
0100
0001
0100
1000
0000
0010
0000
,
0100
0001
0100
1000
0100
0001
0010
1000
,
0010
0001
0100
0010
1000
0000
0010
0000
,
0100
0010
0100
0010
0100
0000
0010
0000
,
1000
0001
1000
0001
1000
0000
0001
0000
,
0100
0010
0100
0010
0100
0000
0010
0000
,
1000
0001
1000
0010
1000
0000
0001
0000
,
0100
0001
0100
0010
0100
0000
0010
0000
,
1000
0001
0100
0001
0010
0000
0001
0000
,
0100
0010
0100
0001
0100
1000
0100
0001
,
0100
0010
0100
0010
1000
0000
1001
0000
,
1010
0101
0011
1100
,
1001
0000
0110
0000
1000
0010
0100
0001
,
0101
1010
1100
0011
,
1001
0000
1010
0000
0101
0000
0001
0010
,
0011
0101
1010
1001
,
1010
0000
1100
0000
1001
0000
0100
0001
,
0101
0011
1001
1010
,
1100
0000
1001
0000
0101
0000
0001
0100
,
0001
0100
0010
1000
0100
1000
0010
0000
,
0100
0001
0100
0010
2000
0000
3010
0000
,
1000
0010
0100
0001
0010
0001
0100
0000
,
0010
1000
0200
0000
1300
0010
0200
0000
,
0301
0010
0001
0100
0010
1000
0100
0000
,
0010
0100
1000
0010
0200
0000
0301
0000
,
0010
0001
0100
0010
1000
0100
1000
0000
,
0010
0100
0002
0000
0013
0001
0200
0000
,
0310
0010
0100
0100
0010
1000
0000
0100
,
0000
1000
0000
0010
0100
0000
0001
0000
,
0010
0010
0001
0001
0100
0010
0000
1010
,
0000
0101
0000
1000
0002
0000
0103
0000
,
0001
0100
0010
1000
0100
1000
0000
1010
,
0000
1001
0000
0001
0100
0000
0110
0000
,
1000
0010
0100
0001
0010
0001
0000
0101
,
0000
1001
0000
2000
0002
0000
3003
0000
,
1000
0010
0100
0001
1000
0010
0100
0001
,
1000
0010
0100
0001
1000
0010
0100
0001
,
1000
0100
0010
0001
1000
0100
0010
0001
,
1000
0100
0010
0001
0010
0100
1000
0000
,
0001
0010
0100
1000
0001
0010
0100
1000
,
0001
0010
0100
1000
0001
0010
0100
1000
,
0001
0100
0010
0000
1000
0010
0100
0000
,
0001
0100
0010
1000
0100
0010
0001
0010
,
0100
1000
0100
1000
0100
1000
0000
1010
,
0000
1001
0000
0001
0100
0010
1000
0000
,
1000
0010
0100
0001
0100
0010
0000
1010
,
0000
0101
0000
1000
0002
0000
0103
0000
,
0010
1000
0100
1000
0010
0100
0000
0101
,
0000
1001
0000
1000
0010
0000
0101
0000
,
1000
0010
0100
0001
1000
0010
0000
1001
,
0000
1010
0000
0100
0002
0000
0013
0000
,
0001
0010
0100
1000
0100
0010
0001
0100
,
0010
1000
0010
0100
0001
0100
0010
1000
,
0100
0010
0001
0010
0100
1000
0001
1000
,
0100
0010
0001
1000
0001
0010
0100
1000
,
0001
0100
0010
1000
0001
0100
0010
1000
,
0100
0010
0100
1000
0001
0010
0100
0010
,
0001
1000
0010
0100
0001
1000
0001
0100
,
0010
0100
0001
0100
0010
1000
0100
0010
,
0100
0000
0100
0000
0100
0000
0100
0000
0100
0000
0100
0000
,
0100
0000
0000
0000
;

//---------------dance-single - Renard----------------
#NOTES:
     dance-single:
     Renard:
     Medium:
     6:
     0.497,0.549,0.110,0.080,0.020:
0000
0000
0000
0000
,
0000
0000
0000
0000
,
0000
0000
0000
0000
,
0000
0000
0000
0000
,
1000
0000
0001
0000
0100
0010
0100
0000
,
0001
1000
0200
0000
,
1300
0000
0010
0000
0100
0001
0100
0000
,
0010
1000
0010
0000
0100
0000
0100
0000
,
0010
0000
1000
0000
0100
1000
0100
0000
,
1000
0010
0100
0001
,
0010
0000
0001
0000
0100
0001
0100
0000
,
0010
1000
0200
0000
,
1300
0000
0010
0000
0100
0001
0100
0000
,
0010
1000
0100
1000
,
0010
0000
0100
0000
0001
0100
0001
0000
,
0100
0010
0100
0000
0020
0000
0000
0000
,
1030
0100
1000
0000
0001
0000
0010
0000
,
0001
0100
0010
0000
0200
0000
0000
0000
,
0310
1000
0100
0000
1000
0000
0010
0000
,
0100
0001
0010
0000
0002
0000
0000
0000
,
0103
0010
1000
0000
0010
0000
0100
0000
,
0001
0100
0010
0000
1000
0000
0100
1000
,
0100
0000
1000
0001
0010
0000
0001
1000
,
0010
0200
0020
0330
,
1000
1010
1001
1010
,
0001
0000
0100
0010
0100
0000
0010
0000
,
0100
0011
0101
1001
,
1000
0000
0010
0100
0010
0000
0100
0000
,
0001
0100
0101
1001
,
1000
0000
0010
0100
0001
0000
0100
0000
,
0010
1001
0110
1001
,
1000
0010
0100
0000
0001
0000
0000
0000
,
1000
0100
1000
0010
,
0100
0001
0100
0010
,
1000
0100
0010
0001
,
0010
0100
1000
0000
,
0001
0100
0010
1000
,
0100
0010
0100
1000
,
0001
0010
0100
0010
,
0001
1000
0010
0000
,
1000
0100
1000
0000
0010
0000
0100
0000
,
0001
0000
0010
0000
0001
0100
0010
0000
,
1000
0010
0100
0000
0001
0000
0100
0000
,
0010
1000
0100
1000
0100
0000
1000
0000
,
0010
0100
0010
0100
0010
0000
0000
0000
,
1000
0001
1000
0001
1000
0000
0000
0000
,
0010
0100
0010
0000
1000
0001
1000
0000
,
0010
0100
0010
0100
0010
0000
0100
0000
,
0001
0000
0100
0000
0010
1000
0100
0000
,
1000
0000
0010
0000
0100
0001
0010
0000
,
0001
0000
0100
0000
0010
1000
0100
0000
,
1000
0010
0200
0000
,
0310
0000
1000
0000
0100
1000
0100
0000
,
0010
0001
0010
0000
0001
0000
0100
0000
,
0010
1000
0010
0000
0100
0001
0100
0000
,
1000
0000
0010
0000
0100
0001
0100
0000
,
0001
0000
0100
0000
0010
1000
0100
0000
,
1000
0010
0100
0001
,
0010
0000
0001
0000
0100
0010
1000
0000
,
0100
0010
0001
0010
0100
0000
1000
0000
,
0010
0000
0100
0000
0001
0100
0001
0000
,
0100
0010
1000
0100
,
0010
0100
1000
0001
,
0010
0001
0010
0001
0010
0000
0001
0000
,
0100
0010
0100
0000
0010
0000
1000
0000
,
0001
0100
0001
0000
0100
0000
0010
0000
,
1000
0100
1000
0000
0010
0000
0100
0000
,
0001
0010
0001
0000
0100
0000
0010
0000
,
1000
0000
0100
1000
0010
0000
0100
0000
,
0001
0000
0010
0001
0100
0000
0010
0000
,
1000
0010
0100
0000
0001
0100
0010
0000
,
1000
0001
1000
0001
1000
0001
1000
0001
,
1000
0000
1000
0000
1000
0000
1000
0000
1000
0000
1000
0000
,
1000
0000
0000
0000
;

//---------------dance-single - Renard----------------
#NOTES:
     dance-single:
     Renard:
     Easy:
     5:
     0.377,0.330,0.000,0.000,0.000:
0000
0000
0000
0000
,
0000
0000
0000
0000
,
0000
0000
0000
0000
,
0000
0000
0000
0000
,
1000
0001
0100
0100
,
0001
1000
0100
0000
,
1000
0010
0100
0100
,
0010
0010
0100
0100
,
0010
1000
0100
0100
,
1000
0010
0100
0001
,
0010
0001
0100
0100
,
0010
1000
0100
0000
,
1000
0010
0100
0100
,
0010
1000
0100
1000
,
0010
0100
0001
0001
,
0100
0100
0010
0000
,
1000
1000
0001
0010
,
0001
0010
0100
0000
,
0010
0100
1000
0010
,
0100
0010
0001
0000
,
0100
1000
0010
0100
,
0001
0010
1000
0100
,
0100
1000
0010
0001
,
0010
0100
0010
0000
,
1000
0010
0001
0010
,
0001
0100
0100
0010
,
0100
0001
0001
0001
,
1000
0010
0010
0100
,
0001
0100
0001
0001
,
1000
0010
0001
0100
,
0010
0001
0010
0001
,
1000
0100
0001
0000
,
1000
0100
1000
0010
,
0100
0001
0100
0010
,
1000
0100
0010
0001
,
0010
0100
1000
0000
,
0001
0100
0010
1000
,
0100
0010
0100
1000
,
0001
0010
0100
0010
,
0001
1000
0010
0000
,
1000
1000
0010
0100
,
0001
0010
0001
0010
,
1000
0100
0001
0100
,
0010
0100
0100
1000
,
0010
0010
0010
0000
,
1000
1000
1000
0000
,
0010
0010
1000
1000
,
0010
0010
0010
0100
,
0001
0100
0010
0100
,
1000
0010
0100
0010
,
0001
0100
0010
0100
,
1000
0010
0100
0000
,
0010
1000
0100
0100
,
0010
0010
0001
0100
,
0010
0010
0100
0100
,
1000
0010
0100
0100
,
0001
0100
0010
0100
,
1000
0010
0100
0001
,
0010
0001
0100
1000
,
0100
0001
0100
1000
,
0010
0100
0001
0001
,
0100
0010
1000
0100
,
0010
0100
1000
0001
,
0010
0010
0010
0001
,
0100
0100
0010
1000
,
0001
0001
0100
0010
,
1000
1000
0010
0100
,
0001
0001
0100
0010
,
1000
0100
0010
0100
,
0001
0010
0100
0010
,
1000
0100
0001
0010
,
1000
1000
1000
1000
,
1000
0000
1000
0000
,
1000
0000
0000
0000
;
