#TITLE:XXX Can of This;
#SUBTITLE:;
#ARTIST:Mad Capsule Markets;
#GENRE:Digital Punk;
#TITLETRANSLIT:;
#SUBTITLETRANSLIT:;
#ARTISTTRANSLIT:;
#CREDIT:;
#BANNER:can of this.png;
#BACKGROUND:can of this-bg.png;
#LYRICSPATH:;
#CDTITLE:;
#MUSIC:can of this.ogg;
#OFFSET:0.000;
#SAMPLESTART:14.749;
#SAMPLELENGTH:12.000;
#SELECTABLE:YES;
#BPMS:0.000=195.000;
#STOPS:;
#BGCHANGES:;

//---------------dance-single - Renard----------------
#NOTES:
     dance-single:
     Renard:
     Hard:
     9:
     0.784,0.678,0.515,0.000,0.000:
0000
0000
0000
0000
,
0000
0000
0000
0000
,
0000
0000
0000
0000
,
0000
0000
0000
0000
,
1000
0100
0010
0010
0001
0100
0010
0010
,
1000
0100
0010
0010
0001
0100
0010
0000
,
0010
1000
0100
0100
0010
0001
0100
0100
,
0010
1000
0100
0100
0010
0001
0100
0000
,
0010
1000
0001
0001
0010
1000
0010
0000
,
0010
0001
1000
1000
0010
0001
0010
0000
,
0010
1000
0001
0001
0010
1000
0010
0000
,
0010
0001
1000
1000
0010
0001
0010
0000
,
0010
1000
0001
0100
0010
1000
0100
0010
,
0001
0010
0000
0011
0000
0001
0010
0100
,
1000
0010
0100
0001
1000
0100
1000
0001
,
0010
0001
0100
0001
1000
0100
1000
0010
,
0100
0001
0010
0100
1000
0010
0100
0001
,
1000
0100
0000
1100
0000
0100
1000
0010
,
0100
0001
0010
0100
1000
0100
0010
0001
,
0100
0010
1000
0010
1000
0000
0011
0000
,
0001
0010
0100
1000
0010
0100
0001
0010
,
0001
0100
0000
0101
0000
0001
0100
0010
,
1000
0100
1000
0010
0100
0001
0010
0100
,
1000
0100
1000
0001
0010
0001
1000
0010
,
0100
0001
0010
0100
1000
0010
0100
0001
,
1000
0001
0000
1001
0000
1000
0010
0100
,
0001
0010
0001
0100
0010
1000
0100
0010
,
0001
0010
0100
1000
1001
0000
0000
0000
,
0001
0001
0010
0010
0100
0100
1000
1000
,
0001
0010
0100
1000
0001
0010
0100
1000
,
0001
0001
0100
0100
0010
0010
1000
1000
,
0001
0100
0010
1000
0001
0100
0010
0000
,
1000
1000
0010
0010
0100
0100
0001
0001
,
1000
0010
0100
0001
1000
0010
0100
0001
,
1000
1000
0001
0001
0110
0000
0110
0000
,
0100
0100
0010
0010
1001
0000
1001
0000
,
1010
0101
0011
1100
,
1000
0010
0100
0001
0001
0010
0100
1000
,
1100
0011
0101
1010
,
1000
0100
0010
0001
0001
0100
0010
1000
,
1001
0110
1010
0101
,
0001
1000
0010
0100
0001
0010
0100
1000
,
0001
0100
0101
0000
1010
0000
1000
0100
,
0010
0001
0011
0000
1000
1000
0001
0001
,
1000
0100
0010
0100
1000
0001
0010
0001
,
1000
0100
0010
0100
1000
0001
0010
0001
,
0001
0010
0100
0010
0001
1000
0100
1000
,
0001
0010
0100
0010
0001
1000
1100
0000
,
1000
0010
0100
0001
0001
1000
0100
0100
,
0010
0001
0100
0010
0010
1000
0100
0100
,
0010
0001
0100
0001
1000
0100
1000
0010
,
1000
0001
1000
0000
1001
0000
0001
0001
,
0001
0001
0010
0001
0100
0001
1000
0001
,
0001
0010
0100
1000
0001
0010
0100
1000
,
1000
1000
0100
1000
0010
1000
0001
1000
,
1000
0100
0010
0000
0001
0010
0100
0000
,
1000
0010
0001
1000
0100
0001
1000
0010
,
0001
0001
0010
0010
1000
0010
1000
0000
,
0001
0100
1000
0001
0010
1000
0001
0000
,
0001
0100
1000
0001
0010
1000
0001
0000
,
1010
1100
0011
0101
,
0001
0100
0010
1000
0100
0010
0001
0000
,
0011
0101
1010
1100
,
0001
0010
0100
1000
0001
0000
1001
0000
,
1000
0100
1100
0000
0011
0000
0101
0000
,
0001
0100
0101
0000
1010
0000
1100
0000
,
1000
0100
1100
0000
0011
0000
0101
0000
,
0001
1000
1001
0000
1001
0000
0110
0000
,
0010
1000
0001
0100
1000
0100
0001
0010
,
1000
0010
0000
1010
0000
0010
0001
0100
,
0010
1000
0010
0001
0010
1000
0001
0100
,
1000
0100
0001
0100
0001
0100
0010
1000
,
0010
1000
0001
0100
1000
0100
0001
0010
,
1000
0010
0000
1010
0000
0010
0001
0100
,
0010
1000
0010
0001
0010
1000
0001
0100
,
1000
0100
0001
0100
0001
0100
0101
0000
,
1001
0000
0000
0000
;

//---------------dance-single - Renard----------------
#NOTES:
     dance-single:
     Renard:
     Medium:
     6:
     0.453,0.525,0.238,0.000,0.000:
0000
0000
0000
0000
,
0000
0000
0000
0000
,
0000
0000
0000
0000
,
0000
0000
0000
0000
,
1000
0000
0010
0100
0001
0000
0100
0000
,
0010
1000
0100
0010
,
0001
0000
0010
0100
1000
0000
0010
0000
,
0100
0001
1000
0100
,
0010
0000
0001
1000
0001
0000
0100
0000
,
0010
1000
0100
0010
,
0001
0000
1000
0010
1000
0000
0001
0000
,
0100
0001
1001
1010
,
0101
0010
1000
0100
,
0010
0001
0000
0100
0000
0000
0000
0000
,
0010
1000
0100
0010
,
0001
1000
0010
1000
,
0001
0100
0001
1000
,
0100
0010
0000
0001
0000
0000
0000
0000
,
0100
0010
1000
0001
,
1000
0001
1001
0000
,
1000
0010
0100
0001
,
1000
0100
0000
0010
0000
0000
0001
0000
,
0010
0100
1000
0010
,
0100
0001
0100
0010
,
1000
0100
0010
0001
,
1000
0001
0000
1000
0000
0000
0001
0000
,
0100
0100
0010
1000
,
0100
0010
0001
0000
,
1100
0100
0110
0010
,
0011
0001
0101
0100
,
0110
0010
1010
1000
,
1100
0100
0110
0000
,
0110
0100
1100
1000
,
1010
0010
0110
0100
,
0101
0001
0011
0010
,
0110
0100
1100
0000
,
0010
0000
1000
0010
1000
0000
0001
0000
,
0100
0100
0010
0010
,
1000
0000
0100
1000
0100
0000
0010
0000
,
0001
0100
0001
0000
,
1000
0000
0001
0100
0001
0000
1000
0000
,
0100
0100
0010
0010
,
0001
0000
0010
0001
0010
0000
0000
0000
,
0100
0000
1000
0100
1000
0000
0000
0000
,
0100
1000
0010
0100
,
0001
0010
0100
1000
,
0010
0100
0010
1000
,
0001
0000
0001
1000
0001
0000
0001
1000
,
0001
1000
0010
0100
,
0001
1000
0001
1000
,
0100
0000
0010
0001
0010
0100
1000
0000
,
0010
0100
1001
0000
,
1000
0010
0100
0001
,
1000
0000
0100
0000
0010
0001
0000
0010
,
0001
0010
0100
1000
,
0010
0000
1000
0000
0100
1000
0000
0100
,
1000
0010
0100
0001
,
0010
0000
0001
0000
1000
0001
0000
1000
,
0001
1000
0010
0000
,
0001
1000
0010
0000
,
1000
0001
0100
0001
,
1000
0001
0000
1000
0001
0000
1000
0000
,
0010
0100
0001
0010
,
0100
0010
0000
0100
0010
0000
0100
0000
,
1000
0010
0100
0001
,
1000
0001
0000
1000
0001
0000
0100
0000
,
0010
1000
0100
0010
,
0001
1000
0000
0001
1000
0000
0001
0000
,
0100
0100
0010
1000
,
0100
0010
0000
0011
0000
0000
0000
0000
,
0010
0100
1000
0010
,
0100
0001
0100
0010
,
1000
0100
0010
0001
,
1000
0010
0000
1010
0000
0000
1000
0000
,
0010
0100
0001
0010
,
0100
0000
1000
0001
1000
0000
1001
0000
;

//---------------dance-single - Renard----------------
#NOTES:
     dance-single:
     Renard:
     Easy:
     4:
     0.425,0.488,0.287,0.000,0.000: // measure 1
0000
0000
0000
0000
,  // measure 2
0000
0000
0000
0000
,  // measure 3
0000
0000
0000
0000
,  // measure 4
0000
0000
0000
0000
,  // measure 5
0001
0100
1010
0010
,  // measure 6
0100
0001
0010
0100
,  // measure 7
1000
0100
0011
0100
,  // measure 8
0010
1000
0001
0010
,  // measure 9
0100
1000
1001
0010
,  // measure 10
0100
0001
0010
0100
,  // measure 11
1000
0001
0101
1000
,  // measure 12
0010
1000
1001
0101
,  // measure 13
1010
0100
0001
0010
,  // measure 14
0100
1000
0010
0000
,  // measure 15
0100
0001
0010
0100
,  // measure 16
1000
0001
0100
0001
,  // measure 17
1000
0010
1000
0001
,  // measure 18
0010
0100
1000
0000
,  // measure 19
0010
0100
0001
1000
,  // measure 20
0001
1000
1001
0000
,  // measure 21
0001
0100
0010
1000
,  // measure 22
0001
0010
0100
1000
,  // measure 23
0100
0010
0001
0100
,  // measure 24
0010
1000
0010
0100
,  // measure 25
0001
0010
0100
1000
,  // measure 26
0001
1000
0001
1000
,  // measure 27
0010
0010
0100
0001
,  // measure 28
0010
0100
1000
0000
,  // measure 29
0001
0100
0010
1000
,  // measure 30
0100
0100
0010
0000
,  // measure 31
0001
0100
0010
0000
,  // measure 32
1000
0001
0100
0000
,  // measure 33
0001
1000
0100
0010
,  // measure 34
0001
0001
1000
0000
,  // measure 35
0010
1000
0001
0000
,  // measure 36
0001
1000
0010
0000
,  // measure 37
0100
0001
0101
1000
,  // measure 38
0010
0010
0100
0100
,  // measure 39
0001
0010
0011
0100
,  // measure 40
1000
0010
1000
0000
,  // measure 41
0001
1000
1010
0001
,  // measure 42
0010
0010
0100
0100
,  // measure 43
1000
0100
1100
0000
,  // measure 44
0010
0001
0011
0000
,  // measure 45
0010
0001
0100
0010
,  // measure 46
1000
0100
0010
0001
,  // measure 47
0100
0010
0100
0001
,  // measure 48
1000
1000
1001
1000
,  // measure 49
1001
0001
0100
0010
,  // measure 50
1000
0001
1000
0001
,  // measure 51
0010
0100
1100
0011
,  // measure 52
0100
0010
1001
0000
,  // measure 53
0001
0100
0010
1000
,  // measure 54
0001
0010
0100
1000
,  // measure 55
1100
0100
0010
0001
,  // measure 56
0100
0001
0010
0001
,  // measure 57
0011
0100
0010
1000
,  // measure 58
0100
1000
0001
1000
,  // measure 59
1001
0001
0100
0000
,  // measure 60
1000
0001
0100
0000
,  // measure 61
0001
1000
0010
1000
,  // measure 62
0001
1000
1001
0001
,  // measure 63
0100
0010
1000
0100
,  // measure 64
0010
0100
0110
0010
,  // measure 65
0001
0100
0010
1000
,  // measure 66
0001
1000
1001
0010
,  // measure 67
0100
0001
0010
0100
,  // measure 68
1000
0001
1001
1000
,  // measure 69
0010
0010
0100
0001
,  // measure 70
0010
0100
1100
0000
,  // measure 71
0100
0010
0001
0100
,  // measure 72
0010
1000
0010
0100
,  // measure 73
0001
0010
0100
1000
,  // measure 74
0001
0100
0101
0001
,  // measure 75
0100
0010
1000
0100
,  // measure 76
0010
0001
1001
1001
;
