#TITLE:Winter;
#SUBTITLE:;
#ARTIST:Emoticon;
#GENRE:Roxorcore;
#TITLETRANSLIT:;
#SUBTITLETRANSLIT:;
#ARTISTTRANSLIT:;
#CREDIT:;
#BANNER:winter.png;
#BACKGROUND:winter-bg.png;
#LYRICSPATH:;
#CDTITLE:;
#MUSIC:winter.ogg;
#OFFSET:0.000;
#SAMPLESTART:31.519;
#SAMPLELENGTH:10.303;
#SELECTABLE:YES;
#BPMS:0.000=190.000;
#STOPS:;
#BGCHANGES:;

//---------------dance-single - Renard----------------
#NOTES:
     dance-single:
     Renard:
     Challenge:
     13:
     1.000,1.000,0.771,0.369,1.000:
0000
0000
0000
0000
,
0000
0000
0000
0000
,
0000
0000
0000
0000
,
0000
0000
0000
0000
,
2000
3002
0203
0320
,
1030
0000
0010
0000
1000
0010
0000
0100
0001
0000
0010
0001
0000
0100
0001
0000
,
1000
0000
0010
0000
0100
0001
0000
0010
0100
0000
1000
0010
0000
0100
0001
0000
,
1000
0000
0001
0000
1000
0001
0000
0001
0100
0000
0100
0010
0000
0010
1000
0000
,
0100
0000
0010
0000
1001
0000
0000
0010
0100
0000
0010
0000
1001
0000
0000
0000
,
1000
1020
0000
0100
0100
0000
1030
0000
,
0001
0000
0100
0000
0010
0000
1000
0000
0100
1000
0100
0000
2000
0000
0000
0000
,
0100
0001
0000
0001
0010
3000
1001
0000
,
0010
0000
0100
0001
0100
0000
0010
0000
0100
0000
0001
0100
0001
0000
0000
0000
,
0100
0001
0100
0010
1000
0100
0010
0001
0010
0100
1000
0100
0010
0100
1000
0001
,
0010
0001
1000
0010
0100
0001
1000
0100
0010
0001
0010
0100
0010
0100
1000
0001
,
0100
0010
0100
0001
0100
0010
1000
0100
0010
0100
1000
0001
1000
0100
0010
0100
,
1000
0001
0100
0010
0100
0001
1000
0100
0010
0100
1000
0001
0100
0000
0000
0000
,
0110
0000
0000
1010
0000
0000
0101
0000
0001
0000
0100
0001
0100
0000
0000
0000
,
0010
1000
0100
1000
0010
0000
0100
0000
0001
0000
0100
0000
1001
0000
0000
0000
,
1000
0000
0001
0100
0010
0000
1000
0000
0100
0000
1000
0000
0010
0000
0000
0000
,
0100
0000
0010
0100
0001
0000
0100
0000
1000
0000
0100
0000
0010
0000
0000
0000
,
0110
0000
0000
1010
0000
0000
1100
0000
0010
0000
0001
0010
0100
0000
0000
0000
,
0100
1000
0100
1000
0010
0000
0100
0000
0001
0000
0100
0000
0020
0000
0000
0000
,
0130
0000
0001
0100
0001
0000
0100
0000
0010
0000
1000
0000
0100
0000
1000
0000
,
0010
0000
1000
0000
1001
0000
0000
1000
0001
0000
0100
0000
1001
0000
0000
0000
,
1000
0000
1100
0000
1000
0010
0000
0000
1001
0000
0000
0101
0000
0000
1001
0000
,
0001
0000
0011
0000
0001
0100
0000
0000
1001
0000
0000
1010
0000
0000
1001
0000
,
0001
0000
0011
0000
0001
0100
0000
0000
1001
0000
0000
1010
0000
0000
1001
0000
,
1000
0000
1100
0000
1000
0010
0000
0000
1001
0000
0000
0101
0000
0000
1001
0000
,
0001
0000
0100
0001
0100
0000
0010
1000
0100
0010
0100
1000
0001
0000
0010
0000
,
0100
0010
0001
1000
0100
0000
0010
0100
1000
0000
0001
0010
0001
0000
1000
0000
,
0100
0010
0001
0010
0100
0000
1000
0010
0100
0000
0001
0000
0100
0000
0010
0000
,
1000
0100
0010
0001
1000
0000
0001
0010
0100
1000
0001
0000
1000
0000
0001
0000
,
1000
0200
0000
0302
0100
0000
0100
0000
,
0103
1000
0010
0001
0020
1000
2000
0030
,
0100
0100
0000
0001
0001
0000
3020
0000
,
0100
0100
0001
0031
0000
1001
1001
0000
,
1000
0100
0010
0000
0001
0010
0100
0000
1000
0100
0010
0000
0001
0010
0100
0000
,
1000
0010
0100
0000
0001
0100
0010
0000
1000
0010
0100
0000
0001
0100
0010
0000
,
1000
0100
0010
0000
0100
1000
0001
0000
0010
0001
1000
0000
0100
0010
0001
0000
,
0010
0100
1000
0000
0001
0100
0010
0000
1000
0100
0010
0000
0001
0100
0010
0000
,
0200
0000
0000
0020
0300
0000
1030
0000
0100
0000
0001
0100
2000
0000
0000
3000
,
0010
1000
0001
1000
0010
0000
0100
0000
0001
0000
1000
0000
0200
0000
0000
0000
,
1300
0000
0010
1000
0002
0000
1000
0003
0020
0000
2000
0030
0200
0000
3000
0300
,
1000
0000
0010
2000
0001
3000
0200
0000
0002
0300
2000
0003
0200
3000
0000
0300
,
0010
0001
1000
0100
0010
0010
0200
0000
,
1300
0010
0100
0001
0200
0000
0020
0300
,
1000
1000
0100
0230
0001
0302
0020
0003
,
0031
0010
0100
1000
0100
0001
0100
0000
,
1000
0000
1100
0000
0000
1010
0000
0000
1001
0000
0000
0101
0000
0000
0011
0000
,
0001
0000
0101
0000
0000
1010
0000
0000
1100
0000
0000
0011
0000
0000
1001
0000
,
0010
0000
0110
0000
0000
1001
0000
0000
1010
0000
0000
0101
0000
0000
0011
0000
,
1000
0000
0000
0000
1001
0000
0000
1000
0002
0000
0200
0000
1010
0000
0303
0000
,
0001
0100
0010
1000
0100
0001
0100
1000
,
0010
0001
0010
1000
0100
0010
0001
0010
,
0100
1000
0010
0100
0001
1000
0010
0100
,
0002
0000
0200
0000
1010
1010
1313
0000
,
0101
0000
0110
0000
0010
1000
0000
0010
1000
0000
0010
1000
0000
0010
1000
0000
,
1100
0000
0011
0000
1000
0100
0000
1000
0100
0000
1000
0100
0000
1000
0100
0000
,
0110
0000
1001
0000
1000
0010
0000
1000
0010
0000
1000
0010
0000
1000
0010
0000
,
0110
0000
1001
0000
0010
0001
0000
1000
0100
0000
0010
0001
0000
1000
0010
0000
,
0110
0000
0101
0000
1000
0100
0000
1000
0010
0000
1000
0001
0000
1000
0010
0000
,
0110
0000
0101
0000
0010
0001
0000
0100
0001
0000
1000
0001
0000
0100
0001
0000
,
0011
0000
0101
0000
0100
0010
0000
0100
0001
0000
0100
1000
0000
0100
0010
0000
,
1010
0000
0110
0000
0010
0001
0000
0010
1000
0000
0010
0000
0011
0000
0000
0000
,
1000
0100
1000
0001
1000
0010
1000
0001
1000
0100
0010
0001
0010
0100
1000
0010
,
0100
0001
0010
0001
0100
0001
1000
0001
0010
0100
1000
0001
0100
0010
1000
0100
,
1000
0010
0100
0001
0010
0001
0100
0010
1000
0100
1000
0010
0100
0001
1000
0001
,
0100
0010
0100
0010
1000
0010
1000
0010
0100
0001
0100
0001
1000
0000
0000
0000
,
0001
0010
0001
1000
0001
0100
0001
1000
0001
0010
0100
1000
0100
0010
0001
0100
,
0010
1000
0100
1000
0010
1000
0001
1000
0100
0010
0001
1000
0010
0100
0001
0010
,
0001
0100
0010
1000
0100
1000
0010
0100
0001
0010
0001
0100
0010
1000
0001
0000
,
1001
0010
1001
0100
1010
0100
0011
0100
,
1001
0000
0000
0000
;

//---------------dance-single - Alezay----------------
#NOTES:
     dance-single:
     Alezay:
     Hard:
     11:
     0.924,0.937,0.169,0.317,0.797:
0000
0000
0000
0000
,
0000
0000
0000
0000
,
0000
0000
0000
0000
,
0000
0000
0000
0000
,
0002
0000
0100
0000
0010
0000
0100
0003
,
1001
0000
1000
0000
0001
1000
0000
0001
1000
0000
0001
1000
0000
0001
0100
0000
,
0010
0000
1000
0000
0100
0010
0000
0010
0001
0000
0001
1000
0000
0001
1000
0000
,
0001
0000
0100
0000
0010
1000
0000
0010
1000
0000
0001
1000
0000
1000
0100
0000
,
0020
0000
0100
0000
0001
0100
0001
0030
,
0001
0100
0010
1000
0100
1000
0001
0000
,
0001
0100
0010
0100
0001
1000
0100
0000
,
0010
0001
0010
0001
0010
0000
0001
0000
0100
0000
0010
0000
1000
0000
0100
0000
,
1100
1000
0001
0100
0010
1000
0100
0000
,
0100
0010
0100
0000
0010
0000
0001
0000
1000
0000
0000
0000
1001
0000
0000
0000
,
0001
0100
0001
0000
1000
0001
1000
0000
0001
0000
0100
0000
0010
0000
0000
0000
,
0010
1000
0010
0000
0100
0000
0001
0000
1000
0000
0000
0000
1001
0000
0000
0000
,
0001
0100
0010
0100
0001
0000
1000
0000
0100
0000
1000
0000
1001
0000
0000
0000
,
2000
0001
0010
3002
,
0010
0100
0023
1000
,
0100
0032
1000
0100
,
0203
0010
1000
0320
,
0100
0001
2030
0010
,
0010
0000
0000
0000
3010
0000
0000
0000
1000
0001
1000
0001
1000
0000
0001
0000
,
1000
0000
0001
0000
1000
0000
1001
0000
0001
1000
0001
1000
0001
0000
0000
0000
,
1001
0000
0001
0100
0001
0000
1000
0000
1001
0000
1001
0000
1001
0000
0000
0000
,
1100
0000
0100
0000
0010
0001
0000
0010
0001
0000
0001
1000
0000
0001
0100
0000
,
0010
0000
1000
0000
0001
1000
0000
0001
0100
0000
0001
1000
0000
0001
0100
0000
,
0010
0000
1000
0000
0100
0010
0000
0100
1000
0000
0100
0010
0000
0100
1000
0000
,
0001
0000
0100
0000
0010
0100
0000
0010
0001
0000
0010
0100
0000
0010
0001
0000
,
0010
0000
1000
0000
0100
0001
0000
0100
1000
0000
0100
0001
0000
0100
1000
0000
,
0001
0000
0100
0000
0100
1000
0000
0001
0010
0000
0100
1000
0000
0010
0100
0000
,
0001
0000
0100
0000
0010
1000
0000
0010
1000
0000
0001
1000
0000
0100
1000
0000
,
0002
1000
0100
1003
,
1001
0001
0100
0010
1000
0100
1000
0000
,
1000
0001
1000
0001
1000
0000
0001
0000
0100
0000
0010
0000
0100
0000
0001
0000
,
1000
0001
1000
0001
1000
0000
0100
0000
0010
0000
0100
0000
1000
0000
0001
0000
,
0100
0010
0100
0010
0100
0001
0100
0010
1000
0000
0001
0000
1000
0000
0100
0000
,
0010
0001
0010
0001
0010
0000
0001
0000
0100
0000
0000
0000
0101
0000
0000
0000
,
0001
1000
0001
0000
1000
0001
1000
0000
0001
0000
1000
0000
0020
0000
0000
0000
,
0130
0001
0100
0000
0010
0100
0010
0000
0100
0000
0010
0000
1000
0000
0100
0000
,
0010
0001
0010
0001
1000
0001
1000
0001
0100
0001
0100
0001
0100
0010
1000
0100
,
2000
0010
0100
3020
,
0100
0001
0230
0001
,
1000
0302
1000
1000
,
2003
0010
0100
3200
,
0010
1000
0010
0001
,
0010
0320
0001
1000
,
0001
0230
0010
1000
,
0001
0001
0301
0001
,
1001
0000
1000
0000
0001
0100
0000
0100
0010
0000
0010
1000
0000
1000
0100
0000
,
0010
0000
0001
0000
0001
1000
0000
0001
0100
0000
0001
1000
0000
1000
0010
0000
,
0100
0000
0001
0000
0100
0010
0000
0100
0010
0000
0100
0010
0000
0100
0010
0000
,
1000
0000
0100
0000
0010
0001
0000
0001
1000
0000
0001
0100
0000
0100
0010
0000
,
0100
0000
0010
0000
1000
0001
0000
1000
0100
0000
0010
0001
0000
0001
0100
0000
,
0010
0000
1000
0000
0001
0100
0000
0010
1000
0000
1000
0100
0000
0010
0001
0000
,
1000
0000
0001
0000
0100
0010
0000
0100
0001
0000
0100
0010
0000
0010
1000
0000
,
0001
0100
0020
0000
0130
0001
1000
0000
,
0001
0000
1000
0000
0001
0100
0000
0001
1000
0000
1000
0100
0000
0010
0001
0000
,
1000
0000
0001
0000
0100
0010
0000
0010
1000
0000
1000
0001
0000
1000
0100
0000
,
0010
0000
0001
0000
1000
0001
0000
1000
0001
0000
0001
1000
0000
0001
1000
0000
,
0002
0000
0010
0000
0010
0000
0010
0003
2000
0000
0100
0000
0100
0000
3100
0000
,
1100
0000
0100
0000
0010
0001
0000
0001
1000
0000
0001
0100
0000
0001
0100
0000
,
0001
0000
0010
0000
0100
1000
0000
0001
1000
0000
0010
1000
0000
1000
0100
0000
,
0010
0000
0001
0000
0001
0100
0000
0001
0100
0000
0010
0100
0000
0010
0100
0000
,
0200
0010
0010
0310
0020
0100
0100
0130
,
0100
0000
0001
0000
1000
0001
0000
0100
0001
0000
1000
0001
0000
0001
0100
0000
,
0010
0000
1000
0000
0100
0010
0000
0010
0001
0000
0001
1000
0000
0001
1000
0000
,
0001
0000
0100
0000
0010
1000
0000
0010
1000
0000
0001
1000
0000
0100
1000
0000
,
0002
0100
0100
0103
0200
0010
1000
0310
,
0100
0010
0100
0010
0100
0000
0001
0000
0100
0000
0010
1000
0000
0001
1000
0000
,
1000
0001
1000
0001
1000
0000
0100
0000
0010
0000
0001
0010
0000
0100
1000
0000
,
0001
1000
0001
1000
0001
0000
0100
0000
0010
0000
1000
0100
0000
0010
0001
0000
,
2000
0100
0010
3100
0200
0001
1000
0310
,
2002
0000
0000
0000
,
3003
0000
0000
0000
;

//---------------dance-single - BlueChaos----------------
#NOTES:
     dance-single:
     BlueChaos:
     Easy:
     3:
     0.297,0.462,0.296,0.000,0.000:
0000
0000
0000
0000
,
0000
0000
0000
0000
,
0000
0000
0000
0000
,
0000
0000
0000
0000
,
0000
0000
0000
0000
,
1000
0000
0000
0000
,
0001
0000
0000
0000
,
0100
0000
0000
0000
,
0010
0000
0000
0000
,
1000
0001
0100
0000
,
0001
1000
0100
0000
,
1000
1000
1000
0000
,
0001
0001
0001
0000
,
0010
0010
0010
0000
,
0100
1000
0001
0000
,
0010
0001
0010
0000
,
1000
0100
1000
0000
,
1001
0000
0000
0000
,
0110
0000
0000
0000
,
1001
0000
0000
0000
,
0110
0000
0000
0000
,
1000
0001
1000
0000
,
0001
1000
0001
0000
,
0100
0010
0100
0000
,
1000
1001
0001
1001
,
0001
0100
1000
0000
,
1000
0100
0001
0000
,
0001
0010
1000
0000
,
1000
0010
0001
0000
,
1000
0000
1001
0000
,
0001
0000
0101
0000
,
0100
0000
0110
0000
,
0010
0000
1010
0000
,
1000
0000
0001
0000
,
1000
0000
0010
0000
,
1000
0000
0001
0000
,
0100
0100
0100
0000
,
0010
0000
1000
0000
,
0001
0000
1000
0000
,
0001
0000
0000
0000
,
1000
0001
0100
0000
,
0010
1000
0001
0000
,
1000
0001
1000
0000
,
0001
1000
0100
0000
,
1000
0001
1000
0000
,
0010
0000
1000
0000
,
0001
0000
1000
0000
,
0001
0000
1000
0000
,
0100
0000
0010
0000
,
1001
0000
0000
0000
,
0101
0000
0000
0000
,
1010
0000
0000
0000
,
1000
1001
0001
1001
,
0001
0010
0100
0000
,
1000
0010
0100
0000
,
0010
0100
0001
0000
,
0001
1000
0001
1001
,
1000
1001
0001
1000
,
1001
0001
1000
0100
,
1100
1000
0001
1000
,
1001
0000
0110
0000
,
1001
0000
0010
0000
,
1001
0000
0100
0000
,
1001
0000
0001
0000
,
1000
0100
0010
0001
,
1001
0000
0010
1000
,
1000
0000
1000
0001
,
0001
0000
0001
0100
,
0100
0001
1000
1001
,
0110
0000
1000
0000
,
0001
0000
1000
0000
,
0100
0000
0010
0000
,
0001
0000
1000
0001
,
1001
0000
0000
0000
;

//---------------dance-single - BlueChaos----------------
#NOTES:
     dance-single:
     BlueChaos:
     Medium:
     9:
     0.706,0.694,0.391,0.158,0.090:
0000
0000
0000
0000
,
0000
0000
0000
0000
,
0000
0000
0000
0000
,
0000
0000
0000
0000
,
0000
0000
0000
0000
,
1000
0010
1000
0010
1000
0010
1000
0000
,
0001
0100
0001
0100
0001
0100
0001
0000
,
1000
0001
1000
0001
1000
0001
1000
0000
,
0020
0100
0130
0000
1001
1001
1001
0000
,
0001
1000
0001
1000
0002
0000
0013
0000
,
0001
0010
0100
1000
0001
1000
0002
0000
,
0000
0203
0000
0310
1000
0000
1001
0000
,
1000
0000
0001
0010
0000
0010
0100
0000
,
0000
1001
0000
1000
1100
0000
1001
0000
,
1000
0100
1000
0001
1000
0010
2000
0000
,
0000
3002
0000
0013
0100
0000
1100
0000
,
1000
0100
0010
0001
2002
0000
3003
0000
,
0001
0000
0000
1000
0000
0000
0001
0000
0100
0000
0000
0010
1000
0000
0000
0000
,
0001
1000
0001
1000
0100
1000
0001
0000
,
1000
0001
0010
0000
0010
0001
1000
0000
,
0001
0100
0010
1000
0100
0010
0001
0000
,
1000
0000
0000
0001
0000
0000
0100
0000
0010
0000
0000
1000
0001
0000
0000
0000
,
1000
0001
1000
0001
0000
0001
0010
0000
,
0010
0100
1000
0100
0010
0001
1000
0000
,
0010
1000
0001
0000
1001
1001
1001
0000
,
0001
0000
1000
0000
0010
0000
0000
0000
1000
0000
0000
1000
0000
0000
1000
0000
,
0000
0000
0001
0000
0100
0000
0000
0000
0001
0000
0000
0001
0000
0000
0001
0000
,
0000
0000
1000
0000
0100
0000
0000
0000
0010
0000
0000
0010
0000
0000
0010
0000
,
0000
0000
0001
0000
1000
0000
0010
0000
0100
0000
0000
0100
0000
0000
0100
0000
,
0000
0000
0001
0000
1000
0000
0000
0000
0001
0000
0000
0010
0000
0000
0001
0000
,
0000
0000
0010
0000
0100
0000
0000
0000
1000
0000
0000
0001
0000
0000
1000
0000
,
0000
0000
0001
0000
0010
0000
0000
0000
0100
0000
0000
1000
0000
0000
0100
0000
,
0000
1000
0001
0000
0001
1000
0100
0010
,
0002
0000
0000
1003
0001
0000
1001
0000
,
0001
1000
0001
0001
1000
0001
0001
0000
,
0000
2000
0000
3001
0010
0000
1100
0000
,
2000
0000
3100
0010
0000
0010
0001
0000
,
0000
1000
0000
0001
0010
0000
1001
0000
,
0001
0100
0010
0010
1000
0100
0100
0000
,
0000
2000
0000
0001
3002
0000
0100
0000
,
1003
0000
0100
0000
0010
0000
0001
0000
2002
0000
0000
3003
0000
0000
0000
0000
,
1000
0001
1000
0010
1000
0100
0010
0000
,
0010
0100
1000
0001
0100
0001
1000
0000
,
0001
1000
0010
0100
0001
0010
0100
0000
,
1000
0001
0100
0010
1000
0001
0010
0000
,
0001
1000
0100
1000
0010
1000
0001
0000
,
0001
0100
0010
1000
0100
1000
0100
0000
,
1000
0100
1000
0010
0100
0001
0100
0000
,
0001
0100
0010
0100
0010
1000
0001
0000
,
1000
0000
0000
0001
0000
0000
0100
0000
0000
0010
0000
0000
1000
0000
0001
0000
,
0000
0000
1000
0000
0000
0100
0000
0000
0010
0000
0000
0001
0000
0000
0100
0000
,
0000
0000
0001
0000
0000
0010
0000
0000
0100
0000
0000
0010
0000
0000
0001
0000
,
1000
0100
0010
0000
1001
1001
1001
0000
,
0001
1000
0100
0010
0001
1000
0001
0000
,
1000
0010
0100
0001
0010
0100
0010
0000
,
0100
1000
0001
1000
0010
0100
0001
0000
,
0001
1000
0100
0010
0100
1000
0010
0000
,
1001
0000
0001
0100
1000
0100
0001
0000
,
1001
0000
1000
0100
0001
0100
1000
0000
,
1001
0000
0001
0010
1000
0010
0001
0000
,
1001
0000
0001
1000
1100
0000
1000
0001
,
0101
0000
0001
0100
1000
0100
0010
0000
,
0110
0000
0010
1000
0100
0001
0100
0000
,
1100
0000
1000
0010
1001
0000
0001
0010
,
1001
0011
0101
0110
,
1010
0000
0010
1000
0100
0010
0001
0010
,
0100
1000
0010
0100
0010
1000
0100
0010
,
0001
1000
0001
0100
0010
1000
0100
0010
,
0001
0010
0001
0000
0011
0011
0011
0000
,
0001
1000
0010
1000
0010
0100
0010
0100
,
0001
0010
0100
0010
0001
1000
0001
0100
,
0010
1000
0100
0010
0100
1000
0001
0100
,
0010
1000
0001
0000
1000
0001
0010
0100
,
1001
0000
0000
0000
;
