#TITLE:Who;
#SUBTITLE:;
#ARTIST:KaW;
#GENRE:Dance;
#TITLETRANSLIT:;
#SUBTITLETRANSLIT:;
#ARTISTTRANSLIT:;
#CREDIT:;
#BANNER:who.png;
#BACKGROUND:who-bg.png;
#LYRICSPATH:;
#CDTITLE:;
#MUSIC:who.ogg;
#OFFSET:0.000;
#SAMPLESTART:47.800;
#SAMPLELENGTH:14.000;
#SELECTABLE:YES;
#BPMS:0.000=140.000;
#STOPS:;
#BGCHANGES:;

//---------------dance-single - Devil`ize----------------
#NOTES:
     dance-single:
     Devil`ize:
     Easy:
     2:
     0.157,0.225,0.030,0.000,0.000:
0000
0000
0000
0000
,
0000
0000
0000
0000
,
0000
0000
0000
0000
,
0000
0000
0000
0000
,
1000
0000
0010
0000
,
0001
0000
0000
0000
,
1000
0000
0001
0000
,
1000
0000
0010
0000
,
0100
0000
0001
0000
,
1000
0000
0001
0000
,
0100
0000
0000
0000
,
0001
0000
0000
0000
,
1000
0001
0000
0000
,
0001
1000
0000
0000
,
0010
0100
0000
0000
,
0001
1000
0000
0000
,
1000
0001
0000
0000
,
0100
0010
0000
0000
,
0001
1000
0000
0000
,
1000
0010
0000
0000
,
0001
0100
0000
0100
,
0010
0100
0000
1000
,
0001
1000
0000
1000
,
0000
0000
0010
0100
,
0001
0000
1000
0000
,
0100
0000
0010
0001
,
0010
0000
0100
0000
,
1000
0000
0000
0000
,
1000
0100
0010
0000
,
0001
0010
0100
0000
,
1000
0001
0100
0000
,
1000
0010
0100
0000
,
1000
0001
1000
0000
,
0010
0100
0010
0000
,
0001
0000
1000
0000
,
0001
0000
0010
0000
,
0100
0000
1000
0000
,
0010
0000
0100
0000
,
0001
0000
0100
0000
,
1000
0000
0001
0000
,
0010
0000
0100
0000
,
1000
0000
0001
0000
,
0001
0010
0100
1000
,
0100
0000
0001
0000
,
0100
0000
1000
0000
,
0000
0000
0000
0001
,
0000
0000
1000
0000
,
0001
0000
1000
0000
,
0001
0000
0000
0000
,
1000
0000
0000
0000
,
0001
0000
0000
0000
,
1001
0000
0000
0000
,
0001
0000
0000
0000
,
0010
0000
0000
0000
,
0100
0010
0100
0010
,
0110
0000
0000
0000
,
0110
0000
0000
0000
;

//---------------dance-single - Devil`ize----------------
#NOTES:
     dance-single:
     Devil`ize:
     Medium:
     5:
     0.264,0.282,0.101,0.000,0.000:
0000
0000
0000
0000
,
0000
0000
0000
0000
,
0000
0000
0000
0000
,
0001
0010
0100
1000
,
0100
0010
0001
0010
,
0100
1000
0100
0010
,
0001
0100
0010
1000
,
0001
0010
0100
0000
,
1000
0100
0010
0000
0000
0000
0000
0000
,
0010
0001
0010
0000
0000
0000
0000
0000
,
1000
0100
1000
0000
0000
0000
0000
0000
,
0010
0001
0100
0000
0000
0000
0000
0000
,
1001
0010
0100
0000
,
1001
0010
0100
0000
,
1001
0001
0010
0000
,
1100
0100
0010
0000
,
0011
0001
0010
0000
,
1100
0010
0100
0000
,
0011
0100
1000
0000
,
0101
0010
0100
0000
,
1001
0000
0010
0000
0100
0001
1000
0000
,
0000
0010
0001
0010
,
0100
0010
1000
0000
0000
0000
0010
0000
,
0001
0000
1000
0001
,
1000
0100
0001
1000
,
0001
0000
0010
0100
,
0010
0001
1000
0100
,
1000
0000
0001
0010
,
0001
0000
1000
0100
,
0010
0000
0001
0010
0001
0000
0000
0000
,
1000
0000
0010
0100
,
0001
0100
0010
0100
,
1000
0000
1000
0100
,
0010
0000
0001
0010
0001
0000
0000
0000
,
0100
1000
0100
0010
,
0001
0000
1000
0010
,
0100
0001
0010
0000
,
1000
0000
0010
0000
,
0001
0000
0010
0000
,
1000
0000
0100
0000
,
0010
0000
0001
0000
,
0010
0000
1000
0100
,
0010
0000
0001
0010
,
0100
0000
1000
0100
,
0010
1000
0001
1000
,
0001
0000
0001
0010
,
0100
1000
0100
0010
,
0001
0010
0000
1000
,
0100
0010
0100
1000
,
0100
0010
0001
0000
,
0001
0100
0010
1000
,
0100
0010
0001
0000
,
1000
0100
0010
0000
,
0001
0010
0100
0000
,
1000
0100
0010
0000
,
0001
1000
0001
0010
,
1100
0000
0000
0000
;

//---------------dance-single - Devil`ize----------------
#NOTES:
     dance-single:
     Devil`ize:
     Hard:
     9:
     0.557,0.563,0.261,0.000,0.256:
0000
0000
0000
0000
,
0000
0000
0000
0000
,
0000
0000
0000
0000
,
0001
0110
0100
1100
,
0100
0011
0010
1100
,
1000
0010
0100
0001
0010
0100
1000
0000
,
1000
0100
1000
0100
0010
0001
0010
0000
,
0001
0010
0001
0010
0100
1000
0100
0000
,
1000
0100
0000
0000
0011
0000
0000
0000
0001
0000
0010
0000
0001
0000
0010
0000
,
0100
0010
0000
0000
0110
0000
0000
0000
0001
0000
0010
0000
0100
0000
1000
0000
,
0100
1000
0000
0000
1100
0000
0000
0000
1000
0000
0100
0000
0010
0000
0001
0000
,
0010
0001
0000
0000
0011
0000
0000
0000
0010
0000
0100
0000
1000
0000
0000
0000
,
1000
0100
0000
0010
0001
0000
0001
0010
0000
0100
0000
0000
1000
0000
0000
0000
,
0010
0001
0010
0000
0100
1000
0000
1000
0000
0100
0000
0110
0000
0000
0000
0000
,
1000
0010
0000
0100
0001
0000
0001
0100
0000
0010
0000
0000
0100
0000
0000
0000
,
0010
1000
0010
0000
0010
0100
0000
0100
0001
0000
0000
0000
0101
0000
0000
0000
,
1000
0010
0100
0000
0001
0000
0010
0000
0100
1000
0100
0000
0010
0000
0001
0000
,
0010
0000
0100
0000
1000
0000
0010
0000
0100
0001
0010
0000
0001
0000
0010
0000
,
0100
0000
1000
0000
0100
0000
0010
0000
0001
0010
0001
0000
0010
0000
0100
0000
,
1000
0100
1000
0000
0100
0000
0010
0000
0001
0010
0100
0000
1000
0000
0100
0000
,
0010
0000
0001
0010
0100
0000
1000
0100
,
0010
0000
0001
1000
0001
0000
0010
0100
,
0010
0000
1000
0100
0010
0001
0100
0010
,
1000
0000
0110
0000
0001
0010
0100
1000
,
0100
0000
1100
0000
1000
0010
0100
0000
,
0001
0000
0010
0000
0100
0000
0000
0000
1000
0000
0100
0000
0010
0001
0010
0000
,
0011
0000
0010
0100
1000
0000
1000
0100
,
0010
0001
0100
0010
1000
0010
0100
0000
,
0100
0000
0000
1000
0000
0000
0010
0001
0010
0000
0000
0100
0000
0000
0100
1000
,
0100
0000
0000
0010
0000
0000
0010
0000
0001
0000
0010
0000
0100
0000
1000
0000
,
0100
0000
0000
0010
0000
0000
0100
1000
0100
0000
0000
0100
0000
0000
0010
0001
,
0010
0000
0000
0100
0000
0000
1000
0000
0010
0000
0100
0000
0001
0000
0100
0000
,
0010
0000
0000
1000
0000
0000
0100
0010
0100
0000
0000
0010
0000
0000
0010
0100
,
0010
0000
0000
1000
0000
0000
1000
0000
0100
0000
0010
0000
0001
0000
0010
0000
,
0100
0000
0000
1000
0000
0000
0010
0100
0001
0000
0000
0010
0000
0000
0010
0100
,
1000
0000
0000
1000
0000
0000
1000
0100
0010
0000
0001
0000
0010
0000
0100
0000
,
1000
0000
0100
0000
0010
0000
0001
0000
0010
0000
0100
1000
0100
0000
0000
0000
,
0100
0010
0001
0000
0001
0010
0100
0000
,
1000
0100
0010
0000
0000
0000
0001
0010
0100
0000
0000
0000
1100
0000
0000
0000
,
1000
0010
0100
0000
0001
0010
0100
0000
,
1000
0100
0010
0001
0010
0100
1000
0000
,
1000
0010
0100
0001
0010
0100
1000
0000
,
0010
0100
1000
0100
0010
0001
0010
0000
,
0001
0010
0001
0100
0001
1000
0001
0000
,
1000
0010
1000
0100
1000
0001
1000
0000
,
1100
0110
0011
0110
,
1001
0110
1001
0110
,
0011
1100
0011
1100
,
1000
0010
0100
0001
0010
0100
1000
0000
,
1000
0100
0010
0000
0001
0010
0100
0000
,
1000
0100
0010
0001
0010
0100
1000
0000
,
1000
0010
0100
0000
0001
0010
0100
0000
,
1000
0010
0100
0001
0010
0100
1000
0000
,
1000
0100
0010
0001
,
0010
0100
1000
0100
,
0010
0001
0010
0001
0010
0100
1000
0100
,
0010
0000
0000
0000
;

//---------------dance-single - BlueChaos----------------
#NOTES:
     dance-single:
     BlueChaos:
     Challenge:
     10:
     0.705,0.731,0.251,0.221,0.810: // measure 1
0000
0000
0000
0000
,  // measure 2
0000
0000
0000
0000
,  // measure 3
1000
1100
0000
1001
,  // measure 4
0001
0101
0010
1001
,  // measure 5
1000
0000
0001
0000
1000
0000
0001
1000
0000
1000
0100
0000
0010
0000
0010
0000
,  // measure 6
0001
0100
0010
1000
0100
0000
0010
0001
0000
0001
0020
0000
0100
0000
0130
0000
,  // measure 7
1000
0000
0010
0000
0001
0000
0010
1000
0000
1000
0200
0000
0001
0000
0301
0000
,  // measure 8
0100
0000
1000
0000
0010
0000
0100
0010
0000
0010
2000
0000
0001
0000
3001
0000
,  // measure 9
1000
0001
1000
0000
1000
0010
1000
0000
1000
0200
0010
0000
0010
0000
0310
0000
,  // measure 10
0100
0010
0001
0000
0001
0100
0000
0001
1000
0020
0100
0000
0100
0000
0130
0000
,  // measure 11
0010
1000
0100
0000
1000
0100
0010
0001
0100
0020
1000
0000
1000
0000
1030
0000
,  // measure 12
0010
1000
0010
0000
0100
0001
0100
0000
0001
1000
0000
0001
1000
0100
0010
0000
,  // measure 13
0001
0010
0000
0010
0001
0000
0001
0010
0000
0100
0000
1000
0100
1000
0010
0000
,  // measure 14
0100
0001
0000
0001
1000
0000
0001
0100
0000
0001
0000
0010
0000
0000
0100
0000
,  // measure 15
1000
0001
0000
0001
0010
0000
0010
0100
0000
1000
0000
0001
0100
0010
0100
0001
,  // measure 16
1000
0100
0010
0000
0100
1000
0000
1000
0001
0100
0000
0010
0000
1000
0000
0000
,  // measure 17
1000
0010
0000
1000
0001
0000
1000
0100
0000
1001
0000
0001
0100
0001
0100
0010
,  // measure 18
1000
0100
0000
0010
0100
0000
0000
1000
0000
0001
0000
1100
0000
0000
1000
0000
,  // measure 19
0001
0010
0000
0001
0100
0000
0010
1000
0000
1001
0000
1000
0100
0010
0001
1000
,  // measure 20
0001
0100
0010
0000
1000
0010
0000
0100
0000
0001
0000
0011
0000
1001
0000
0000
,  // measure 21
1000
0000
0100
0000
1000
0000
0100
1000
0010
0000
0100
0001
0010
0000
0001
1000
,  // measure 22
1001
0000
0000
0000
0000
0000
0001
0100
0010
0000
1000
0100
0010
0000
0100
0010
,  // measure 23
1001
0000
0000
0000
0000
0000
0001
0100
0010
0000
0100
0010
1000
0000
0010
0100
,  // measure 24
0101
0000
0000
0000
0000
0000
0001
0100
0001
0000
1000
0100
1000
0000
0001
0010
,  // measure 25
0011
0000
0000
0000
0000
0000
0001
0100
0010
0000
1000
0100
0010
0000
0100
1000
,  // measure 26
1100
0000
0000
0000
0000
0000
1000
0100
0010
0000
0001
0100
0010
1000
0100
0010
,  // measure 27
0011
0000
0000
0000
0000
0000
1000
0100
0010
0000
0100
0010
0001
0100
0010
0000
,  // measure 28
2002
0000
3113
0000
,  // measure 29
0001
0000
0000
0101
0000
0000
0100
0000
0010
0000
0000
1010
0000
0000
1000
0000
,  // measure 30
0100
0000
0000
1100
0000
0000
1000
0000
0001
0000
0000
0101
0000
0000
0100
0000
,  // measure 31
0010
0000
0000
0110
0000
0000
0100
0000
0001
0000
0000
1001
0000
0000
1000
0000
,  // measure 32
0010
0000
0000
1010
0000
0000
2000
0000
0100
0000
0100
0000
3100
0000
0000
0000
,  // measure 33
1000
0000
0000
0100
0000
0000
0001
0000
0100
0000
0000
1000
0000
0000
0100
0000
,  // measure 34
1000
0000
0000
0010
0000
0000
0100
0000
1000
0000
0000
0100
0000
0000
0001
0000
,  // measure 35
0100
0000
0000
0001
0000
0000
0010
0000
1000
0000
0000
0010
0000
0000
0001
0000
,  // measure 36
0100
0000
0000
0010
0000
0000
1000
0000
0100
0000
0000
1000
0000
0000
0001
0000
,  // measure 37
0100
0000
0000
0010
1000
0000
0000
1000
0100
0000
0000
0100
0010
0000
0001
0000
,  // measure 38
0100
0000
0000
0100
0010
0000
0000
0010
1000
0000
0000
1000
0001
0000
1000
0000
,  // measure 39
0010
0000
0000
0010
0100
0000
0000
0100
0001
0000
0000
0001
0010
0000
0100
0000
,  // measure 40
1000
0000
0001
0000
0100
0000
0001
1000
0010
0000
0100
0000
0001
0000
0001
0000
,  // measure 41
0200
0002
0000
1000
,  // measure 42
0010
0300
2003
0200
,  // measure 43
0010
0001
0300
0002
,  // measure 44
3010
0200
1000
0310
,  // measure 45
0200
0003
0020
0000
,  // measure 46
0001
0000
1030
0302
,  // measure 47
2003
0200
0010
3301
,  // measure 48
2000
0002
0100
3013
,  // measure 49
1000
0001
1000
0000
0001
0100
0001
0000
0000
0100
0010
0000
1000
0001
0010
0000
,  // measure 50
0001
0010
0100
1000
0001
0100
0010
0000
0000
0100
0001
0000
0100
0001
1000
0000
,  // measure 51
0001
0010
0100
1000
0001
0100
0010
0000
0000
1000
0010
0000
0100
0001
1000
0000
,  // measure 52
0001
0010
0100
0010
0001
0100
0010
0000
0000
1000
0010
0000
1000
0100
0010
0000
,  // measure 53
0100
1000
0001
0100
0010
1000
0100
0000
0000
1000
0001
0000
0100
0010
1000
0000
,  // measure 54
0001
0100
0001
1000
0100
0010
0001
0000
0000
0010
0001
0000
0010
0001
0100
0000
,  // measure 55
0001
1000
0010
0100
0010
1000
0100
0000
0000
1000
0010
0000
0100
0001
1000
0000
,  // measure 56
0001
0010
0100
1000
0001
0100
0010
0000
0000
1000
0001
0010
0100
0000
1001
0000
;
