#TITLE:Wahoo;
#SUBTITLE:;
#ARTIST:Emoticon;
#GENRE:Popcore;
#TITLETRANSLIT:;
#SUBTITLETRANSLIT:;
#ARTISTTRANSLIT:;
#GENRE:;
#CREDIT:;
#BANNER:wahoo.png;
#BACKGROUND:wahoo-bg.png;
#LYRICSPATH:;
#CDTITLE:;
#MUSIC:wahoo.ogg;
#OFFSET:0.000;
#SAMPLESTART:21.135;
#SAMPLELENGTH:12.000;
#SELECTABLE:YES;
#BPMS:0.000=181.000;
#STOPS:;
#BGCHANGES:;
#KEYSOUNDS:;

//---------------dance-single - Renard----------------
#NOTES:
     dance-single:
     Renard:
     Challenge:
     12:
     1.000,0.000,0.126,0.765,0.833:
0000
0000
0000
0000
,
0000
0000
0000
0000
,
0000
0000
0000
0000
,
0000
0000
0000
0000
,
1000
0010
0100
0001
1000
0100
0010
0001
,
0010
0100
1000
0010
0100
0001
0100
1000
,
0100
0001
0010
1000
0010
0001
0100
0010
,
1000
0100
0010
0100
1000
0010
0100
0010
,
1000
0000
0100
1000
0010
0000
0100
0001
0010
0000
0001
0100
0010
0000
1000
0100
,
1000
0000
0010
0000
0100
0001
0100
0000
0010
1000
0100
0000
1000
0000
0010
0000
,
0100
0000
0001
0010
0001
0000
0100
0010
0100
0000
0010
1000
0100
0000
1000
0000
,
0010
0000
0100
0000
0001
0010
0001
0000
0100
0000
0010
0000
1000
0010
1000
0000
,
0100
0000
1000
0000
0010
0100
0001
0000
0010
0001
0010
0000
0001
0000
0100
0000
,
0010
1000
0100
0000
1000
0000
0010
0000
0100
0001
0010
0001
0100
0000
0001
0000
,
1000
0000
0100
1000
0100
0000
1000
0010
1000
0000
0010
0000
0100
0000
0001
0000
,
0010
0001
0010
0001
0010
0000
0001
0000
0100
0001
0100
0001
0100
0001
0100
0000
,
0020
0130
0010
1000
0200
1300
0010
0100
,
0002
0013
0001
0100
0020
0130
0010
1000
,
0100
0000
1000
0000
0010
0000
0100
0000
0001
0010
0001
0000
1000
0100
1000
0000
,
0010
0000
0100
0000
0001
1000
0100
0000
1000
0010
0100
0001
0100
0000
0010
0000
,
0200
0310
0100
0001
0020
0031
0100
0010
,
2000
3100
1000
0010
0200
0310
0100
0001
,
0010
0000
0001
0000
0100
0000
0010
0000
1000
0100
1000
0000
0001
0010
0001
0000
,
0100
0000
0010
0000
1000
0001
0010
0000
0001
0100
0010
1000
0010
0000
0100
0000
,
0001
0010
0001
0000
1000
0100
1000
0000
0010
0100
0010
0000
1000
0001
1000
0000
,
0010
0100
0010
0000
1000
0001
1000
0000
0010
1000
0010
0000
0100
0001
0100
0000
,
0001
0010
0001
0000
1000
0100
1000
0000
0001
0010
0001
0000
1000
0010
1000
0000
,
0001
0100
0001
0000
1001
0000
0000
0000
1000
0001
0100
0000
1001
0000
0000
0000
,
1000
0100
1000
0000
0001
0010
0001
0000
0100
0010
0100
0000
0001
1000
0001
0000
,
0100
0010
0100
0000
0001
1000
0001
0000
0100
0001
0100
0000
0010
1000
0010
0000
,
1000
0100
1000
0000
0001
0010
0001
0000
1000
0100
1000
0000
0001
0100
0001
0000
,
1000
0010
1000
0000
1001
0000
0000
0000
0001
1000
0010
0000
1001
0000
0000
0000
,
1000
0000
0000
1000
0100
0000
1000
0000
0010
0000
0000
0010
0100
0000
0001
0000
,
0010
0000
0000
0010
0001
0000
0100
0000
0010
0000
0000
0010
1000
0100
1000
0000
,
0010
0000
0000
0010
0100
0000
0001
0000
1000
0000
0000
1000
0010
0000
1000
0000
,
0001
0000
0000
0001
0100
0000
0001
0000
1000
0100
1000
0000
0001
0010
0001
0000
,
1000
0000
0000
1000
0100
0000
1000
0000
0010
0000
0000
0010
0100
0000
0001
0000
,
0010
0000
0000
0010
0001
0000
0100
0000
0010
0000
0000
0010
1000
0100
1000
0000
,
0010
0000
0000
0010
0100
0000
0001
0000
1000
0000
0000
1000
0010
0000
1000
0000
,
0001
0000
0000
0001
0100
0000
0001
0000
1000
0100
1000
0000
0001
0010
0001
0000
,
2000
3200
0320
0230
2300
3020
0230
0302
,
0023
0032
0203
0320
2030
3200
0302
0203
,
2300
3020
0032
0023
2030
3200
0320
0230
,
2300
3020
0230
0302
0203
2300
3200
0302
,
0023
0230
0302
0203
2300
3020
0230
0302
,
0203
2300
3200
0302
0023
2030
3020
0230
,
0302
0203
2300
3020
0230
0302
2003
3200
,
0320
0230
2300
3020
0230
0302
2000
3003
,
1000
0100
1000
0100
0010
0001
0010
0001
1000
0010
1000
0010
0100
0001
0100
0001
,
1000
0100
1000
0100
1000
0010
1000
0010
0100
0001
0100
0001
0010
0001
0010
0001
,
1000
0001
1000
0001
0100
0010
0100
0010
1000
0010
1000
0010
0100
0001
0100
0001
,
1000
0100
1000
0100
0010
0001
0010
0001
1000
0001
1000
0001
0010
0001
0010
0001
,
1000
0100
0010
0100
1000
0100
0010
0100
1000
0100
0010
0100
1000
0100
0010
0100
,
1000
0100
0010
0001
0010
0100
0010
0001
0010
0100
0010
0001
0010
0100
0010
0001
,
1000
0100
0010
0001
1000
0010
0100
0001
1000
0100
0010
0001
1000
0010
0100
0001
,
1000
0100
1000
0100
0010
0001
0010
0001
1000
0100
0010
0001
0010
0100
1000
0010
,
0100
0000
0000
0100
0010
0000
1000
0000
0100
0000
1000
0000
1100
0000
0010
0000
,
0100
0000
0000
0100
0001
0000
0010
0000
0001
0000
0100
0000
0101
0000
0001
0000
,
0100
0000
0000
0100
0010
0000
1000
0000
0100
0000
1000
0000
1010
0000
0010
0000
,
0100
0000
0000
0001
0100
0000
0010
0000
1000
0000
0010
0000
0110
0000
1000
0000
,
0010
0000
0000
0010
0100
0000
0001
0000
0010
0000
0001
0000
0011
0000
0100
0000
,
0010
0000
0000
0010
1000
0000
0100
0000
1000
0000
0010
0000
1010
0000
1000
0000
,
0010
0000
0000
0010
0100
0000
0001
0000
0010
0000
0001
0000
0101
0000
0100
0000
,
0010
0000
0000
1000
0010
0000
0100
0000
0001
0000
0100
0000
0110
0000
0001
0000
,
1000
0100
1000
0010
0100
0001
0010
0001
,
0100
0000
0010
0000
1000
0000
0010
0000
0100
0000
0001
0100
0010
1000
0100
0000
,
1000
0100
0010
0001
0010
0100
1000
0010
,
0100
0000
0001
0000
1000
0000
0010
0000
0100
0000
0001
0100
0001
0100
0010
0000
,
0100
0010
1000
0100
0010
0100
1000
0010
,
0100
0000
0001
0000
1000
0000
0100
0000
1000
0000
0100
0010
0001
0010
0100
0000
,
1000
0010
0100
0001
0010
0001
1000
0002
,
2000
0000
0000
0000
,
0000
0000
3003
0000
;

//---------------dance-single - Pyroko----------------
#NOTES:
     dance-single:
     Pyroko:
     Hard:
     9:
     0.766,0.000,0.262,0.178,0.309: // measure 1
0000
0000
0000
0000
,  // measure 2
0000
0000
0000
0000
,  // measure 3
0000
0000
0000
0000
,  // measure 4
0000
0000
0000
0000
,  // measure 5
1000
0100
1000
0100
1000
0100
1000
0100
,  // measure 6
1000
0100
1000
0100
1000
0100
1000
0100
,  // measure 7
0010
0001
0010
0001
0010
0001
0010
0001
,  // measure 8
1000
0100
1000
0100
1000
0100
1000
0100
,  // measure 9
0011
0001
1000
0100
0010
0001
1000
0100
,  // measure 10
0110
0100
1000
0001
0010
0100
1000
0001
,  // measure 11
0101
0100
0010
1000
0001
0100
0010
1000
,  // measure 12
1010
0010
0100
0001
1000
0010
0100
0001
,  // measure 13
0101
0100
0010
1000
0100
0001
0100
1000
,  // measure 14
1100
0100
1000
0010
0001
0010
1000
0100
,  // measure 15
1100
1000
0010
0100
1000
0100
0010
0001
,  // measure 16
0011
0010
1000
0100
0010
0001
1000
0010
,  // measure 17
1000
0000
1000
0100
0010
0000
0010
0001
,  // measure 18
2000
0200
0000
0001
3300
1000
0100
0010
,  // measure 19
0001
0011
0000
0110
0000
0100
0001
0100
,  // measure 20
2000
0020
0000
0100
3030
0010
1000
0010
,  // measure 21
0010
0000
0001
0100
0001
0000
2000
3020
,  // measure 22
0230
2300
3000
1100
0000
0100
0010
0001
,  // measure 23
0010
1000
0000
1010
0000
0100
0001
0100
,  // measure 24
1000
1000
0000
0100
0000
0001
0010
0100
,  // measure 25
0100
1000
0000
1000
0000
0000
0010
0001
,  // measure 26
0010
0100
0000
0100
0000
0001
0010
0100
,  // measure 27
1000
0100
0010
0000
0000
0000
0011
0000
0000
0000
1100
0000
0000
0000
1000
0100
,  // measure 28
1000
0000
0000
0010
0000
0000
1000
0000
0100
0000
0000
0000
0000
0000
0000
0000
,  // measure 29
0010
0001
0000
0001
0000
0000
0100
1000
,  // measure 30
0100
0010
0000
0010
0000
1000
0100
0010
,  // measure 31
0001
0010
0100
0000
0000
0000
1100
0000
0000
0000
0011
0000
0000
0000
0001
0010
,  // measure 32
0001
0000
0000
0100
0000
0000
0001
0000
0010
0000
0000
0000
0001
0000
0000
0000
,  // measure 33
1000
0000
0000
0100
0000
0000
0010
0000
0001
0000
0000
0100
0000
0000
0010
0000
,  // measure 34
0100
0000
0000
1000
0000
0000
0100
0000
0010
0000
0000
0001
0000
0000
0010
0000
,  // measure 35
1000
0000
0000
0100
0000
0000
0001
0000
0100
0000
0000
1000
0000
0000
0100
0000
,  // measure 36
0010
0000
0000
0001
0100
0000
0010
0000
1000
0000
0000
0100
0010
0000
0100
0000
,  // measure 37
0010
0000
0000
0010
0000
0000
0100
0000
1000
0000
0000
0010
0000
0000
0100
0000
,  // measure 38
0010
0000
0000
0001
0000
0000
0010
0000
0100
0000
0000
1000
0000
0000
0100
0000
,  // measure 39
0010
0000
0000
0100
0000
0000
0001
0000
1000
0000
0000
0100
1000
0000
0010
0000
,  // measure 40
1000
0000
0000
0001
0000
0000
0010
0000
0001
0000
0000
0100
0000
0000
0010
0000
,  // measure 41
2000
0020
0000
0001
3030
0000
0010
0100
,  // measure 42
0002
2000
0000
0010
3003
0010
1000
0010
,  // measure 43
1000
0100
0010
0000
0000
0000
0011
0000
0000
0000
0101
0000
0000
0000
0010
0100
,  // measure 44
0010
0000
0000
1000
0000
0000
0010
0000
0010
0000
0000
0000
0100
0000
0000
0000
,  // measure 45
0010
0001
0000
0011
0000
0000
0001
0010
,  // measure 46
1000
0001
0000
1010
0000
0100
1000
0100
,  // measure 47
0010
0001
0100
0000
0000
0000
0200
0000
0000
0000
1000
0300
0000
0000
0100
0010
,  // measure 48
0100
0000
0000
0010
0000
0000
2000
0000
0200
0000
3300
0000
0000
0000
0000
0000
,  // measure 49
1000
0100
0010
0001
1000
0100
0010
0001
,  // measure 50
1000
0100
0010
0001
0100
1000
0100
0010
,  // measure 51
1001
0001
0010
0100
1000
0001
0010
0100
,  // measure 52
1000
0001
0010
0100
1000
0100
1000
0100
,  // measure 53
0011
0001
1000
0001
1000
0010
1000
0010
,  // measure 54
1000
0100
0010
0100
0010
1000
0010
1000
,  // measure 55
0001
1000
0001
1000
0001
0010
0001
0010
,  // measure 56
1000
0010
1000
0010
0100
0010
0001
0010
,  // measure 57
1000
0000
0000
0010
0000
0000
1000
0000
0100
0000
0000
0000
1000
0000
0000
0000
,  // measure 58
0001
0000
0000
0010
0000
0000
0100
0000
1000
0000
0000
0010
0000
0000
0100
0000
,  // measure 59
0010
0000
0000
0001
0000
0000
0010
0000
0100
0000
0000
1000
0000
0000
0100
0000
,  // measure 60
0001
0000
0000
0010
0000
0000
1000
0000
0010
0000
0000
0001
0000
0000
0010
0000
,  // measure 61
1000
0000
0000
0100
0000
0000
1000
0000
0001
0000
0000
0100
0000
0000
0010
0000
,  // measure 62
0001
0000
0000
0010
0000
0000
0100
0000
0001
0000
0000
1000
0000
0000
0100
0000
,  // measure 63
0010
0000
0000
0001
0000
0000
0010
0000
0100
0000
0000
1000
0001
0000
0100
0000
,  // measure 64
0010
0000
0000
1000
0000
0000
0001
0000
0010
0000
0000
0100
0000
0000
0011
0000
,  // measure 65
0001
0010
0001
0000
0010
0100
0010
0000
0100
1000
0100
0000
1000
0010
1000
0000
,  // measure 66
0010
0100
0010
0000
0001
0010
0001
0000
0010
1000
0010
0000
1000
0100
0010
0000
,  // measure 67
0100
0010
0001
0000
0010
0001
1000
0000
0010
1000
0010
0000
0100
0010
1000
0000
,  // measure 68
0100
0010
0001
0000
0001
0100
0001
0000
1000
0010
1000
0000
0001
0100
0001
0000
,  // measure 69
0101
0010
1000
0001
0100
0010
1000
0010
,  // measure 70
1000
0100
0010
0001
0001
0010
0100
1000
,  // measure 71
0010
0001
0010
0100
1000
0100
0010
1000
,  // measure 72
2200
0000
0000
0000
,  // measure 73
0000
0000
3300
0000
;

//---------------dance-single - Jinxie----------------
#NOTES:
     dance-single:
     Jinxie:
     Easy:
     3:
     0.344,0.000,0.241,0.000,0.000: // measure 1
0000
0000
0000
0000
,  // measure 2
0000
0000
0000
0000
,  // measure 3
0000
0000
0000
0000
,  // measure 4
0000
0000
0000
0000
,  // measure 5
1000
0000
1000
0000
,  // measure 6
1000
0000
1000
0000
,  // measure 7
0001
0000
0001
0000
,  // measure 8
0001
0000
0001
0000
,  // measure 9
0010
0000
0100
0000
,  // measure 10
0010
0000
0100
0000
,  // measure 11
1000
0000
0001
0000
,  // measure 12
0010
0000
0100
0000
,  // measure 13
1001
0000
0010
0000
,  // measure 14
1000
0000
0001
0000
,  // measure 15
0010
0000
0100
0000
,  // measure 16
1000
0001
0001
0000
,  // measure 17
1000
0010
0010
1000
,  // measure 18
0001
0010
0010
0001
,  // measure 19
1000
0100
0100
1000
,  // measure 20
0001
0010
0010
0100
,  // measure 21
1001
0010
1000
0100
,  // measure 22
1000
0010
0001
0100
,  // measure 23
0001
0010
1000
0100
,  // measure 24
0001
0010
0001
0100
,  // measure 25
1001
1000
0010
0010
,  // measure 26
1000
0001
0010
0010
,  // measure 27
0001
0100
0100
0010
,  // measure 28
1000
0100
0100
0010
,  // measure 29
0001
0001
1000
1000
,  // measure 30
0100
0100
0010
0010
,  // measure 31
0001
1000
1000
0010
,  // measure 32
1000
1000
0001
0001
,  // measure 33
0010
0000
0010
0000
,  // measure 34
0100
0000
0100
0000
,  // measure 35
1000
0000
1000
0000
,  // measure 36
0001
0000
0001
0000
,  // measure 37
1010
0000
0100
0000
,  // measure 38
0011
0000
0100
0000
,  // measure 39
1100
0000
0100
0000
,  // measure 40
0101
0000
0100
0000
,  // measure 41
0010
0000
1000
0000
,  // measure 42
1000
0000
0001
0000
,  // measure 43
1000
0000
1000
0000
,  // measure 44
0001
0000
1000
0000
,  // measure 45
0001
0000
0001
0000
,  // measure 46
1000
0000
0010
0000
,  // measure 47
1000
0000
0100
0000
,  // measure 48
0001
0000
0001
0000
,  // measure 49
1010
0000
0100
0100
,  // measure 50
0011
0000
0010
0010
,  // measure 51
1010
0000
0100
1000
,  // measure 52
1010
0000
0100
0001
,  // measure 53
0011
0000
1000
0010
,  // measure 54
1000
0000
0001
0010
,  // measure 55
0001
0000
1000
0010
,  // measure 56
1000
0100
1000
0010
,  // measure 57
1000
0001
0010
0100
,  // measure 58
1000
0100
0010
0100
,  // measure 59
0010
0001
0010
0001
,  // measure 60
0010
1000
0010
1000
,  // measure 61
1010
1000
0001
1000
,  // measure 62
0011
0001
1000
0001
,  // measure 63
1100
1000
0001
1000
,  // measure 64
0101
0001
1000
0010
,  // measure 65
1010
0100
0100
0100
,  // measure 66
0011
0100
0100
0100
,  // measure 67
1000
1000
0001
0001
,  // measure 68
1010
1010
0011
0011
,  // measure 69
1000
1000
0001
0001
,  // measure 70
0010
0010
0100
0100
,  // measure 71
1000
1000
0001
0001
,  // measure 72
1001
0000
0000
0000
;

//---------------dance-single - Pyroko----------------
#NOTES:
     dance-single:
     Pyroko:
     Medium:
     5:
     0.461,0.000,0.377,0.052,0.000: // measure 1
0000
0000
0000
0000
,  // measure 2
0000
0000
0000
0000
,  // measure 3
0000
0000
0000
0000
,  // measure 4
0000
0000
0000
0000
,  // measure 5
2000
0000
0000
0000
,  // measure 6
0000
0000
0000
0000
,  // measure 7
3200
0000
0000
0000
,  // measure 8
0320
0000
0000
0000
,  // measure 9
0031
1000
0001
1000
,  // measure 10
0001
0000
1000
0000
0001
1000
0001
0000
,  // measure 11
0010
0100
0010
0100
,  // measure 12
0010
0000
0100
0000
0010
0100
0010
0000
,  // measure 13
0001
0010
0100
1000
,  // measure 14
0100
0000
0010
0000
0001
0010
0001
0000
,  // measure 15
1000
0100
0010
0001
,  // measure 16
0010
0000
0100
0000
1000
0100
1000
0000
,  // measure 17
0100
1000
0010
0100
,  // measure 18
0001
0100
0000
0101
0000
0000
0000
0000
,  // measure 19
0010
1000
0100
0010
,  // measure 20
0001
1000
0010
1000
,  // measure 21
1010
0010
1000
0100
,  // measure 22
0010
0100
0000
0110
0000
0000
0000
0000
,  // measure 23
0001
0100
0010
1000
,  // measure 24
1010
1001
1001
1001
,  // measure 25
0001
0010
0001
0000
,  // measure 26
1000
0100
1000
0000
,  // measure 27
0010
1000
0100
0000
,  // measure 28
0010
0001
0010
0011
,  // measure 29
0011
0001
0001
1000
,  // measure 30
1000
0100
0100
0010
,  // measure 31
0001
0010
0001
0000
0010
0000
0100
0000
,  // measure 32
1000
0001
1001
1001
,  // measure 33
0011
0010
0001
0010
,  // measure 34
0100
1000
0100
1000
,  // measure 35
0010
0100
0010
0100
,  // measure 36
0001
0100
0001
0100
0001
0100
0001
0000
,  // measure 37
1001
1000
0100
1000
,  // measure 38
0001
1000
0001
1000
,  // measure 39
0001
0010
0001
0010
,  // measure 40
0011
0001
1001
1000
,  // measure 41
1100
1000
0100
1000
,  // measure 42
0100
1000
0100
1000
,  // measure 43
0010
0001
0010
0000
0001
0000
0100
0000
,  // measure 44
0010
1000
0010
0000
0010
0000
0010
0000
,  // measure 45
1000
0100
1000
0000
1000
0000
0100
0000
,  // measure 46
0010
0001
0010
0000
0001
0000
0100
0000
,  // measure 47
0001
0100
0001
0000
1000
0000
0010
0000
,  // measure 48
1000
0100
1100
0110
,  // measure 49
0011
1000
0100
0010
,  // measure 50
0001
1000
0100
0010
,  // measure 51
0011
0001
0010
0100
,  // measure 52
1100
1000
0001
1000
,  // measure 53
1001
0001
0100
0001
,  // measure 54
0101
0100
0010
0100
,  // measure 55
0110
0010
1000
0010
,  // measure 56
1010
1000
0001
1000
,  // measure 57
1001
0100
1000
0100
,  // measure 58
0010
0001
0010
0001
,  // measure 59
0100
0010
0100
0010
,  // measure 60
1000
0010
1000
0010
1000
0010
1000
0000
,  // measure 61
1100
1000
0100
1000
,  // measure 62
0001
1000
0001
1000
,  // measure 63
0001
0010
0001
0010
,  // measure 64
0011
0001
1001
1000
,  // measure 65
1100
1000
0100
0010
,  // measure 66
0001
1000
0100
0010
,  // measure 67
0011
0001
0010
0100
,  // measure 68
1100
1000
0001
1000
,  // measure 69
1001
0001
0100
0001
,  // measure 70
0101
0100
0010
0100
,  // measure 71
0110
0010
1000
0010
,  // measure 72
0220
0000
0000
0330
0000
0000
0000
0000
;
