#TITLE:Viennacore;
#SUBTITLE:;
#ARTIST:JAKAZiD;
#GENRE:Foreign Hardcore;
#TITLETRANSLIT:;
#SUBTITLETRANSLIT:;
#ARTISTTRANSLIT:;
#CREDIT:;
#BANNER:;
#BACKGROUND:;
#LYRICSPATH:;
#CDTITLE:;
#MUSIC:vienna.ogg;
#OFFSET:0.002;
#SAMPLESTART:33.293;
#SAMPLELENGTH:12.000;
#SELECTABLE:YES;
#BPMS:0.000=180.000;
#STOPS:;
#BGCHANGES:;

//---------------dance-single - Renard----------------
#NOTES:
     dance-single:
     Renard:
     Challenge:
     12:
     0.947,1.000,0.424,0.293,1.000:
0000
0000
0000
0000
,
0000
0000
0000
0000
,
0000
0000
0000
0000
,
0000
0000
0000
0000
,
0000
0000
0000
0000
,
1000
0000
0001
0000
0100
0000
0010
1000
,
0010
0000
0100
0000
0001
0000
1000
0100
,
1000
0000
0001
0000
0010
0000
0001
1000
,
1000
0000
0000
0000
0000
0000
0000
0000
0000
0000
0000
0000
0000
0000
0000
0000
0001
0000
0000
0000
0000
0000
0000
0000
0000
0000
0000
0000
0000
0000
0000
0000
1000
0000
0000
0000
0000
0000
0000
0000
0000
0000
0000
0000
0000
0000
0000
0000
0001
0000
0000
0000
0000
0000
0000
0000
0000
0000
0000
0000
0000
0000
0000
0000
0000
0000
1000
0000
0000
0000
0000
0000
0000
0000
0000
0000
0000
0000
0000
0000
0000
0000
0000
0000
0000
0000
0000
0000
0000
0000
0001
0000
0000
0000
0000
0000
0000
0000
0000
0000
0000
0000
0000
0000
0000
0000
0000
0000
0000
0000
0000
0000
0000
0000
1000
0000
0000
0000
0000
0000
0000
0000
0000
0000
0000
0000
0000
0000
0000
0000
0000
0000
0000
0000
0000
0000
0000
0000
0000
0000
0001
0000
0000
0000
0000
0000
0000
0000
0000
0000
0000
0000
0000
0000
0000
0000
0000
0000
0000
0000
0000
0000
0000
0000
0000
0000
0000
0000
1000
0000
0000
0000
0000
0000
0000
0000
0000
0000
0000
0000
0000
0000
0000
0000
0000
0000
0000
0000
0000
0000
0000
0000
,
2001
0001
0001
0001
,
0010
0010
0100
3100
,
1002
1000
1000
1000
,
0100
0100
0010
0013
,
2010
3100
0012
0103
,
2100
3010
0102
0013
,
2001
3010
1002
0013
,
1001
1010
1001
0101
,
1000
0000
0100
1000
0100
0000
1000
0000
0001
0000
0010
0001
0010
0000
0001
0000
,
1000
0100
0010
0001
1000
0001
0010
0100
1000
0000
0000
1000
0001
0000
1000
0000
,
0001
0000
0100
0001
0100
0000
0001
0000
1000
0000
0100
1000
0100
0000
1000
0000
,
0100
0010
0100
0010
0100
0000
1000
0000
0001
0000
0000
0000
1000
0000
0001
0000
,
1000
0000
0010
1000
0010
0000
1000
0000
0001
0000
0100
0001
0100
0000
0001
0000
,
1000
0010
0100
0001
0100
0010
1000
0001
1000
0000
0000
1000
0001
0000
1000
0000
,
0001
0000
1000
0001
1000
0000
0001
0000
1000
0000
0001
1000
0001
0000
1000
0000
,
0001
0010
0001
0010
0100
0000
0100
0000
1000
0000
0000
0000
0000
0000
0000
0000
,
1000
0000
0001
0100
0001
0000
1000
0000
0100
0000
1000
0010
1000
0000
0010
0000
,
0001
0100
0010
1000
0010
0100
0001
1000
0001
0000
0000
0001
1000
0000
0001
0000
,
1000
0000
0100
0010
0001
0000
1000
0000
0001
0000
0010
0100
1000
0000
0001
0000
,
1000
0100
1000
0100
1000
0000
0100
0000
0010
0000
0000
0010
0001
0000
1000
0000
,
0010
0000
0100
0001
0100
0000
0001
0000
1000
0000
0010
1000
0010
0000
1000
0000
,
0001
0100
0010
1000
0001
0100
0010
1000
0001
0000
0000
0001
1000
0000
0001
0000
,
1000
0000
0100
1000
0100
0000
1000
0000
0001
0000
0010
0001
0010
0000
0001
0000
,
1000
0010
1000
0001
1000
0000
0001
0000
0100
0000
0000
0000
1001
0000
0000
0000
,
0001
1000
0100
1000
0001
1000
0100
1000
0001
0000
0000
0000
1001
0000
0000
0000
,
1000
0001
0100
0001
1000
0001
0100
0001
1000
0000
0000
0000
1001
0000
0000
0000
,
0001
1000
0010
1000
0001
1000
0100
0010
0001
0100
0001
0010
0001
1000
0001
0100
,
0002
0203
2300
3200
,
0301
0100
0001
1000
0001
0100
0001
1000
0001
0000
0000
0000
1001
0000
0000
0000
,
1000
0100
1000
0001
1000
0100
1000
0001
1000
0000
0000
0000
1001
0000
0000
0000
,
0002
0023
2030
3020
,
0031
0010
0000
0010
0001
0000
0001
1000
0000
1000
0010
0000
1000
0000
1001
0000
,
0001
0100
0000
0100
0010
0000
0010
1000
0000
1000
0100
0000
1000
0000
1001
0000
,
0001
0100
0000
0100
0001
0000
1000
0100
0000
0100
1000
0000
0100
0000
1001
0000
,
0100
0001
0000
0100
0010
0000
1000
0010
2000
0000
0000
0000
0000
0000
0000
0000
,
3001
0100
0010
1000
0010
0100
0001
1000
0001
1000
0100
0010
0001
1000
0001
1000
,
0100
1000
0001
0010
0001
1000
0010
0100
0001
1000
0001
0100
0001
1000
0100
0010
,
0001
1000
0001
0100
0001
1000
0100
0010
0001
1000
0100
1000
0010
1000
0001
0010
,
0100
1000
0001
0100
0001
1000
0001
0100
0020
0000
0000
0000
0000
0000
0000
0000
,
1030
0010
0100
0001
1000
0100
1000
0001
0010
0100
1000
0001
0010
0001
1000
0010
,
0100
0001
1000
0010
0100
0001
1000
0001
2000
0000
0000
0000
0000
0000
0000
0000
,
3001
0010
0100
1000
0001
0100
0010
1000
0001
0100
0010
1000
0001
0010
0100
1000
,
0100
1000
0001
0010
0001
1000
0010
0100
0001
0000
0000
0000
1001
0000
0000
0000
,
1000
0001
0010
0001
1000
0001
0010
0001
1000
0000
0000
0000
1001
0000
0000
0000
,
0001
1000
0010
1000
0001
1000
0010
1000
0001
0000
0000
0000
1001
0000
0000
0000
,
1000
0001
0100
0001
1000
0001
0010
0100
1000
0010
1000
0100
1000
0001
1000
0010
,
2000
3020
0032
0023
,
1030
0010
1000
0001
1000
0010
1000
0001
1000
0000
0000
0000
1001
0000
0000
0000
,
0001
0010
0001
1000
0001
0010
0001
1000
0001
0000
0000
0000
1001
0000
0000
0000
,
2000
3200
0302
0203
,
1300
0100
0000
0100
1000
0000
0001
0000
0100
0001
0000
0001
0100
0000
0001
0000
,
1000
0001
1000
0001
0000
0000
1010
0000
0000
0000
0000
0000
,
0101
0000
1001
0000
,
1100
0000
0011
0000
,
1001
0000
0101
0000
,
1000
0100
1000
0100
0000
0100
0010
0000
0010
0001
0000
0001
,
1000
0001
0100
0001
0000
0001
1000
0000
1000
0100
0000
0000
,
0010
0001
0010
0001
0000
0001
1000
0000
1000
0010
0000
0000
,
1010
0000
0101
0000
1001
0000
1100
0000
0011
0000
1001
0000
,
0110
0000
0000
0000
;

//---------------dance-single - Renard----------------
#NOTES:
     dance-single:
     Renard:
     Hard:
     9:
     0.730,0.702,0.054,0.022,0.446:
0000
0000
0000
0000
,
0000
0000
0000
0000
,
0000
0000
0000
0000
,
0000
0000
0000
0000
,
0000
0000
0000
0000
,
1000
0000
0000
1000
0001
0000
0100
0000
0010
0000
1000
0000
0100
0000
0010
0000
,
0001
0000
0000
0001
1000
0000
0100
0000
1000
0000
0010
0000
0100
0000
0001
0000
,
1000
0000
0000
1000
0001
0000
0100
0000
0001
0000
0100
0000
0010
0000
0000
0000
,
2002
0000
0000
3003
,
1000
0001
0100
0010
,
1000
0010
1000
0010
1000
0001
1000
0100
,
1000
0000
0100
0000
0010
0000
0001
1000
,
0001
0100
0001
0000
0010
0001
1000
0001
,
0010
0001
1000
0100
,
1000
0010
1000
0000
0001
0100
0001
0000
,
1000
0100
0010
0001
0010
0100
1000
0010
,
1000
0000
0001
1000
0001
1000
0001
0000
,
1000
0000
0000
1000
0010
0000
0100
0000
0001
0000
0000
0001
0010
0000
0100
0000
,
1000
0001
1000
0100
1000
0010
0100
0001
,
0010
0000
0000
0010
0001
0000
0010
0000
0100
0000
0000
0100
1000
0000
0010
0000
,
1000
0000
0001
0000
0100
0000
0001
0000
1000
0000
0000
1000
0001
0000
0001
0000
,
0100
0000
0000
0100
0010
0000
0010
0000
1000
0000
0000
1000
0100
0000
0100
0000
,
0010
0001
0010
0100
1000
0010
0100
0001
,
1000
0000
0000
1000
0001
0000
0001
0000
0100
0000
0000
0100
0010
0000
0010
0000
,
1000
0000
0010
1000
0010
0000
1000
0000
0001
0000
0100
0001
0100
0000
0000
0000
,
0001
1000
0100
0010
0001
0010
0100
1000
,
0001
0000
1000
0001
1000
0000
0001
0000
1000
0000
0010
0000
0100
0000
0001
0000
,
0010
0100
1000
0010
0100
0001
1000
0100
,
1000
0000
0001
1000
0001
0000
1000
0001
1000
0000
0001
0000
1000
0000
0010
0000
,
0100
0001
0010
0100
1000
0001
1000
0001
,
1000
0000
0000
1000
0010
0000
0000
0010
0100
0000
0001
0000
0010
0000
0100
0000
,
1000
0000
0000
1000
0010
0000
0100
0000
0001
0000
0000
0001
0010
0000
0100
0000
,
1000
0000
0001
0000
1000
0001
1000
0000
0001
0000
1000
0000
0010
0000
0100
0000
,
0001
0000
0000
0001
1000
0000
0000
1000
0010
0000
0100
0000
0001
0000
0010
0000
,
0100
0000
0000
0100
1000
0000
0000
1000
0001
0000
0100
0000
0010
0000
1000
0000
,
0100
0000
0000
0100
1000
0000
0000
1000
0010
0000
0000
0010
0100
0000
0000
0100
,
0001
0000
1000
0000
0001
1000
0001
0000
1000
0000
0001
0000
1000
0001
1000
0000
,
0010
0000
0000
0010
0100
0000
0000
0100
0001
0000
1000
0000
0100
0000
0010
0000
,
0001
0000
0000
0001
1000
0000
0000
1000
0010
0000
0000
0010
0100
0000
0100
0000
,
0001
0000
0000
0001
0100
0000
0000
0100
0010
0000
0000
0010
1000
0000
1000
0000
,
0100
0000
0000
1000
0000
0000
0010
0000
0000
0100
0000
0000
0001
0000
0010
0000
,
0100
0000
0000
1000
0000
0000
0010
0000
0000
0100
0000
0000
0001
0000
0010
0000
,
0100
0000
0000
1000
0000
0000
0010
0000
0000
0100
0000
0000
0001
0000
1000
0000
,
0001
0000
1000
0000
0001
0000
1000
0000
0001
1000
0001
1000
0001
0000
0000
0000
,
1000
0010
0100
0001
0010
0100
1000
0010
,
0100
0001
0100
1000
0100
0001
0010
1000
,
0010
0100
1000
0100
0001
0100
1000
0010
,
0001
0010
1000
0010
0100
0001
0100
1000
,
0100
0010
1000
0010
0001
0010
1000
0010
,
0100
0001
0010
0100
1000
0100
0001
0100
,
1000
0100
0010
0001
0010
1000
0010
0100
,
1000
0010
0100
0001
0100
0010
1000
0000
,
0001
0000
0000
0001
0100
0000
0000
0100
0010
0000
1000
0000
0100
0000
0010
0000
,
0001
0000
0000
0001
1000
0000
0000
1000
0001
0000
1000
0000
0001
0000
1000
0000
,
0010
0000
0000
0010
0100
0000
0000
0100
0001
0000
0000
0001
1000
0000
0000
1000
,
0100
0000
1000
0000
0001
1000
0001
0000
1000
0000
0001
0000
1000
0001
1000
0000
,
0001
0000
0000
0001
1000
0000
0000
1000
0010
0000
0000
0010
0100
0000
0001
0000
,
0010
0000
0000
0010
0100
0000
0000
0100
1000
0000
0000
1000
0010
0000
0100
0000
,
0001
0000
0000
0001
1000
0000
0000
1000
0001
0000
0000
0001
1000
0000
0000
1000
,
0001
0000
1000
0001
1000
0000
0001
0000
0100
0000
0010
0000
1000
0000
0000
0000
,
0001
1000
0001
1000
0000
0000
0001
0000
0000
0100
0000
0000
,
0010
0000
0010
1000
0000
0000
0100
0000
0000
1000
0000
0000
,
0010
0000
0000
0100
0000
0000
0001
0000
0000
1000
0000
1000
,
0100
1000
0010
0100
,
0001
1000
0001
1000
0000
0001
0100
0000
0000
0010
0000
0000
,
1000
0000
0000
0100
0000
1000
0010
0000
0000
0100
0000
0000
,
0001
0000
0000
0010
0000
0001
1000
0000
0000
0001
0000
0000
,
1000
0000
0001
0000
1000
0000
1001
0000
1010
0000
0101
0000
,
1001
0000
0000
0000
;

//---------------dance-single - Renard----------------
#NOTES:
     dance-single:
     Renard:
     Medium:
     7:
     0.498,0.665,0.315,0.033,0.022:
0000
0000
0000
0000
,
1000
0001
0100
0010
,
1000
0000
0001
0000
0100
0000
0001
1000
,
0001
1000
0010
0100
,
0001
0000
1000
0100
1000
0000
0001
1000
,
0001
1000
0010
0100
,
0001
0000
1000
0000
0100
0000
1000
0001
,
1000
0000
0001
0100
0001
0000
1000
0001
,
2002
0000
0000
0000
0000
0000
0000
3003
,
1000
1000
0001
0001
,
0100
0010
1000
0100
,
0010
0010
0001
0001
,
0100
0010
1000
1000
,
0100
0010
0001
0001
,
1000
0010
0100
0100
,
0001
0001
0010
0010
,
0100
1000
0010
0010
,
0100
0000
0001
0000
1000
0001
0100
0000
,
0001
0000
1000
0000
0100
1000
0001
0000
,
1000
0000
0001
0000
0100
0010
0100
0000
,
0010
1000
0002
0000
,
0103
0100
0010
0010
,
1000
0001
1000
0001
1000
0000
1000
0000
,
0001
0001
0100
0100
,
0001
1000
0001
1000
0001
0000
1001
0000
,
1000
0000
0001
0100
0001
0000
1000
0100
,
1000
0001
0100
0000
,
0001
0000
1000
0000
0100
0010
0001
0000
,
0010
0000
0100
0000
1000
0001
1000
0000
,
0001
0000
0100
0001
1000
0000
0001
0000
,
1000
0100
0010
0000
,
0001
0000
0000
0001
0100
0000
0000
0100
,
0010
0000
1000
0100
1000
0000
0000
0000
,
0001
0000
0100
0010
1000
0000
0000
0000
,
0010
0000
0100
0001
1000
0000
0000
0000
,
0001
0000
0100
0010
1000
0000
0010
0100
,
0001
1000
0100
0000
,
0010
0000
0001
0010
0100
0000
0000
0000
,
0100
0000
0010
0001
1000
0000
0000
0000
,
0010
0000
0100
0001
1000
0000
0010
0000
,
0100
0001
1000
0100
,
1001
0010
0100
0010
,
1001
0100
0010
0100
,
1001
0010
1001
0000
,
1000
0000
0001
0000
0100
0001
1000
0000
,
0100
0000
1000
0000
0001
1000
0100
0000
,
1000
0000
0001
0000
0010
0001
1000
0000
,
0010
0000
1000
0000
0001
1000
0001
0000
,
1000
0000
0001
0000
0100
0001
1000
0000
,
0100
0000
1000
0000
0001
1000
0100
0000
,
1000
0000
0001
0000
0010
0001
1000
0000
,
0001
1000
0001
1000
0001
1000
0001
1000
,
0001
0100
0010
0000
,
1000
0100
0010
0000
,
0001
0010
0100
0000
,
1000
0010
0100
0100
,
0010
1000
0001
0000
,
0100
0001
1000
0000
,
0100
0010
0001
1000
,
1001
1010
0101
1010
,
1001
0000
0100
0010
,
1001
0100
0010
0100
,
1001
1000
1100
0100
,
0110
0010
0011
0001
,
1001
1010
1001
0101
,
1001
1100
0110
0011
,
0011
0110
1100
1001
,
1000
0000
0010
0000
0100
0000
0001
0000
1000
0000
0001
0000
,
1001
0000
0000
0000
;

//---------------dance-single - Renard----------------
#NOTES:
     dance-single:
     Renard:
     Easy:
     5:
     0.379,0.665,0.207,0.272,0.000: // measure 1
0000
0000
0000
0000
,  // measure 2
1000
1000
1000
1000
,  // measure 3
0001
0001
0001
0000
,  // measure 4
0100
0100
0100
0100
,  // measure 5
0010
0010
0010
0000
,  // measure 6
1000
1000
0001
0000
,  // measure 7
1000
1000
0001
0000
,  // measure 8
0001
0001
1000
0000
,  // measure 9
2002
0000
0000
0000
,  // measure 10
0010
0000
0010
0000
,  // measure 11
3013
0000
0000
0000
,  // measure 12
0010
0000
0010
0000
,  // measure 13
0010
0000
0000
0000
,  // measure 14
2002
0000
0100
0000
,  // measure 15
0100
0000
0000
0000
,  // measure 16
0100
0000
0010
0000
,  // measure 17
3013
0000
0000
0000
,  // measure 18
1000
1000
1000
1000
,  // measure 19
0001
0001
0001
0001
,  // measure 20
0100
0100
0100
0100
,  // measure 21
0010
0010
0010
0010
,  // measure 22
1000
1000
0010
0010
,  // measure 23
0100
0100
0001
0001
,  // measure 24
1000
1000
0100
0100
,  // measure 25
0010
0010
0001
0000
,  // measure 26
0001
0010
0100
1000
,  // measure 27
0001
0010
0100
1000
,  // measure 28
0001
0010
0100
1000
,  // measure 29
0001
0010
0100
1000
,  // measure 30
0001
0100
0010
1000
,  // measure 31
0001
0100
0010
1000
,  // measure 32
0001
0100
0010
1000
,  // measure 33
0001
0100
0010
0000
,  // measure 34
2000
0000
0000
0001
,  // measure 35
3002
0000
0000
0100
,  // measure 36
0203
0000
0010
0000
,  // measure 37
0020
0000
1000
0330
,  // measure 38
0220
0000
0300
1000
,  // measure 39
2000
0000
0030
0001
,  // measure 40
0002
3000
0200
0003
,  // measure 41
0020
0300
2000
0030
,  // measure 42
0002
3000
0200
0003
,  // measure 43
0020
0300
2000
0030
,  // measure 44
0001
0001
3001
0000
,  // measure 45
1000
0100
0010
0001
,  // measure 46
1000
0100
0010
0001
,  // measure 47
1000
0100
0010
0001
,  // measure 48
1000
0100
0010
0001
,  // measure 49
1000
0010
0100
0001
,  // measure 50
1000
0010
0100
0001
,  // measure 51
1000
0010
0100
0001
,  // measure 52
0002
0200
1010
0303
,  // measure 53
0001
0001
0001
0000
,  // measure 54
1000
1000
1000
0000
,  // measure 55
0200
0000
0020
0000
,  // measure 56
0001
1000
0331
0000
,  // measure 57
0001
0001
0002
0000
,  // measure 58
0100
0100
0200
0000
,  // measure 59
0010
0010
1000
1000
,  // measure 60
0010
1000
0010
1303
,  // measure 61
0001
0000
0001
0000
,  // measure 62
0001
0000
0001
0000
,  // measure 63
1000
0000
1000
0000
,  // measure 64
1000
0000
1000
0000
,  // measure 65
1100
1100
1100
1100
,  // measure 66
1001
1001
1001
1001
,  // measure 67
0101
0101
0101
0101
,  // measure 68
1001
0000
1010
0000
,  // measure 69
0101
0000
0000
0000
;
