#TITLE:Verbal;
#SUBTITLE:;
#ARTIST:Amon Tobin;
#GENRE:Broken Beat;
#TITLETRANSLIT:;
#SUBTITLETRANSLIT:;
#ARTISTTRANSLIT:;
#CREDIT:;
#BANNER:verbal.png;
#BACKGROUND:verbal-bg.png;
#LYRICSPATH:;
#CDTITLE:;
#MUSIC:verbal.mp3;
#OFFSET:-0.020;
#SAMPLESTART:26.438;
#SAMPLELENGTH:12.000;
#SELECTABLE:YES;
#DISPLAYBPM:109.000;
#BPMS:0.000=109.000,160.000=218.000;
#STOPS:132.000=1.651
,137.000=1.651
,142.000=1.651
,147.000=1.651
,160.000=0.069
,160.250=0.069
,160.500=0.069
,160.750=0.069
,161.000=0.069
,161.250=0.069
,161.500=0.069
,161.750=0.069
,162.000=0.069
,162.250=0.069
,162.500=0.069
,162.750=0.149
;
#BGCHANGES:;

//---------------dance-single - ----------------
#NOTES:
     dance-single:
     :
     Hard:
     9:
     0.638,0.697,0.373,0.093,0.601:
0000
0000
0000
0000
,
0000
0000
0000
0000
,
1000
0001
1000
0001
0000
0000
0000
0000
0100
0100
0000
0000
0010
0000
0000
0000
,
0100
0010
0100
0010
0000
0000
0000
0000
1000
1000
0000
0000
0001
0000
0000
0000
,
1000
0010
0110
0010
0100
0001
0101
0000
,
0001
1000
1001
1000
0010
0100
0110
0000
,
0100
1000
1010
1000
0010
0001
0011
0000
,
0001
0100
0101
0100
1000
0010
1010
0000
,
0001
0100
0101
0100
1000
0010
1010
0000
,
0010
0100
1100
0100
1000
0001
1001
0000
,
0001
0010
0011
0010
0100
1000
1100
0000
,
1000
0001
0101
0001
1000
1010
0001
0000
,
1000
0100
1000
0100
1000
0010
1000
0001
0100
0000
0001
0000
0010
0000
0100
0000
,
1000
0010
0100
0010
1000
0100
0010
0001
0100
0000
0010
0000
1000
0000
0100
0010
,
0001
1000
0010
0100
0001
1000
0100
1000
0010
0100
0001
1000
0001
0100
0000
0000
,
0001
0100
0001
0100
0010
0100
0010
0100
0001
0100
0001
1000
0001
0100
0000
0000
,
1000
0001
0100
0001
0010
0000
0001
0000
1000
0000
0100
0000
0010
0000
0001
0000
,
1000
0100
1000
0010
0100
0000
0001
0000
1000
0000
0100
0000
0010
0000
0001
0000
,
1000
0100
1000
0010
0100
0000
0001
0000
0100
0001
0100
0001
0010
0000
0001
0000
,
1000
0010
0100
0001
1000
0100
0010
0001
1000
0000
0001
0000
1000
0000
1001
0000
,
1000
0001
1000
0001
0100
0000
0010
0000
1000
0100
0000
0000
0010
0001
0000
0000
,
1000
0001
1000
0001
0100
0000
0010
0000
1000
0010
0000
0000
0100
0001
0000
0000
,
1000
0010
0100
0001
1000
0000
0010
0000
0100
0000
0010
0000
0100
0001
0000
0000
,
0001
1000
0001
1000
0010
0000
0100
0000
0001
0100
0000
0000
0010
1000
0000
0000
,
0010
1000
0010
1000
0001
0100
0001
0100
0010
0100
0010
0100
0001
1000
0001
1000
,
0100
1000
0100
1000
0010
1000
0010
1000
0001
0100
0001
0100
0001
0010
0001
0010
,
0001
1000
0001
1000
0010
1000
0010
1000
0010
0100
0010
0100
0001
0100
0001
0100
,
0001
1000
0010
0100
0001
1000
0100
0010
0001
1000
0010
0100
0001
1000
0001
1000
,
0010
0100
0110
0010
1000
0001
1001
0000
,
1000
0010
1010
0010
0100
0001
0101
0000
,
1000
0001
0100
0010
1000
0010
1010
0000
,
1000
0100
0010
0001
0101
0010
1100
0010
,
1000
0100
1000
0100
0010
0001
0010
0001
1000
0000
0001
0000
0100
0000
0010
0000
,
2002
3003
0000
0000
0000
0000
0000
0000
1000
0000
0100
0000
0010
0000
0001
0000
1000
0000
0010
0000
0100
0000
0001
0000
1000
0000
0001
0000
1000
0000
0001
0000
,
1000
0000
0001
0000
0000
0000
0000
0000
2002
3003
0000
0000
0000
0000
0000
0000
1000
0000
0010
0000
1000
0000
0010
0000
0100
0000
0000
0000
0001
0000
0000
0000
,
0100
0000
0000
0000
0000
0000
0000
0000
0000
0000
0000
0000
0000
0000
0000
0000
0001
0000
0000
0000
0000
0000
0000
0000
0000
0000
0000
0000
0000
0000
0000
0000
0100
0000
0000
0000
0000
0000
0000
0000
0000
0000
0000
0000
0000
0000
0000
0000
0000
0000
0000
0000
0000
0000
0000
0000
0000
0000
0000
0000
0000
0000
0000
0000
0000
0000
0000
0000
0000
0000
0000
0000
0010
0000
0000
0000
0000
0000
0000
0000
0000
0000
0000
0000
0000
0000
0000
0000
0000
0000
0000
0000
0000
0000
0000
0000
2002
0000
0000
0000
0000
0000
3003
0000
0000
0000
0000
0000
0000
0000
0000
0000
0000
0000
0000
0000
0000
0000
0000
0000
0000
0000
0000
0000
0000
0000
0000
0000
0000
0000
0000
0000
0000
0000
0000
0000
0000
0000
0000
0000
0000
0000
0000
0000
1000
0000
0000
0000
0000
0000
0000
0000
0000
0000
0000
0000
0001
0000
0000
0000
0000
0000
0000
0000
0000
0000
0000
0000
0100
0000
0000
0000
0000
0000
0000
0000
0000
0000
0000
0000
0010
0000
0000
0000
0000
0000
0000
0000
0000
0000
0000
0000
,
0000
0000
0100
0000
0010
0000
0100
0000
0010
0000
1000
0000
0010
0000
1000
0000
0100
0000
0010
0000
0000
0000
0000
0000
2002
3003
0000
0000
0000
0000
0000
0000
,
1001
1000
0001
0100
0110
1000
1010
0000
,
1010
1000
0010
0100
0001
0100
0110
0000
,
1001
0001
1000
0010
0110
0001
0101
0000
,
1000
0010
1000
0010
0100
0001
0100
0001
1000
0001
1000
0020
0030
0000
0000
0000
;

//---------------dance-single - ----------------
#NOTES:
     dance-single:
     :
     Medium:
     7:
     0.441,0.359,0.000,0.052,0.031:
0000
0000
0000
0000
,
0000
0000
0000
0000
,
1000
0001
0001
0000
0100
0100
0010
0000
,
0100
0010
0010
0000
1000
1000
0001
0000
,
1000
0010
0010
0010
0100
0001
0001
0000
,
0001
1000
0001
1000
0010
0100
0010
0000
,
0100
1000
0010
1000
0010
0001
0001
0000
,
0001
0100
0001
0100
1000
0010
0010
0000
,
0001
0100
0001
0100
1000
0010
0010
0000
,
0010
0100
0100
0100
1000
0001
0001
0000
,
0001
0010
0001
0010
0100
1000
0100
0000
,
1000
0001
0001
0001
1000
0010
0001
0000
,
1000
0100
0100
0010
0001
0001
0010
0100
,
1000
0010
0010
0010
0001
0010
1000
0100
,
0001
0010
0001
0100
0010
0001
0001
0100
,
0001
0001
0010
0010
0001
0001
0001
0100
,
1000
0001
0001
0001
1000
0100
0010
0001
,
1000
0100
0010
0001
1000
0100
0010
0001
,
1000
0100
0010
0001
0100
0001
0001
0001
,
1000
0010
0001
0010
0001
0001
1000
0001
,
1000
0001
0001
0010
1000
0100
0010
0001
,
1000
0001
0001
0010
1000
0010
0100
0001
,
1000
0010
0001
0010
0100
0010
0100
0001
,
0001
0001
0010
0100
0001
0100
0010
1000
,
0010
0010
0001
0001
0010
0010
0001
0001
,
0100
0100
0010
0010
0001
0001
0001
0001
,
0001
0001
0010
0010
0010
0010
0001
0001
,
0001
0010
0001
0100
0001
0010
0001
0001
,
0010
0100
0010
0010
1000
0001
0001
0000
,
1000
0010
0010
0010
0100
0001
0001
0000
,
1000
0001
0100
0010
1000
0010
0010
0000
,
1000
0100
0010
0001
0001
0010
0100
0010
,
1000
0100
0010
0001
0001
0001
0100
0010
,
0200
0300
0000
0000
1000
0000
0010
0000
0001
0000
0010
0000
0001
0000
0001
0000
,
0001
0000
0001
0000
2000
3000
0000
0000
1000
0000
0010
0000
0010
0000
0001
0000
,
0100
0000
0001
0000
0000
0000
0010
0000
0200
0300
0000
0000
1000
0000
0001
0000
,
0010
0000
0010
0000
0010
0000
0010
0000
0100
0000
0010
0000
0002
0003
0000
0000
,
0001
1000
0001
0100
0010
1000
0010
0000
,
0010
1000
0010
0100
0001
0100
0010
0000
,
0001
0001
1000
0010
0010
0001
0001
0000
,
1000
0001
0100
0001
1000
0001
0100
0001
1000
0001
0100
0002
0003
0000
0000
0000
;

//---------------dance-single - ----------------
#NOTES:
     dance-single:
     :
     Easy:
     3:
     0.235,0.190,0.000,0.010,0.000:
0000
0000
0000
0000
,
0000
0000
0000
0000
,
0001
0100
0001
0100
,
0100
0001
0100
1000
,
0100
1000
0100
0001
,
0010
0100
0100
0001
,
0001
1000
1000
0100
,
0100
0001
0010
0001
,
0010
0100
0010
0100
,
0001
1000
0010
1000
,
0010
0001
0001
1000
,
0010
1000
0010
1000
,
0001
0100
0100
0010
,
0001
0001
0001
0010
,
0100
0001
0001
1000
,
0001
0010
0001
0001
,
0010
0100
1000
0100
,
0010
1000
0100
1000
,
0010
1000
0100
0100
,
0001
1000
0010
0001
,
0001
1000
1000
0010
,
0100
0001
0010
0010
,
0100
1000
0100
0100
,
1000
1000
1000
0001
,
0010
0001
0010
1000
,
0100
0010
1000
1000
,
0100
0001
0001
0001
,
0100
0100
0010
0001
,
0010
1000
0100
0100
,
0100
1000
1000
0100
,
0010
1000
0001
0100
,
0100
0010
1000
0010
,
0100
1000
0001
0001
,
0100
0001
0001
1000
,
1000
0001
0100
0001
,
0100
0010
0100
0100
,
0010
0100
0010
0001
,
1000
0010
1000
0001
,
0010
0001
1000
0010
,
1000
0010
0100
0100
,
1000
0001
1000
0001
1000
0002
0003
0000
;
