#TITLE:Vater Unser;
#SUBTITLE:;
#ARTIST:E Nomine;
#GENRE:Dark Dance;
#TITLETRANSLIT:;
#SUBTITLETRANSLIT:;
#ARTISTTRANSLIT:;
#CREDIT:;
#BANNER:vater.png;
#BACKGROUND:vater-bg.png;
#LYRICSPATH:;
#CDTITLE:;
#MUSIC:vater.ogg;
#OFFSET:0.000;
#SAMPLESTART:16.449;
#SAMPLELENGTH:12.000;
#SELECTABLE:YES;
#BPMS:0.000=131.000;
#STOPS:132.000=0.916
,166.000=0.916
;
#BGCHANGES:;

//---------------dance-single - Renard----------------
#NOTES:
     dance-single:
     Renard:
     Hard:
     7:
     0.497,0.466,0.456,0.148,0.000:
0000
0000
0000
0000
,
0000
0000
0000
0000
,
0000
0000
0000
0000
,
0000
0000
0000
0000
,
0000
0000
0000
0000
,
1001
0000
1010
0000
0101
0000
1000
0001
,
0000
0101
0000
0001
0010
0000
0001
0100
,
0202
0000
0000
0000
,
0000
0000
0000
0000
0303
0010
1001
0100
,
1010
0000
0102
0000
0013
0000
0201
0010
,
0320
1000
0000
1030
1010
0000
0001
0100
,
0101
0000
0120
0000
2000
0030
0001
3002
,
0000
0100
0000
0103
0101
0000
1010
0000
,
0001
0100
0101
0000
1001
0000
1010
0000
,
1100
0000
1000
0010
0100
0001
0010
0001
,
0100
0000
1001
0000
1010
0000
0002
0100
,
0000
0103
0000
0001
0100
0010
1000
0100
,
0010
0010
0001
0100
0010
0010
1000
0100
,
0010
0010
0001
0100
0010
0000
0010
0000
,
1000
1000
0100
0010
0001
0001
0100
0010
,
1000
1000
0010
0100
0001
0001
1000
0000
,
0100
0100
0010
0001
0100
0100
0010
1000
,
0100
0100
0010
0001
0100
0100
0010
0000
,
1000
1000
0010
0100
0001
0001
0010
0100
,
1000
1000
0100
0010
0001
0010
1001
0010
,
1001
0000
1010
0000
0100
0001
0010
0001
,
0000
0001
0100
0010
1000
0100
0001
0100
,
1000
0000
1001
0000
0101
0000
0001
0100
,
0000
0100
0001
1000
0010
0001
0010
1000
,
0100
0000
1100
0000
0011
0000
1000
0100
,
0000
0100
0001
0100
1000
0010
0001
0010
,
1000
0000
1010
0000
0101
0000
1000
0100
,
0010
0100
1000
0001
0100
0010
1001
0100
,
1001
0000
0000
0000
0100
0010
1000
0010
,
0100
0010
1000
0010
0100
0010
1000
0010
,
0100
0010
0010
0010
0100
0001
0010
0001
,
0100
0001
0010
0001
0100
0001
0100
0010
,
0100
0001
0001
0001
1000
0100
0010
0100
,
1000
0001
0100
0001
1000
0100
0010
0100
,
1000
0001
0001
0001
0100
0010
1000
0010
,
0100
0001
0010
0001
0100
0010
1000
0010
,
0100
0001
1000
0001
1001
0000
0000
0000
,
1001
0000
2010
0000
0100
0000
0001
3001
,
0101
0000
1010
0000
1000
0100
0010
0001
,
0010
0000
0012
0000
0100
0000
1000
2003
,
0000
0010
3010
0000
1000
0100
1000
0010
,
2010
0000
3001
0000
0102
0000
0010
0013
,
0011
0000
0101
0000
0001
0100
0010
1000
,
0100
0000
1010
0000
0101
0000
1000
0001
;

//---------------dance-single - Renard----------------
#NOTES:
     dance-single:
     Renard:
     Easy:
     2:
     0.226,0.363,0.212,0.170,0.000:
0000
0000
0000
0000
,
0000
0000
0000
0000
,
0000
0000
0000
0000
,
0000
0000
0000
0000
,
0000
0000
0000
0000
,
1000
0001
0100
0000
,
0010
1000
0100
0000
,
2000
0000
0000
0000
,
0002
0000
0000
3003
,
1000
1001
0101
1010
,
1001
0000
0000
0000
,
1000
1100
0110
0000
,
0011
0000
0101
1000
,
0001
0101
0110
1010
,
1001
0000
0000
0000
,
1000
0000
0001
0000
,
1001
0000
0000
0000
,
2000
0000
0000
0000
,
3200
0000
0320
0000
,
0032
0000
0000
0000
,
0103
0100
0100
0000
,
0020
0000
0000
0000
,
2030
0000
3200
0000
,
0310
0000
0010
0001
,
1000
0000
0000
1001
,
2000
0000
0000
3001
,
0200
0000
0310
0000
,
2000
0000
0000
3100
,
0020
0000
0032
0000
,
0103
0000
0000
0001
,
2000
0000
3002
0000
,
0103
0100
0010
0010
,
1000
0001
1001
0000
,
1001
0000
1000
1000
,
0001
0000
0001
0001
,
1000
0000
0010
0010
,
0100
0000
0100
0100
,
0010
0000
1000
1000
,
0010
0000
0100
0100
,
0001
0000
0010
0001
,
1000
0100
0010
0001
,
1000
0001
1001
0000
,
1000
1000
0001
0001
,
1000
0000
0001
0100
,
0010
0010
0100
0100
,
0010
0000
1000
0000
,
0010
0100
0001
1000
,
1001
0000
1010
0000
,
0101
0000
0010
0000
1000
0000
0001
0100
;

//---------------dance-single - Renard----------------
#NOTES:
     dance-single:
     Renard:
     Medium:
     5:
     0.330,0.311,0.064,0.021,0.000:
0000
0000
0000
0000
,
0000
0000
1000
0000
0010
0000
0100
0001
,
0000
0100
0000
0010
1000
0000
0010
0100
,
0000
0000
0000
0000
,
0000
0000
0000
0000
,
1000
0000
0100
0000
0010
0000
0001
1000
,
0000
0010
0000
0100
0001
0000
0100
0010
,
1000
1000
0001
0001
,
2002
0000
0000
0000
0000
0000
0000
3003
,
1000
0000
0010
0000
0100
0000
0001
0010
,
0001
1000
1000
0010
,
0100
0000
0001
0000
1000
0000
0100
0010
,
0000
0010
0100
0000
1000
0000
0010
0000
,
0100
0000
0001
0000
1000
0000
0001
0100
,
0001
1000
0100
0010
,
0001
0000
1000
0000
0010
0000
1000
0001
,
0000
0000
0100
0000
0010
0000
1000
0010
,
1000
0010
0000
0100
0001
0100
0000
0001
,
1000
0001
0000
1000
0100
0000
1000
0000
,
0001
0010
0000
0001
0100
0001
0000
1000
,
0010
1000
0000
0001
0100
0000
0000
0001
,
1000
0100
0000
0100
0010
0001
0000
0010
,
0100
1000
0000
0000
0000
1000
0010
0100
,
0001
0100
0000
0010
1000
0010
0000
0100
,
0001
0100
0001
1000
0001
0000
1000
0000
,
1000
0000
0100
0000
0010
0000
0001
1000
,
0000
0001
0000
0100
0001
0000
1000
0000
,
0100
0000
0010
0000
0001
0000
1000
0010
,
0000
1000
0001
0000
1000
0000
0100
0000
,
0010
0000
0001
0000
1000
0001
0000
0100
,
0001
0000
1000
0001
0000
0010
0001
0000
,
1000
0000
0100
0000
0010
0000
0001
1000
,
0000
0010
1000
0000
0100
0000
1000
0000
,
1001
0000
1000
0010
,
0100
0001
0100
0010
,
1000
0000
0100
0010
0100
0000
0010
0000
,
0001
0100
0010
1000
,
0001
0000
1000
0001
1000
0000
0001
0000
,
0100
0010
1000
0100
,
0010
0000
0001
0010
0001
0000
0010
0000
,
0100
1000
0010
0100
,
0001
1000
0001
0000
1001
0000
0000
0000
,
1000
0000
1000
0000
0010
0000
0100
0001
,
0100
0000
0010
1000
,
0100
0000
0010
0000
1001
0000
0010
0100
,
0000
1000
0010
0100
,
0001
0000
0010
0000
0100
0000
1000
0010
,
1000
0101
0000
0101
,
0010
0000
1000
0100
1000
0000
0010
0001
;

//---------------dance-single - BlueChaos----------------
#NOTES:
     dance-single:
     BlueChaos:
     Challenge:
     10:
     0.709,0.675,0.784,0.170,0.212: // measure 1
0000
0000
0000
0000
,  // measure 2
0000
0000
1001
0000
0110
0000
0000
0011
,  // measure 3
0000
1100
0000
1000
1010
0000
0010
0100
,  // measure 4
1001
0000
0101
0000
1100
0000
0000
0110
,  // measure 5
0000
0011
0000
0001
0101
0000
0100
0010
,  // measure 6
1001
0000
0110
0000
1010
0000
0000
1100
,  // measure 7
1001
0101
0000
0000
0011
0000
1100
1000
,  // measure 8
2020
0000
0000
0000
0000
0000
0000
3030
,  // measure 9
2000
0000
0000
0000
3200
0000
0000
0000
0320
0000
0000
0000
0031
0100
0010
1000
,  // measure 10
0100
0000
1000
0000
1100
0000
0010
0000
0101
0000
0010
1000
0100
0010
0001
0000
,  // measure 11
1001
0100
0001
0010
0200
0000
1000
0010
,  // measure 12
1300
0000
0001
0000
0100
0010
1000
0000
0100
1000
0001
0000
1100
0000
1010
0000
,  // measure 13
0000
0000
1000
0010
0100
0000
0010
0000
1010
0000
0100
0000
1001
0000
0010
0000
,  // measure 14
1100
0000
0000
0000
1001
0000
0010
0000
0101
0000
0001
1000
0100
1000
0010
0000
,  // measure 15
1010
1000
0100
0001
0200
0000
0001
0010
,  // measure 16
1300
0100
0011
0100
1010
0001
1100
1001
,  // measure 17
0001
0100
0010
0100
0001
0010
0100
0010
0001
1000
0010
0100
0010
1000
0100
0000
,  // measure 18
0100
0100
1000
0001
0001
0001
0100
0010
,  // measure 19
0010
0010
1000
0100
0001
0100
1000
0100
,  // measure 20
0100
0100
1000
0001
0001
0001
0100
0010
,  // measure 21
0010
0010
1000
0010
0001
0010
0100
0010
,  // measure 22
0010
0010
1000
0100
0100
0100
0010
0001
,  // measure 23
0001
0001
0100
0010
1000
0010
0100
0001
,  // measure 24
0001
0001
0010
0100
0100
0100
1000
0010
,  // measure 25
0010
0010
0100
0001
0010
0100
2000
0000
,  // measure 26
3001
0100
0010
0100
1000
0100
0010
0100
,  // measure 27
0001
0010
0100
1000
0100
0001
0100
0010
,  // measure 28
0001
0100
1000
0100
0010
0100
0001
0010
,  // measure 29
1000
0001
1000
0010
0001
0100
1000
0100
,  // measure 30
1000
0100
0001
0010
0100
0010
0001
1000
,  // measure 31
0001
0100
1000
0100
0001
0010
1000
0010
,  // measure 32
0001
0010
0001
0010
0100
1000
0100
1000
0001
1000
0001
0100
0010
0100
0001
1000
,  // measure 33
0100
0010
0001
0010
0100
1000
0001
1000
0010
0100
0010
1000
0100
1000
0001
0100
,  // measure 34
0010
0000
1000
0100
0010
0001
1001
1000
,  // measure 35
0110
0010
0100
1001
0001
1100
0100
1000
,  // measure 36
1010
0100
0010
0100
1001
0010
0101
0001
,  // measure 37
1100
1000
0100
0110
0001
0011
0010
0001
,  // measure 38
0101
0100
0010
1000
1001
0001
0110
0010
,  // measure 39
1100
1000
0010
1010
0100
0101
0001
1000
,  // measure 40
1001
0100
0001
0011
0010
0001
0100
1010
,  // measure 41
1000
0100
0110
0010
0001
0101
0010
1000
,  // measure 42
1001
0000
0001
0000
1000
0001
0100
0010
1000
0000
0000
0000
0000
0000
0000
0000
,  // measure 43
1001
0000
1000
0000
0110
0000
0010
0000
0101
0000
0100
0001
1000
0100
0010
0000
,  // measure 44
1100
0100
1000
0001
0200
0000
0010
0001
,  // measure 45
0310
0100
0101
0010
1001
0001
0011
0110
,  // measure 46
0000
0000
0100
0010
0001
0000
0010
0001
0100
0000
0010
0000
1100
0000
0100
0000
,  // measure 47
1010
0000
0010
0000
1001
0000
0100
0000
0110
0000
0010
1000
0100
0010
0001
0000
,  // measure 48
0110
0100
1000
0001
0020
0000
0001
0100
,  // measure 49
0031
1000
2020
3030
0022
0033
1001
2002
,  // measure 50
3003
0000
0000
0000
;
