#TITLE:Unico;
#SUBTITLE:;
#ARTIST:Lollipop;
#GENRE:Synthpop;
#TITLETRANSLIT:;
#SUBTITLETRANSLIT:;
#ARTISTTRANSLIT:;
#CREDIT:;
#BANNER:unico.png;
#BACKGROUND:unico-bg.png;
#LYRICSPATH:;
#CDTITLE:;
#MUSIC:unico.ogg;
#OFFSET:0.000;
#SAMPLESTART:12.866;
#SAMPLELENGTH:12.400;
#SELECTABLE:YES;
#BPMS:0.000=149.000,192.000=74.500,208.000=149.000;
#STOPS:;
#BGCHANGES:;

//---------------dance-single - Renard----------------
#NOTES:
     dance-single:
     Renard:
     Challenge:
     11:
     0.795,1.000,0.294,0.180,0.886:
0000
0000
0000
0000
,
0000
0000
0000
0000
,
0000
0000
0000
0000
,
0000
0000
0000
0000
,
2000
0000
0100
0000
0200
0000
3000
1000
0000
1300
0100
0000
1000
0000
1000
0000
,
0002
0000
0010
0000
0020
0000
0003
0001
0000
0031
0010
0000
0001
0000
0001
0000
,
0200
0000
0001
0000
0002
0000
0300
0100
0000
0103
0001
0000
0100
0000
0100
0000
,
0020
0000
1000
0000
2000
0000
0030
0010
0000
3010
1000
0000
0010
0000
0010
0000
,
1000
0010
0100
0001
1000
0001
1000
0100
0010
0001
1000
0100
0010
0100
0010
0001
,
1000
0000
0100
0000
1000
0000
0010
0100
0010
0100
0001
0000
1000
0000
0010
0000
,
0100
0001
0100
0010
1000
0001
0100
0010
0100
0010
1000
0100
0010
0100
0010
0001
,
0010
0000
0001
0000
0100
0000
0010
1000
0010
1000
0001
0000
0100
0000
0010
0000
,
0100
0010
0100
0001
1000
0010
1000
0001
0100
0001
1000
0100
0010
0100
0010
0001
,
1000
0000
0010
0000
0100
0000
0001
0100
0001
0100
0010
0000
1000
0000
0100
0000
,
1000
0100
1000
0100
0010
0100
1000
0001
0010
0001
0010
0001
0100
0010
1000
0100
,
1000
0000
0100
0000
1100
0000
1000
0000
0010
0100
0001
0000
0100
0010
1000
0000
,
0010
0000
0000
0000
0000
0000
0010
0000
0000
0100
0000
0000
0000
0000
0000
0100
0000
0000
0001
0000
0000
0000
0000
0000
1000
0000
0100
0000
1000
0000
0010
0000
0000
0100
0000
0000
0001
0000
0000
0100
0000
0000
0010
0000
0000
0000
0000
0000
,
1000
0000
0000
0000
0000
0000
1000
0000
0000
0100
0000
0000
0000
0000
0000
0100
0000
0000
0010
0000
0000
0000
0000
0000
0001
0000
0010
0000
0001
0000
0010
0000
0000
0100
0000
0000
1000
0000
0000
0010
0000
0000
0100
0000
0000
0000
0000
0000
,
0010
0000
0000
0000
0000
0000
0010
0000
0000
0100
0000
0000
0000
0000
0000
0100
0000
0000
0010
0000
0000
0000
0000
0000
1000
0000
0001
0000
1000
0000
0001
0000
0000
0100
0000
0000
0010
0000
0000
0100
0000
0000
0010
0000
0000
0000
0000
0000
,
1000
0000
0000
0000
0000
0000
1000
0000
0000
0001
0000
0000
0000
0000
0000
0001
0000
0000
1000
0000
0000
0000
0000
0000
0010
0000
0100
0000
0010
0000
0100
0000
0000
0001
0000
0000
1000
0000
0000
0001
0000
0000
1000
0000
0000
0000
0000
0000
,
0001
0000
0000
0000
0000
0000
0001
0000
0000
1000
0000
0000
0000
0000
0000
1000
0000
0000
0010
0000
0000
0000
0000
0000
0100
0000
0001
0000
0100
0000
0010
0000
0000
1000
0000
0000
0100
0000
0000
0010
0000
0000
0100
0000
0000
0000
0000
0000
,
1000
0000
0000
0000
0000
0000
1000
0000
0000
0100
0000
0000
0000
0000
0000
0100
0000
0000
0010
0000
0000
0000
0000
0000
0001
0000
0010
0000
0001
0000
0010
0000
0000
0100
0000
0000
0010
0000
0000
0001
0000
0000
0010
0000
0000
0000
0000
0000
,
0100
0000
0000
0000
0000
0000
0100
0000
0000
1000
0000
0000
0000
0000
0000
1000
0000
0000
0001
0000
0000
0000
0000
0000
1000
0000
0001
0000
1000
0000
0001
0000
0000
0100
0000
0000
0001
0000
0000
1000
0000
0000
0010
0000
0000
0000
0000
0000
,
1000
0000
1000
0100
0000
0100
0010
0000
0001
0010
0001
0100
0001
1000
0100
1000
,
0200
0000
1000
0000
0020
0300
0100
0000
,
2000
0030
0100
0000
0001
0000
3001
0000
,
0100
0001
0100
1000
0010
0000
0100
0000
,
0001
0100
0010
1000
0100
0000
1001
0000
,
0001
0100
0000
0000
0000
0000
0000
0000
0000
0000
0000
0000
0100
0000
0000
0000
0000
0000
0000
0000
0000
0000
0000
0000
0010
1000
0000
0000
0000
0000
0000
0000
0000
0000
0000
0000
0001
0000
0000
0000
0000
0000
0000
0000
0000
0000
0000
0000
,
1000
0100
0000
0000
0000
0000
0000
0000
0000
0000
0000
0000
0001
0100
0000
0000
0000
0000
0000
0000
0000
0000
0000
0000
0010
0000
0000
0000
0000
0000
0001
0000
0000
0000
0000
0000
0010
0000
0000
0000
0000
0000
0000
0000
0000
0000
0000
0000
,
0001
0010
0001
0100
1000
0000
0001
0000
,
0010
0001
1000
0100
0001
0000
0110
0000
,
0020
0000
0001
0000
0200
0030
0010
0000
,
0002
0300
0010
0000
1000
0000
1003
0000
,
0010
1000
0010
0001
0100
0000
0010
0000
,
1000
0010
0100
0001
0010
0000
1001
0000
,
1000
0010
0000
0000
0000
0000
0000
0000
0000
0000
0000
0000
0010
0000
0000
0000
0000
0000
0000
0000
0000
0000
0000
0000
0001
0100
0000
0000
0000
0000
0000
0000
0000
0000
0000
0000
1000
0000
0000
0000
0000
0000
0000
0000
0000
0000
0000
0000
,
0010
1000
0000
0000
0000
0000
0000
0000
0000
0000
0000
0000
0100
0000
0000
0000
0000
0000
0000
0000
0000
0000
0000
0000
0010
0001
0000
0000
0000
0000
0000
0000
0000
0000
0000
0000
0100
0000
0000
0000
0000
0000
0010
0000
0000
0000
0000
0000
,
1000
0100
1000
0010
0001
0000
1000
0000
,
0100
1000
0001
0010
1000
0000
0110
0000
,
0101
0000
0001
0011
0000
0010
1010
0000
,
0010
0011
0000
0001
0101
0000
1100
0000
,
0110
0000
0010
1010
0000
1000
1010
0000
,
0010
0011
0000
0010
0110
0000
0101
0000
,
1010
0000
1000
1100
0000
0100
0101
0000
,
0100
1100
0000
1000
1010
0000
0011
0000
,
0110
0000
0100
0101
0000
0001
0101
0000
,
0100
1100
0000
0100
0110
0000
1010
0000
,
1000
0000
0000
1000
0001
0000
0100
0000
0010
0000
0020
0000
0000
0000
0100
0000
0130
0000
0000
0100
0001
0000
1000
0000
0100
0000
0200
0000
0000
0000
0010
0000
,
0310
0000
0000
0010
0001
0000
0100
0000
0010
0000
0020
0000
0000
0000
1030
0000
0100
0000
0000
0100
0010
0000
0001
0000
0010
0000
0001
0000
0010
0000
0001
0000
,
1000
0000
0100
0000
0010
0000
0001
1000
0000
0100
0000
0010
0000
0001
0000
0000
1000
0000
0010
0000
0100
0000
0001
1000
0000
0010
0000
0100
0000
0001
0000
0000
,
1000
0000
0000
0000
0100
0000
0000
0000
0001
0000
0000
0000
0100
0000
1000
0000
0000
0000
0010
0000
0000
0000
0100
0000
0000
0000
0001
0000
0000
0000
0000
0000
1000
0000
0000
0000
0001
0000
0000
0000
0100
0000
0000
0000
0010
0000
1000
0000
0000
0000
0001
0000
0000
0000
0100
0000
0010
0000
0100
0001
0100
0000
0001
0000
,
1000
0100
1000
0001
0100
0010
1000
0100
0010
0001
0100
0001
0010
0001
1000
0100
,
0010
0100
1000
0001
0100
0010
0100
0010
1000
0100
0010
0001
0100
0001
1000
0100
,
0010
0001
0100
0010
1000
0100
0010
0100
,
1000
0001
0100
0010
0100
0010
1000
1000
,
0001
0010
0001
1000
0010
0100
0001
0010
0100
1000
0010
1000
0100
1000
0001
0010
,
0100
0010
0001
1000
0010
0100
0010
0100
0001
0010
0100
1000
0010
1000
0001
0010
,
0100
1000
0010
0100
0001
0010
0100
0010
,
0001
0000
0000
1000
0000
0000
0100
0000
0000
0010
0000
0000
0001
0000
0000
0000
0000
0000
0001
0000
1000
0000
0001
0000
0100
0000
0000
0010
0000
0000
0000
0000
0000
1010
0000
0000
0000
0000
0000
0101
0000
0000
0000
0000
0000
0002
0000
0000
,
2000
0000
3003
0000
;

//---------------dance-single - Renard----------------
#NOTES:
     dance-single:
     Renard:
     Hard:
     9:
     0.649,0.682,0.389,0.085,0.280:
0000
0000
0000
0000
,
0000
0000
0000
0000
,
0000
0000
0000
0000
,
0000
0000
0000
0000
,
1000
0000
0100
0000
0010
0000
0001
0010
0000
0010
0000
0001
0010
0000
0100
0000
,
1000
0000
0001
0000
0100
0000
0010
1000
0000
1000
0000
0010
0100
0000
0001
0000
,
0010
0000
0100
0000
1000
0000
0001
1000
0000
1000
0000
0001
1000
0000
0001
0000
,
0100
0000
0010
0000
1000
0000
0100
0000
0010
0001
0010
0000
0100
1000
0100
0000
,
1000
0010
0100
0001
0100
1000
0100
0001
,
0010
0100
1000
0100
0010
0001
0010
1000
,
0010
0100
1000
0100
0001
0100
1000
0010
,
0100
0001
0010
0001
0010
0100
1000
0010
,
0100
0001
0010
0100
1000
0010
0100
0001
,
0100
1000
0100
0001
0010
0100
1000
0100
,
0001
0100
0010
0001
0010
0100
1000
0100
,
0001
0100
1000
0010
0001
0010
0100
1000
,
0100
0000
0100
0001
0000
0001
0010
0000
0100
0000
1000
0000
0001
0000
0010
0000
,
0100
0000
0100
1000
0000
1000
0001
0000
0010
0000
0001
0000
0100
0000
0010
0000
,
1000
0000
1000
0100
0000
0100
1000
0000
0010
0000
0100
0000
0001
0000
0010
0000
,
0100
0000
0100
1000
0000
1000
0001
0000
0010
0000
0100
0000
1000
0000
0010
0000
,
0100
0000
0100
0001
0000
0001
1000
0000
0100
0000
0010
0000
0001
0000
0010
0000
,
0100
0000
0100
1000
0000
1000
0010
0000
0100
0000
0001
0000
0010
0000
0001
0000
,
1000
0000
1000
0100
0000
0100
0010
0000
0001
0000
0010
0000
0100
0000
1000
0000
,
0010
0000
0100
0001
0000
0001
0100
0000
0010
0000
1000
0000
0100
0000
0010
0000
,
0001
0000
0000
0001
0010
0000
0100
0000
1000
0000
0010
0000
0100
0000
0001
0000
,
0100
1000
0100
0001
0010
0100
1000
0100
,
0001
0000
0000
0001
0100
0000
1000
0000
0010
0000
0100
0000
0001
0000
0100
0000
,
0010
1000
0100
0010
0001
0010
0011
0000
,
0001
0000
0100
0000
0010
0000
1000
0100
0000
1100
0000
1010
0000
1001
0000
0000
,
0001
0000
0010
0000
0100
0000
1000
0010
0000
0110
0000
0101
0000
1100
0000
0000
,
0010
0000
1000
0000
0100
0000
0010
0001
0000
0011
0000
0110
0000
1100
0000
0000
,
0011
0000
0100
0000
1000
0000
0010
0100
0000
0101
0000
0110
0000
1010
0000
0000
,
1000
0010
0100
0001
0010
1000
0010
0100
,
1000
0100
0001
0100
0010
0001
0010
1000
,
0010
0100
1000
0010
0100
0001
0100
0010
,
1000
0010
0100
0001
0010
0100
0110
0000
,
0100
1000
0010
0100
0001
0010
1000
0010
,
0100
1000
0010
0100
0001
0100
1000
0100
,
0010
1000
0010
0001
0010
0100
1000
0100
,
0001
0010
0100
1000
0100
0001
0100
0000
,
0110
0000
0010
0011
0000
0001
0101
0000
,
0100
0110
0000
0010
1010
0000
1100
0000
,
0110
0000
0010
0011
0000
0001
0101
0000
,
0100
0110
0000
0010
1010
0000
1100
0000
,
0011
0000
0001
0101
0000
0100
0110
0000
,
0010
1010
0000
1000
1100
0000
0011
0000
,
0101
0000
0100
0110
0000
0010
1010
0000
,
1000
1100
0000
0100
0110
0000
0011
0000
,
1002
1000
2003
0001
,
0020
3000
0100
0000
0200
0030
0001
0000
,
0302
0010
0023
0100
,
0230
0000
1000
0000
2300
0000
0001
0001
,
3001
0000
0001
1000
0000
1000
0001
0000
0100
0020
0030
0000
1000
0000
0100
0000
,
0010
0000
0010
0001
0000
0001
0010
0000
0100
0000
1000
0000
0010
0000
0100
0000
,
0001
0000
0001
0010
0000
0010
0001
0000
0100
0000
0010
0000
1000
0000
0100
0000
,
1000
0000
1000
0001
0000
0001
0100
0000
0001
0000
1000
0000
0100
0000
0010
0000
,
0001
0000
0010
0001
0010
0000
0100
0000
1000
0000
0001
0000
0100
0000
0010
0000
,
1000
0000
0001
1000
0001
0000
0100
0000
0010
0000
1000
0000
0100
0000
0010
0000
,
0001
0000
0010
0001
0010
0000
0100
0000
1000
0000
0001
0000
0100
0000
0010
0000
,
1000
0000
0001
1000
0001
0000
0100
0000
0010
0000
1000
0010
1000
0000
0001
0000
,
1001
0000
0000
0000
;

//---------------dance-single - Renard----------------
#NOTES:
     dance-single:
     Renard:
     Medium:
     5:
     0.348,0.427,0.019,0.227,0.000:
0000
0000
0000
0000
,
0000
0000
0000
0000
,
0000
0000
0000
0000
,
0000
0000
0000
0000
,
1000
0010
0010
0000
0100
0000
0001
0000
,
0010
0100
0100
0000
1000
0000
0010
0000
,
1000
0001
0001
0000
0100
0000
0001
0000
,
1000
0000
0100
0000
0010
0001
1000
0001
,
1000
0000
0010
0000
0100
0001
0010
0000
,
0100
1000
0010
0000
0100
0001
1000
0000
,
0001
0000
1000
0000
0010
0100
0001
0000
,
1000
0100
0010
0000
0100
1000
0001
0000
,
0100
0000
0010
0000
1000
0001
1000
0000
,
0001
0100
0001
0000
1000
0100
1000
0000
,
0001
0000
0010
0000
0100
1000
0100
0000
,
1000
0010
1000
0000
0001
0100
0001
0000
,
1000
0001
1000
1000
,
0001
1000
0001
0001
,
0100
0010
0100
0100
,
0010
0100
0010
0010
,
1000
0100
1000
1000
,
0001
0010
0001
0001
,
0100
0001
0100
0100
,
0010
1000
0010
1001
,
2000
0000
3200
0000
,
0320
0000
0000
0031
,
0100
0000
0010
0000
1000
0000
0100
0020
,
0000
0001
0100
1000
,
0230
0000
0320
0000
,
0032
0000
0000
0000
0000
0003
0100
0000
,
0010
0000
1000
0000
0100
0000
0010
0002
,
0000
0000
0100
0000
0010
0000
1000
0003
,
1000
0000
0010
0000
0100
0000
0001
2000
,
0000
0000
3100
0010
,
0001
0000
0100
0000
0010
1000
0001
0200
,
0000
0000
0320
2030
,
3200
0000
0320
0000
,
0032
0000
0103
0010
,
1000
0000
0100
0000
0010
0001
1000
0000
,
0002
0000
0000
0000
,
0103
0000
0000
0010
0000
0000
1000
0000
,
0000
0100
0000
0000
0010
0000
0001
0000
,
0010
0000
0000
0100
0000
0000
1000
0000
,
0000
0010
0000
0000
0100
0000
0001
0000
,
1000
0000
0000
0001
0000
0000
0100
0000
,
0000
0010
0000
0000
1000
0000
0100
0000
,
0010
0000
0000
0001
0000
0000
0010
0000
,
0000
0100
0000
0000
1000
0000
0010
0000
,
0200
0000
0302
0000
2003
0000
0000
3100
,
0010
0001
0100
0010
2000
0000
0000
0000
,
3100
2000
3010
0200
,
0301
0010
0200
0000
1300
0010
0200
0000
,
0301
0000
1000
0100
0000
0010
0001
0000
,
1000
0100
0000
0010
0001
0000
0010
0000
,
0100
0000
1000
0010
0000
0100
0001
0000
,
1000
0010
0000
0100
0001
0000
1000
0000
,
0001
0000
0010
0100
0000
1000
0001
0000
,
0010
0100
0000
1000
0001
0000
0010
0000
,
0100
0000
1000
0010
0000
0100
0001
0000
,
1000
0010
0000
0100
0001
0000
1000
0000
,
1001
0000
0000
0000
;

//---------------dance-single - Renard----------------
#NOTES:
     dance-single:
     Renard:
     Easy:
     3:
     0.311,0.370,0.294,0.000,0.000: // measure 1
0000
0000
0000
0000
,  // measure 2
0000
0000
0000
0000
,  // measure 3
0000
0000
0000
0000
,  // measure 4
0000
0000
0000
0000
,  // measure 5
0001
0100
0010
1000
,  // measure 6
0100
0010
0001
0100
,  // measure 7
0001
1000
0010
1000
,  // measure 8
0001
0010
0100
1001
,  // measure 9
1001
0100
0010
1100
,  // measure 10
0010
0101
0010
1001
,  // measure 11
1000
0001
0100
1010
,  // measure 12
0001
0110
0010
1001
,  // measure 13
0010
0100
0001
1001
,  // measure 14
1000
1010
0001
0011
,  // measure 15
1000
0100
0010
0011
,  // measure 16
0001
0101
1000
1010
,  // measure 17
0001
1000
0001
0001
,  // measure 18
1000
0001
1000
1000
,  // measure 19
0010
0100
0010
0010
,  // measure 20
0100
0010
0100
0100
,  // measure 21
0001
0010
0001
0001
,  // measure 22
1000
0100
1000
1000
,  // measure 23
0010
1000
0010
0010
,  // measure 24
0100
0001
0100
1001
,  // measure 25
0001
0000
0010
0000
,  // measure 26
0100
0000
0000
1000
,  // measure 27
0010
0100
0001
0010
,  // measure 28
0100
1000
0010
0001
,  // measure 29
0010
0000
0100
0000
,  // measure 30
1000
0000
0000
0010
,  // measure 31
0100
0001
0010
0100
,  // measure 32
1000
0010
0100
0001
,  // measure 33
0001
0100
0010
1000
,  // measure 34
0001
0000
0010
0100
,  // measure 35
1000
0010
0100
1001
,  // measure 36
0010
0000
0100
0001
,  // measure 37
0010
0000
0100
0000
,  // measure 38
1000
0000
0010
0100
,  // measure 39
0001
0010
0100
1001
,  // measure 40
1000
0000
0000
0000
,  // measure 41
0010
0000
0100
0001
,  // measure 42
0000
0010
0100
1000
,  // measure 43
0100
0000
0010
0001
,  // measure 44
0000
0100
0010
1000
,  // measure 45
0001
0000
1000
0010
,  // measure 46
0000
0100
0001
0010
,  // measure 47
0100
0000
1000
0100
,  // measure 48
0000
0010
0001
0100
,  // measure 49
0010
1000
0001
0000
,  // measure 50
0110
1010
0101
0000
,  // measure 51
0010
0001
0100
0010
,  // measure 52
1000
0110
0001
0110
,  // measure 53
1000
0001
0010
1100
,  // measure 54
0001
0010
1100
0100
,  // measure 55
0010
0001
0100
1010
,  // measure 56
0001
0100
1010
0001
,  // measure 57
1000
0100
0010
1001
,  // measure 58
0100
0010
1001
0100
,  // measure 59
0010
0001
0100
1010
,  // measure 60
0001
0100
1010
0001
,  // measure 61
1001
0000
0000
0000
;
