#TITLE:The Devil;
#SUBTITLE:;
#ARTIST:666;
#GENRE:Silly House;
#TITLETRANSLIT:;
#SUBTITLETRANSLIT:;
#ARTISTTRANSLIT:;
#CREDIT:;
#BANNER:the devil.png;
#BACKGROUND:the devil-bg.png;
#LYRICSPATH:;
#CDTITLE:;
#MUSIC:the devil.ogg;
#OFFSET:-0.002;
#SAMPLESTART:60.823;
#SAMPLELENGTH:12.000;
#SELECTABLE:YES;
#BPMS:0.000=130.000;
#STOPS:;
#BGCHANGES:;

//---------------dance-single - BlueChaos----------------
#NOTES:
     dance-single:
     BlueChaos:
     Easy:
     3:
     0.287,0.293,0.059,0.364,0.000:
0000
0000
0000
0000
,
0000
0000
0000
0000
,
0000
0000
0000
0000
,
0000
0000
0000
0000
,
1000
1000
1000
0000
,
0001
0001
0001
0000
,
0100
0100
0100
0000
,
0010
0010
0020
0000
,
1030
0100
1000
0100
,
1000
0001
1000
0001
,
0100
0001
0100
0001
,
2000
0001
0002
0000
,
3003
0010
0100
1001
,
0000
0000
1000
0000
0001
0000
1000
0001
,
0000
1000
0001
0101
,
0000
0002
2003
3020
,
0130
0100
0100
0200
,
0301
0001
0001
0002
,
1003
1000
1000
2000
,
3010
0010
0010
0020
,
1030
1000
1000
2000
,
3100
0100
0100
0200
,
0310
0010
0010
0020
,
0031
1000
0001
2000
,
3002
0000
0000
0000
,
2003
0000
0000
0000
,
3020
0000
0000
0000
,
0230
0000
0000
0000
,
0302
0000
2003
0000
,
3200
0000
0320
0000
,
0031
1000
0010
0100
,
0002
1000
0010
1003
,
1001
0000
0000
0000
,
0001
0100
0001
0100
,
0001
1000
0001
1000
,
0001
1000
0100
1000
,
0100
0010
0100
0010
,
0100
1000
0100
1000
,
0001
1000
0001
1000
,
0001
0100
0001
0100
,
0001
0100
0010
1000
,
2002
3003
1001
0000
,
2000
0001
3001
0000
,
0002
0100
0103
0000
,
0200
0001
0301
0000
,
0002
1000
1003
0000
,
2000
0100
3100
0000
,
2000
0001
3001
0000
,
0002
0010
0013
0000
,
2000
0010
0001
0100
,
3002
0000
1003
0001
,
2000
0000
3010
0100
,
0020
0000
1030
0001
,
0020
0000
0130
1000
,
1001
0000
0000
0000
;

//---------------dance-single - BlueChaos----------------
#NOTES:
     dance-single:
     BlueChaos:
     Challenge:
     9:
     0.827,0.882,0.778,0.404,0.640:
0000
0000
0000
0000
,
0000
0000
0000
0000
,
0000
0000
0000
0000
,
0000
0000
0000
0000
,
1000
0001
0100
0000
0100
0000
0001
1000
0100
0000
0100
0000
1000
0000
1001
0000
,
0001
0100
0010
0000
0010
0000
1000
0100
0010
0000
0010
0000
0001
0000
0011
0000
,
0010
0001
0100
0000
0100
0000
0001
1000
0010
0000
0010
0000
1000
0000
1000
0100
,
0010
0000
0011
0000
1001
0000
0101
0000
2020
0000
3030
0000
1000
0010
1000
0010
,
1000
0100
0010
0000
0011
0000
0001
0100
0010
0000
1010
0000
1001
0000
0011
0000
,
0001
1000
0100
0000
1100
0000
1000
0010
0100
0000
0101
0000
1001
0000
0100
0000
,
0010
1000
0100
0000
1100
0000
0100
0010
0001
0000
1001
0000
1100
0000
1000
0010
,
0100
0001
0100
0001
0000
0000
1001
0000
0000
0100
0000
0000
0010
0000
0000
0010
0000
0000
0010
0000
0000
0010
0000
0000
,
0010
0000
1000
0000
0001
0000
0100
0000
0101
0000
0001
0000
2002
0000
0000
3003
,
1001
0000
0001
0000
0011
0000
0001
0000
1001
0000
1000
0000
2020
3030
2002
3003
,
1001
0000
0100
0000
1001
0000
0001
0000
0101
0000
0010
0000
1001
0000
0001
0100
,
0010
0000
0010
0000
1000
0000
1000
0000
0001
1000
0100
1000
0100
0010
0001
0100
,
0010
0010
1000
1000
0001
0001
2002
3003
,
1000
0000
1000
0000
0010
0000
0010
0000
0100
0000
0100
0000
0202
0303
1001
0000
,
1000
1000
0001
0001
0010
0010
0022
0033
,
0001
0000
0001
0000
0010
0000
0010
0000
0100
0000
0100
0000
2200
3300
1001
0000
,
0001
1000
0100
1000
0100
0000
1000
0000
1001
0000
0010
0000
0220
0000
0330
0000
,
0100
0001
0010
0001
1000
0000
0001
0000
1001
0000
0010
0000
0101
0000
1001
0000
,
0001
1000
0010
0100
0001
0000
0010
0000
1000
0000
0010
0000
0022
0000
0033
0000
,
0011
0011
1001
1001
1010
1010
1100
1001
,
0001
0000
1000
0000
0001
0000
1000
0000
0001
1000
0000
0001
0000
1000
0100
0010
,
0001
0000
0010
0000
0001
0000
0010
0000
0001
0010
0000
0001
0000
0010
0001
1000
,
0010
0000
1000
0000
0010
0000
1000
0000
0010
1000
0000
0010
0000
1000
0010
1000
,
0100
0000
1000
0000
0100
0000
1000
0000
0100
1000
0000
0100
0000
1000
0010
0100
,
0001
0000
1000
0000
1100
0000
1000
0000
1001
0000
0001
0000
0101
0000
0001
1000
,
0001
0000
0001
0000
1001
0000
1000
0000
1010
0000
0010
0000
0110
0000
0100
0001
,
0010
0100
1000
0100
1000
0001
1000
0010
1000
0100
0010
0001
0010
0001
1000
0010
,
0100
0001
1000
0001
0100
0010
0100
0001
0010
0100
1000
0100
0010
0001
1000
0000
,
1001
0100
0010
0100
2002
0000
0000
3003
,
1000
0000
0100
0000
0001
0000
0100
0000
1000
0200
0000
2300
0000
3100
0010
0001
,
1000
0000
0010
0000
0001
0000
0010
0000
1000
0002
0000
2003
0000
3010
0100
0001
,
1000
0000
0100
0000
0010
0000
0100
0000
1000
0020
0000
0230
0000
0301
0010
0100
,
1000
0000
1000
0000
0001
0000
0001
0000
1000
0001
0000
0100
0000
0001
0010
0100
,
1000
0000
0010
0000
0100
0000
0001
0000
0010
0002
0000
2003
0000
3010
0100
0001
,
0010
0000
0100
0000
1000
0000
0001
0000
0100
0002
0000
2003
0000
3100
0010
0001
,
1000
0000
0010
0000
1000
0000
0001
0000
1000
0200
0000
0320
0000
0130
1000
0001
,
0100
0000
1000
0000
0100
0000
0001
0000
0100
0002
0000
0023
0000
0130
1000
0000
,
2002
0000
0010
3003
,
1001
0000
0001
0000
0001
0000
1000
0000
1010
0000
0000
1001
0000
0001
0100
0010
,
1000
0000
0100
0000
0010
0000
0100
0000
1100
0000
0000
1001
0000
0001
0100
0010
,
1000
0000
0001
0000
1000
0000
0100
0000
1100
0000
0000
0101
0000
0001
0100
0010
,
1000
0000
0100
0000
0010
0000
0001
0000
0011
0000
0000
1001
0000
1000
0100
0010
,
0001
0000
1000
0000
0010
0000
0100
0000
1010
0000
0000
1001
0000
0001
0100
0001
,
0010
0000
0100
0000
0010
0000
0001
0000
1001
0000
0000
0110
0000
0010
1000
0100
,
0010
0000
0001
0000
1000
0000
0100
0000
1100
0000
0000
0011
0000
0010
0001
0100
,
0010
0000
1000
0010
0100
0000
0010
1000
0100
0000
0100
0000
1100
0000
1010
0000
,
2002
0000
0000
3000
0000
0000
0103
0000
0010
0000
0000
1001
0000
0000
0001
0010
,
0001
0000
0010
0100
0010
0000
0100
1000
0100
0000
0000
1001
0000
0000
0001
0100
,
0001
0000
0100
0010
0100
0000
0010
1000
0010
0000
0000
1001
0000
0000
1000
0001
,
1000
0000
0001
0100
0001
0000
1000
0100
1000
0000
0000
1001
0000
0000
0001
1000
,
0002
0003
0000
0000
;

//---------------dance-single - BlueChaos----------------
#NOTES:
     dance-single:
     BlueChaos:
     Hard:
     8:
     0.658,0.585,0.295,0.167,0.433:
0000
0000
0000
0000
,
0000
0000
0000
0000
,
0000
0000
0000
0000
,
0000
0000
0000
0000
,
1000
0001
1000
0000
1000
0000
0001
1000
0001
0000
0001
0000
1000
0000
0010
0000
,
0100
0010
0100
0000
0100
0000
0010
0100
0010
0000
0010
0000
1000
0000
0001
0000
,
0010
0001
0010
0000
0010
0000
0001
0010
0001
0000
0001
0000
1000
0000
0100
1000
,
0100
0000
1000
0000
0100
0000
0010
0000
0002
0000
0000
0000
1003
0010
1000
0010
,
1000
0001
1000
1010
0010
1000
0001
1001
,
0001
0100
0010
1010
1000
0001
0010
0011
,
0010
0001
0001
0101
0100
0010
1000
1001
,
0001
1000
0001
0000
1000
0000
0001
0000
0200
0000
0010
0000
0010
0000
0000
0000
,
0301
0010
0100
1000
0100
0010
1001
0000
,
0001
1000
0001
0010
0001
0100
1001
1001
,
0001
0000
0100
0000
0010
0000
1000
0000
0010
0000
0100
0000
1001
0000
1000
0100
,
1000
0000
0100
0000
0010
0000
0001
0000
0010
0001
0010
0000
0011
0000
0011
0000
,
0010
0001
0100
0001
0010
0001
0200
0000
,
0310
1000
0100
1000
0010
1000
0200
2300
,
3100
0010
0001
0010
0100
0010
0002
0000
,
0013
0100
1000
0100
0010
0100
2000
3002
,
0103
0001
0010
1000
0010
0001
0020
0000
,
0031
0100
1000
0100
0001
0100
0020
2030
,
3001
0100
0010
1000
0010
0100
0002
0000
,
1003
1000
0001
0001
0010
0010
0200
0000
,
1300
0000
1000
0000
1000
0000
0001
0000
1000
0001
0000
1000
0000
0001
1000
0000
,
0001
0000
0100
0000
0001
0000
0100
0000
0001
1000
0000
0001
0000
1000
0010
0000
,
0100
0000
0001
0000
1000
0000
0100
0000
1000
0010
0000
0100
0000
0001
1000
0000
,
0001
0000
1000
0000
0100
0000
1000
0000
0010
0100
0000
0001
0000
1000
0100
0000
,
1000
0000
0001
0000
0010
0000
0100
0000
1000
0000
0001
0000
0010
0000
0100
0010
,
0001
0000
0010
0000
0001
0000
0100
0000
0010
0000
1000
0000
0010
0000
1000
0010
,
0100
0000
0010
0000
0010
0000
0100
0001
1000
0000
0001
0000
0001
0000
1000
0001
,
0010
0000
0100
0000
0100
0000
1000
0001
1000
0001
1000
0001
0100
0000
0010
0000
,
2000
0001
3002
1000
2003
0000
3000
0000
,
0001
0000
1000
0000
0010
0000
1000
0000
0001
1000
0000
1000
0001
0000
0100
0000
,
0010
0000
1000
0000
0001
0000
1000
0000
0100
0010
0000
0010
0100
0000
1000
0000
,
0001
0000
0010
0000
0100
0000
1000
0000
0010
1000
0000
1000
0010
0000
1000
0000
,
0001
0000
0010
0000
0100
0000
0010
0000
0001
0010
0000
0010
0001
1000
0100
0000
,
1000
0000
0001
0000
0010
0000
0001
0000
1000
0010
0000
0010
0100
0000
0001
0000
,
1000
0000
0100
0000
1000
0000
0100
0000
0010
0001
0000
0001
0100
0000
0001
0000
,
1001
0001
0100
0010
0101
0001
1000
0100
,
1001
0000
0001
0000
1000
0000
0010
0000
1000
0010
1000
0000
0001
0000
1000
0001
,
1000
0002
0000
0000
0000
0000
0000
0000
1003
0100
0000
0000
0000
0000
0000
0000
,
1000
0000
0001
0000
0100
0000
0001
0000
1001
0000
0000
1001
0000
1000
0001
0100
,
0000
0000
0001
0000
1000
0000
0100
0000
1100
0000
0000
1100
0000
1000
0100
0010
,
0000
0000
0001
0000
0010
0000
0001
0000
0011
0000
0000
0011
0000
0001
0010
0100
,
0000
0000
0010
0000
0001
0000
1000
0000
1010
0000
0000
1010
0000
0010
0100
0001
,
0000
0000
1000
0000
0001
0000
0010
0000
0110
0000
0000
0110
0000
0010
0100
1000
,
0000
0000
0100
0000
1000
0000
0010
0000
0110
0000
0000
0110
0000
0010
0100
0001
,
0000
0000
0100
0000
0001
0000
1000
0000
1001
0000
0000
1001
0000
0001
1000
0010
,
0000
0000
1000
0010
1000
0000
1000
0001
1000
0000
1000
0100
1000
0000
0001
0000
,
1001
0000
0000
0001
0100
0000
0000
0100
0010
0000
0000
0010
1000
0000
0000
1000
,
0001
0000
0000
0001
0010
0000
0000
0010
0100
0000
0000
0100
1000
0000
0000
1000
,
0010
0000
0000
0010
0001
0000
0000
0001
0010
0000
0000
0010
1000
0000
0000
1000
,
0100
0000
0000
0100
0001
0000
0000
0001
0100
0000
0000
0100
1000
0000
0000
1000
,
0001
0000
0000
0000
;

//---------------dance-single - BlueChaos----------------
#NOTES:
     dance-single:
     BlueChaos:
     Medium:
     6:
     0.397,0.452,0.148,0.167,0.000:
0000
0000
0000
0000
,
0000
0000
0000
0000
,
0000
0000
0000
0000
,
0000
0000
0000
0000
,
1000
0001
0001
0000
0100
0000
0001
0000
,
0010
0100
0100
0000
0010
0000
0001
0000
,
0100
0010
0010
0000
1000
0000
0001
0000
,
0010
0001
0001
1000
1000
0000
2002
3003
,
1000
0001
1000
0000
0001
0000
0010
0000
,
0001
0010
0001
0000
0010
0000
0100
0000
,
1000
0100
1000
0000
0001
0000
1000
0000
,
0010
1000
1000
0010
0200
0000
0000
0000
,
0301
1000
0001
0000
0000
0001
2002
3003
,
1000
0010
1000
0000
0000
1000
1010
1010
,
0000
0010
1000
0001
,
1000
1000
0001
0001
0200
0000
0000
0000
,
0301
1000
0001
1001
,
0001
0000
0100
0000
0001
0000
0100
0101
,
0001
0010
0001
0011
,
0001
0000
1000
0000
0001
0000
1000
1001
,
0001
0100
0010
1010
,
1000
0000
0100
0000
0010
0000
0001
1001
,
1000
0001
0010
0011
,
0010
0010
0001
0001
1000
1000
0002
0000
,
1003
0000
1000
0000
1000
0001
0001
0000
,
0100
0000
0100
0000
0100
0010
0010
0000
,
1000
0000
1000
0000
1000
0100
0100
0000
,
0010
0000
0010
0000
0010
0001
0001
0000
,
1000
0001
1000
0000
0001
0010
0001
0000
,
1000
0010
1000
0000
0001
1000
0001
0000
,
1000
0100
1000
0100
1000
0001
1000
0001
,
1000
0001
0100
0001
0100
0001
0100
0001
,
2000
0000
0000
0000
,
3100
0000
0100
0000
0100
1000
0001
0000
,
0001
0000
0001
0000
0001
0100
0010
0000
,
0010
0000
0010
0000
0010
1000
0100
0000
,
0100
0000
0100
0000
0100
1000
0010
0000
,
0010
0000
0010
0000
0010
0100
0001
0000
,
0001
0000
0001
0000
0001
0010
0100
0000
,
0100
0000
0100
0000
0100
1000
0001
0000
,
0001
0000
0001
0000
0001
0100
0010
1000
,
0002
0000
1003
0000
,
1000
0100
1000
0010
1000
0000
1000
0010
,
1000
0000
0001
0010
0001
0000
0001
0010
,
0001
0000
1000
0001
1000
0000
1000
0001
,
1000
0000
0001
0100
0010
0000
0010
0100
,
0001
0000
1000
0100
0010
0000
0010
0100
,
1000
0000
1000
0010
0100
0000
0100
0010
,
1000
0000
1000
0001
0010
0000
0010
0001
,
2000
3002
0203
0320
,
2030
0000
0010
3010
,
1002
0000
1000
1003
,
0201
0000
0001
0301
,
2010
0000
0010
3010
,
1001
0000
0000
0000
;
