#TITLE:The Bobby Song;
#SUBTITLE:;
#ARTIST:Totally Radd!!;
#TITLETRANSLIT:;
#SUBTITLETRANSLIT:;
#ARTISTTRANSLIT:;
#GENRE:Digital Rock;
#CREDIT:;
#BANNER:bobby.png;
#BACKGROUND:bobby-bg.png;
#LYRICSPATH:;
#CDTITLE:;
#MUSIC:bobby.ogg;
#OFFSET:0.000;
#SAMPLESTART:15.170;
#SAMPLELENGTH:12.000;
#SELECTABLE:YES;
#BPMS:0.000=316.000;
#STOPS:;
#BGCHANGES:;
#KEYSOUNDS:;

//---------------dance-single - Renard----------------
#NOTES:
     dance-single:
     Renard:
     Challenge:
     12:
     0.992,0.000,0.712,0.036,0.000:
0000
0000
0000
0000
,
0000
0000
0000
0000
,
0000
0000
0000
0000
,
0000
0000
0000
0000
,
0000
0000
0000
0000
,
0000
0000
0000
0000
,
0000
0000
0000
0000
,
0000
0000
0000
0000
,
1000
0000
0001
0000
0100
0000
0010
1000
,
0000
1000
0001
0000
0100
0000
0010
0000
,
1000
0000
0001
0000
0100
0000
0001
1000
,
0000
1000
0100
0000
0010
0000
0001
0000
,
0010
0000
0100
0000
1000
0000
0001
1000
,
0000
1000
0001
0000
0100
0000
0010
0000
,
1000
0000
0100
0000
0010
0000
0001
1000
,
0001
1000
0100
0010
0001
0010
0100
1000
,
0001
0100
0001
0100
0001
0100
0001
0100
,
0001
0100
0010
1000
,
0100
1000
0100
1000
0100
1000
0100
1000
,
0100
1000
0010
0100
,
0001
0010
0001
0010
0001
0010
0001
0010
,
0001
0010
0100
1000
,
0010
1000
0010
1000
0010
1000
0010
1000
,
0001
0100
0001
0000
1000
0010
0100
0001
,
1000
0010
1000
0010
1000
0010
1000
0010
,
1000
0010
0100
0001
,
0010
0001
0010
0001
0010
0001
0010
0001
,
0010
0001
0100
0010
,
1000
0100
1000
0100
1000
0100
1000
0100
,
1000
0100
0010
0001
,
0100
0001
0100
0001
0100
0001
0100
0001
,
1000
0010
1000
0000
0001
0100
0001
0000
,
1000
0100
0010
0001
0010
0100
1000
0100
,
0010
0001
0010
0100
,
1000
0100
0010
0001
0010
0100
1000
0100
,
0010
0001
0010
0100
,
1000
0010
0100
0001
0100
0010
1000
0010
,
0100
0001
0100
0010
,
1000
0010
0100
0001
0100
0010
1000
0010
,
0100
0000
0001
0000
0100
0001
0100
0001
,
1000
0100
0010
0100
1000
0100
0010
0100
,
1000
0100
0010
0100
,
0010
0001
0010
0100
0010
0001
0010
0100
,
0010
0001
0010
0100
,
1000
0010
0100
0010
1000
0010
0100
0010
,
1000
0010
0100
0001
,
0100
0001
0010
0001
0100
0001
0010
0001
,
0100
0010
0100
0000
,
1001
0000
0000
1001
,
0110
0000
0000
0000
,
1010
0000
0000
0000
,
0102
0100
0100
0103
,
1001
0000
0000
1001
,
1010
0000
0000
0000
,
0101
0000
0000
0000
,
0012
0010
0010
0013
,
0011
0000
0000
0011
,
1100
0000
0000
0000
,
1010
0000
0000
0000
,
2001
0001
0001
3001
,
1010
0000
0000
1010
,
0101
0000
0000
0000
,
1001
0000
0000
0000
,
0210
0010
0010
0310
,
0001
0000
0100
0001
0100
0000
0001
0100
,
0010
0000
0100
0001
0100
0000
0010
0100
,
0001
0000
0100
0010
1000
0000
0010
0100
,
0010
1000
0010
0100
0010
1000
0010
0000
,
1000
0000
0100
0010
0100
0000
1000
0010
,
0100
0000
0010
1000
0100
0000
0010
0100
,
0010
0000
0100
1000
0010
0000
0100
0001
,
1000
0001
1000
0001
1000
0010
1000
0001
,
1000
0100
0010
0100
1000
0000
0001
0000
,
0010
0100
0010
0001
0100
0000
0010
0000
,
1000
0001
1000
0001
0010
0000
0001
0000
,
1000
0100
1000
0010
0100
0000
0001
0000
,
1000
0100
0010
0100
0010
0001
0010
0001
,
0010
0100
1000
0001
0100
0000
0010
0000
,
0100
0001
0100
0001
1000
0010
1000
0010
,
0100
0001
1000
0100
0010
0001
0010
0100
,
1000
0100
1000
0100
,
1000
0100
1000
0100
,
0010
0001
0010
0001
,
0010
0100
1000
0010
,
0100
0001
0100
0001
,
0100
0001
0100
0010
,
1000
0100
0010
0001
,
0010
0100
1000
0001
,
1010
0000
1001
0000
,
0001
0100
0010
0000
,
1001
0000
0101
0000
,
0001
0010
0100
0000
,
1010
0000
1001
0000
,
0001
0100
0010
0000
,
1000
0100
0010
0001
,
0010
0000
0100
0000
1000
0001
1000
0000
,
0001
1000
0100
0010
,
0001
0010
0100
1000
,
0010
0100
0001
1000
,
0100
1000
0001
0010
,
0001
0100
0010
0100
,
0010
1000
0100
1000
,
0001
0010
0001
0100
,
0010
1000
0100
0010
,
0100
1000
0001
0010
,
0100
0010
0001
1000
,
0010
0100
1000
0001
,
0100
0010
1000
0001
,
0100
0001
1000
0100
,
0010
0001
0010
0100
,
1000
0001
0100
0001
,
1000
0100
0010
0001
,
1000
0100
1000
0100
0010
0001
0010
0100
,
1000
0100
1000
0100
0010
0001
0010
0100
,
1000
0010
1000
0010
0100
0001
0100
0010
,
1000
0010
1000
0010
0100
0001
0010
0100
,
0010
0001
0010
0001
0010
0100
1000
0100
,
0010
0001
0010
0001
0010
0100
1000
0010
,
0100
0001
0100
0001
0100
0010
1000
0100
,
0010
0100
0010
0100
1000
0001
0100
0010
,
1000
0001
1000
0001
0100
0010
1000
0100
,
0010
0001
0010
0001
0010
0100
1000
0010
,
0100
0010
0100
0010
0100
0001
0100
0010
,
1000
0100
0010
0001
0010
0001
0010
0001
,
1000
0100
1000
0100
0010
0001
0010
0100
,
1000
0100
1000
0100
0010
0001
0010
0100
,
1000
0010
1000
0010
0100
0001
0100
0010
,
1000
0010
1000
0010
0100
0001
0010
0000
,
0001
0010
0011
0101
,
1001
1010
1100
1010
,
1000
0100
1010
1001
,
0101
0110
0101
1100
,
0010
1000
0101
0110
,
1100
0110
0101
1001
,
1100
0110
0011
1001
,
1010
0101
1001
0110
,
1000
0100
1100
1010
,
1001
0101
0011
0101
,
0001
0010
0101
1001
,
1010
0110
1010
0011
,
0100
0001
1010
0110
,
0011
0110
1010
1001
,
0011
0110
1100
1001
,
0101
1010
1001
0110
,
1001
0000
0000
0000
;

//---------------dance-single - Renard----------------
#NOTES:
     dance-single:
     Renard:
     Hard:
     10:
     0.774,0.000,0.063,0.000,0.000:
0000
0000
0000
0000
,
0000
0000
0000
0000
,
0000
0000
0000
0000
,
0000
0000
0000
0000
,
0000
0000
0000
0000
,
0000
0000
0000
0000
,
0000
0000
0000
0000
,
0000
0000
0000
0000
,
0001
0000
0000
0000
,
0000
0000
1000
0100
,
0000
0000
0000
0000
,
0000
0000
0010
0001
,
0000
0000
0000
0000
,
0000
0000
0100
0001
,
1000
0001
1000
0001
,
1000
0001
1000
0001
1000
0000
0001
0000
,
1000
0010
0100
0001
,
1000
0000
0001
1000
0001
0000
1000
0000
,
0010
0100
0001
0010
,
0100
0000
1000
0001
1000
0000
0001
0000
,
1000
0000
0010
0000
0100
0000
0001
0010
,
0001
0000
0010
0100
0010
0000
0100
1000
,
0100
1000
0010
0100
,
0001
1000
0001
1000
0001
0000
1000
0000
,
0010
0000
0100
0000
0001
0000
1000
0001
,
1000
0001
0100
0010
,
1000
0000
0100
0000
1000
0000
0001
1000
,
0001
1000
0001
0010
,
0100
0000
1000
0000
0001
1000
0001
0000
,
1000
0010
1000
0000
0001
0100
0001
0000
,
1000
0000
0001
0000
1000
0001
1000
0000
,
0001
1000
0001
1000
0001
0000
1000
0000
,
0010
0100
0001
0010
,
0100
0000
1000
0001
1000
0000
0001
0000
,
0100
0010
1000
0100
,
0010
0000
0001
1000
0001
0000
1000
0000
,
0010
0000
0100
0000
0001
0000
1000
0001
,
1000
0000
0001
1000
0001
0000
1000
0001
,
1000
0000
0001
1000
0001
0000
1000
0001
,
1000
0000
0001
1000
0001
0000
1000
0000
,
0010
0100
0001
0010
,
0100
0000
1000
0001
1000
0000
0001
0000
,
1000
0100
0010
0001
,
1000
0000
0001
1000
0001
0000
1000
0000
,
0010
0100
0001
1000
,
0001
1000
0001
0000
1000
0000
0010
0000
,
1000
0001
0100
0001
,
1000
0100
0010
0001
,
1000
0100
1000
0100
1000
0000
0000
0000
,
0001
0010
0001
0000
,
0100
0001
0100
0001
0100
0000
0000
0000
,
0010
0000
1000
0000
,
0100
1000
0100
1000
0100
0000
0010
0000
,
0001
0000
0010
0000
,
0001
0000
1000
0000
0001
0000
0000
1000
,
0001
1000
0001
0000
,
0100
0010
0100
0010
0100
0000
0000
0010
,
1000
0010
1000
0000
,
0001
0100
0001
0100
0001
0000
0000
0100
,
0001
0100
0010
1000
,
0100
1000
0100
1000
0100
0000
0000
1000
,
0010
0100
0010
0100
,
0001
0010
0100
1000
,
0010
0100
0001
1000
,
0100
1000
0100
1000
,
0100
1000
0100
1000
,
0010
1000
0010
1000
,
0010
1000
0010
1000
,
0001
1000
0001
1000
,
0001
1000
0001
1000
,
0001
1000
0001
0010
,
0100
1000
0001
0000
,
1000
0001
1000
0001
,
1000
0001
1000
0001
,
0100
0001
0100
0001
,
0100
0001
0010
0001
,
0100
0001
1000
0001
,
1000
0001
1000
0010
,
0100
0001
0010
0100
,
1000
0000
0001
1000
0001
1000
0001
0000
,
1000
0010
0100
0001
,
0010
0100
1000
0010
,
0100
0010
0100
0001
,
1000
0100
0010
0001
,
0010
0001
0010
0100
,
1000
0010
0100
0001
,
1000
0001
1000
0010
,
1000
0100
1000
0100
,
1000
0100
1000
0100
,
1000
0100
0010
0100
,
0010
0001
0010
0001
,
0010
0001
0010
0100
,
1000
0010
0100
0001
,
0100
0001
1000
0100
,
1000
0100
1000
0100
0000
0000
1000
0010
,
1000
0010
0000
0000
1000
0001
1000
0001
,
1000
0001
1000
0010
,
0100
0001
0010
0100
,
1000
0100
1000
0100
,
0010
0100
0010
0001
,
0010
0001
0100
0001
,
1000
0100
1000
0001
,
1000
0010
1000
0001
,
1000
0100
1000
0000
,
1010
0000
0100
0001
,
0010
0100
1000
1010
,
0000
0100
0001
0010
,
0001
0100
0001
1001
,
0000
0001
0100
0010
,
1000
0100
0100
1100
,
0000
0110
0000
0011
,
0000
1001
0000
0000
,
0001
1000
0001
1000
0001
0000
1000
0000
,
0010
0100
0001
0010
,
0001
1000
0001
1000
0001
0000
1000
0000
,
0100
0010
0001
1000
,
0001
1000
0001
1000
0001
0000
1000
0000
,
0010
0100
0001
0010
,
0100
1000
0100
1000
0100
0000
1000
0000
,
0010
1000
0010
1000
0010
0000
1000
0000
,
0001
1000
0001
1000
0001
0000
0010
0000
,
0100
1000
0001
0100
,
0001
1000
0001
1000
0001
0000
1000
0000
,
0010
0100
0001
1000
,
0100
1000
0100
1000
0001
0000
0010
0000
,
0100
1000
0010
0100
,
0001
0100
0000
0001
0100
0000
0010
0100
,
0000
0001
0100
0000
0010
0000
1000
0000
,
0001
0000
1000
0000
0100
1000
0100
1000
,
0100
1000
0100
1000
0100
0000
1000
0000
,
0010
0000
0100
0000
0001
0010
0001
0010
,
0001
0010
0001
0010
0001
0000
0010
0000
,
0001
0000
0100
0000
0001
1000
0001
1000
,
0001
1000
0001
1000
0001
0000
1000
0000
,
0010
0100
0001
1000
,
0100
0010
0001
1000
,
0010
0100
0001
1000
,
0100
0000
1000
0000
0001
1000
0001
1000
,
0001
1000
0010
0100
,
0001
0010
0100
1000
,
0001
0100
0001
0100
0001
0000
1000
0000
,
0100
1000
0100
1000
0001
0000
0010
0000
,
0001
1000
0001
1000
0001
0000
1000
0000
,
0010
0000
0100
0000
0001
1000
0001
0000
,
1000
0000
0000
0000
;

//---------------dance-single - Renard----------------
#NOTES:
     dance-single:
     Renard:
     Medium:
     9:
     0.658,0.000,0.144,0.000,0.000:
0000
0000
0000
0000
,
0000
0000
0000
0000
,
0000
0000
0000
0000
,
0000
0000
0000
0000
,
0000
0000
0000
0000
,
0000
0000
0000
0000
,
0000
0000
0000
0000
,
0000
0000
0000
0000
,
1000
0100
0010
0000
,
0100
1000
0010
0100
,
0000
0100
0001
0100
,
0010
1000
0100
0010
,
0000
0010
0001
0010
,
0100
1000
0010
0100
,
0001
1000
0001
1000
,
0001
1000
0001
1000
0001
0000
1000
0000
,
0010
0100
0001
0010
,
0100
1000
0010
0100
,
0001
0000
0001
0100
,
0010
0000
0010
1000
,
0000
1000
0100
0010
,
0001
0010
0100
0000
,
1000
0000
0001
0000
,
1000
0010
0100
0000
,
0001
0000
0100
0000
,
0001
1000
0100
0000
,
0010
0000
0001
0010
,
0100
1000
0010
0100
,
0000
0000
0100
0001
,
0000
0000
1000
0100
,
0000
0010
0000
0001
,
0000
0010
0100
1000
,
0000
0000
0010
0100
,
0001
0100
0010
0000
,
1000
0100
0010
0000
,
0001
0010
0100
1000
,
0000
1000
0010
0000
,
0100
0001
1000
0000
,
0001
0100
0010
0100
,
0001
0100
0010
0000
,
1000
0000
0100
1000
,
0001
0000
0010
0001
,
1000
0000
0010
1000
,
0001
0100
0010
1000
,
0000
1000
0010
0100
,
0000
0100
0001
0010
,
0000
0010
0001
1000
,
0001
0100
0001
1000
,
0001
1000
0001
1000
0001
1000
0001
1000
,
0001
1000
0001
1000
0001
1000
0001
1000
,
0001
1000
0001
1000
0001
1000
0001
1000
,
0001
0000
0000
0000
,
0100
0010
0100
0010
0100
0010
0100
0010
,
0100
0010
0100
0010
0100
0010
0100
0010
,
0100
0010
0100
0010
0100
0010
0100
0010
,
0100
0000
0000
0000
,
1000
0001
1000
0001
1000
0000
0001
0000
,
1000
0001
1000
0000
,
0001
1000
0001
1000
0001
0000
1000
0000
,
0001
1000
0001
0000
,
0100
0010
0100
0010
0100
0000
0010
0000
,
0100
0010
0100
0000
,
0010
0100
0010
0100
0010
0000
0100
0000
,
0010
0100
0010
0000
,
0010
1000
0010
1000
,
0001
0100
0001
0010
,
0100
0000
1000
0010
,
0100
0000
0001
1000
,
0000
0000
0001
0000
,
0100
0010
1000
0000
,
0001
0000
0100
0001
,
1000
0000
0100
0000
,
0000
0000
0010
0001
,
0100
0000
0001
0000
,
1000
0000
0100
0000
,
1000
0010
0100
0001
,
0000
0000
0100
0010
,
0000
0000
1000
0100
,
0000
0010
0000
0001
,
0000
0010
0100
1000
,
0010
0100
0010
0100
,
0000
0001
1000
0100
,
0010
0001
1000
0001
,
0000
0100
0010
1000
,
0100
0010
0001
0010
,
0000
0100
1000
0010
,
0100
0001
1000
0001
,
0000
0100
0001
1000
,
0010
1000
0100
0010
,
0000
0001
0010
0001
,
0100
0001
0010
0001
,
0000
0010
0100
1000
,
0010
1000
0100
1000
,
0000
1000
0010
0100
,
0001
1000
0000
0001
,
1000
0000
0000
0000
0001
1000
0001
0000
,
1000
0010
0100
0001
,
0010
0000
0100
1000
,
0010
0100
0001
1000
,
0000
0010
0100
0001
,
0010
0100
1000
0010
,
0000
0100
0001
0100
,
0010
1000
0100
0000
,
1000
0001
1000
0000
,
0001
0010
0001
0100
,
0001
1000
0001
0010
,
0000
0001
0100
0010
,
1000
0100
1000
0001
,
0000
1000
0010
0100
,
0001
0010
0100
1000
,
0000
1010
0000
0101
,
0000
1001
0000
0000
,
0001
1000
0001
1000
0001
1000
0001
1000
,
0001
1000
0001
1000
0001
1000
0001
1000
,
0001
1000
0001
1000
0001
1000
0001
1000
,
0001
0000
0000
0000
,
0100
0010
0100
0010
0100
0010
0100
0010
,
0100
0010
0100
0010
0100
0010
0100
0010
,
0100
0010
0100
0010
0100
0010
0100
0010
,
0100
0000
0000
0000
,
1000
0001
1000
0001
1000
0000
0001
0000
,
1000
0001
1000
0000
,
0001
1000
0001
1000
0001
0000
1000
0000
,
0001
1000
0001
0000
,
0100
0010
0100
0010
0100
0000
0010
0000
,
0100
0010
0100
0000
,
0010
0100
0010
0100
0010
0000
0100
0000
,
0010
0100
0010
0000
,
1000
0010
0100
0010
,
0100
0000
0010
0000
,
0100
0001
0100
0010
,
0100
0010
0100
0000
,
0010
1000
0100
0010
,
0100
0000
0010
0000
,
0001
0100
1001
0000
,
1001
0000
0000
0000
,
1000
0100
1001
0000
,
1001
0000
1001
0000
,
0001
0100
1001
0000
,
1001
0000
1001
0000
,
1000
0010
1001
0000
,
1001
0000
1001
0000
,
0001
0010
1001
0000
,
1001
0000
0000
0000
1000
0001
1000
0000
,
0001
0000
0000
0000
;

//---------------dance-single - Renard----------------
#NOTES:
     dance-single:
     Renard:
     Easy:
     8:
     0.559,0.000,0.262,0.000,0.000:
0000
0000
0000
0000
,
0000
0000
0000
0000
,
0000
0000
0000
0000
,
0000
0000
0000
0000
,
0000
0000
0000
0000
,
0000
0000
0000
0000
,
0000
0000
0000
0000
,
0000
0000
0000
0000
,
1000
0100
0010
0000
,
0100
1000
0010
0100
,
0000
0100
0001
0100
,
0010
1000
0100
0010
,
0000
0010
0001
0010
,
0100
1000
0010
0100
,
0001
1000
0001
1000
,
0001
1000
0001
1000
,
0010
0100
0001
0010
,
0100
1000
0010
0100
,
0001
0000
0001
0100
,
0010
0000
0010
1000
,
0000
1000
0100
0010
,
0001
0010
0100
0000
,
1000
0000
0001
0000
,
1000
0010
0100
0000
,
0001
0000
0100
0000
,
0001
1000
0100
0000
,
0010
0000
0001
0010
,
0100
1000
0010
0100
,
0000
0000
0100
0001
,
0000
0000
1000
0100
,
0000
0010
0000
0001
,
0000
0010
0100
1000
,
0000
0000
0010
0100
,
0001
0100
0010
0000
,
1000
0100
0010
0000
,
0001
0010
0100
1000
,
0000
1000
0010
0000
,
0100
0001
1000
0000
,
0001
0100
0010
0100
,
0001
0100
0010
0000
,
1000
0000
0100
1000
,
0001
0000
0010
0001
,
1000
0000
0010
1000
,
0001
0100
0010
1000
,
0000
1000
0010
0100
,
0000
0100
0001
0010
,
0000
0010
0001
1000
,
0001
0100
0001
1000
,
0001
0100
0010
1000
,
0001
0000
0000
0000
,
1010
0000
0000
0000
,
0101
0000
1000
0000
,
0100
0010
0001
0010
,
0100
0000
0000
0000
,
1100
0000
0100
0000
,
1010
0000
0100
0000
,
1001
0000
0001
0100
,
0010
0000
0010
1000
,
0100
0000
0100
0010
,
0001
0100
0001
1000
,
0100
0000
0100
0010
,
0001
0100
0010
1000
,
0001
0100
0001
1000
,
0100
0000
1001
0000
,
0010
1000
0010
1000
,
0001
0100
0001
0010
,
0100
0000
1000
0010
,
0100
0000
0001
1000
,
0000
0000
0001
0000
,
0100
0010
1000
0000
,
0001
0000
0100
0001
,
1000
0000
0100
0000
,
0000
0000
0010
0001
,
0100
0000
0001
0000
,
1000
0000
0100
0000
,
1000
0010
0100
0001
,
0000
0000
0100
0010
,
0000
0000
1000
0100
,
0000
0010
0000
0001
,
0000
0010
0100
1000
,
0010
0100
0010
0100
,
0000
0001
1000
0100
,
0010
0001
1000
0001
,
0000
0100
0010
1000
,
0100
0010
0001
0010
,
0000
0100
1000
0010
,
0100
0001
1000
0001
,
0000
0100
0001
1000
,
0010
1000
0100
0010
,
0000
0001
0010
0001
,
0100
0001
0010
0001
,
0000
0010
0100
1000
,
0010
1000
0100
1000
,
0000
1000
0010
0100
,
0001
1000
0000
0001
,
1000
0000
1001
0000
,
1000
0010
0100
0001
,
0010
0000
0100
1000
,
0010
0100
0001
1000
,
0000
0010
0100
0001
,
0010
0100
1000
0010
,
0000
0100
0001
0100
,
0010
1000
0100
0000
,
1000
0001
1000
0000
,
0001
0010
0001
0100
,
0001
1000
0001
0010
,
0000
0001
0100
0010
,
1000
0100
1000
0001
,
0000
1000
0010
0100
,
0001
0010
0100
1000
,
0000
1010
0000
0101
,
0000
1001
0000
0000
,
0001
0100
0010
1000
,
0001
0000
0000
0000
,
1010
0000
0000
0000
,
0101
0000
1000
0000
,
0100
0010
0001
0010
,
0100
0000
0000
0000
,
1100
0000
0100
0000
,
1010
0000
0100
0000
,
1001
0000
0001
0100
,
0010
0000
0010
1000
,
0100
0000
0100
0010
,
0001
0100
0001
1000
,
0100
0000
0100
0010
,
0001
0100
0010
1000
,
0001
0100
0001
1000
,
0100
0000
1001
0000
,
1000
0010
0100
0010
,
0100
0000
0010
0000
,
0100
0001
0100
0010
,
0100
0010
0100
0000
,
0010
1000
0100
0010
,
0100
0000
0010
0000
,
0001
0100
1001
0000
,
1001
0000
0000
0000
,
1000
0100
1001
0000
,
1001
0000
1001
0000
,
0001
0100
1001
0000
,
1001
0000
1001
0000
,
1000
0010
1001
0000
,
1001
0000
1001
0000
,
0001
0010
1001
0000
,
1001
0000
0000
0000
1000
0001
1000
0000
,
0001
0000
0000
0000
;
