#TITLE:That Sound (Tone Lovin' Mix);
#SUBTITLE:;
#ARTIST:Kid Whatever remixed by Hecate;
#GENRE:Synthpop;
#TITLETRANSLIT:;
#SUBTITLETRANSLIT:;
#ARTISTTRANSLIT:;
#CREDIT:;
#BANNER:sound.png;
#BACKGROUND:sound-bg.png;
#LYRICSPATH:;
#CDTITLE:;
#MUSIC:sound.ogg;
#OFFSET:0.000;
#SAMPLESTART:25.867;
#SAMPLELENGTH:12.000;
#SELECTABLE:YES;
#BPMS:0.000=147.650;
#STOPS:;
#BGCHANGES:;

//---------------dance-single - Devil`ize----------------
#NOTES:
     dance-single:
     Devil`ize:
     Challenge:
     11:
     1.000,0.997,1.000,0.950,1.000:
0000
0000
0000
0000
,
0000
0000
0000
0000
,
1100
0000
0000
0000
0100
0000
0000
0000
0010
0000
0001
1000
0010
0000
0000
0000
,
1010
0000
0000
0000
0000
0000
1000
0000
0000
0000
0000
0000
0100
0000
0000
0010
0000
0001
0010
0001
0010
0001
0000
0000
,
1100
0000
1000
0000
0100
0010
0000
0001
0000
1000
0100
0000
0020
0030
0220
0330
,
0001
0010
0001
0000
1000
0100
0000
0010
0000
0001
1000
0000
0020
0030
0200
0300
,
1000
0000
0010
0000
0100
0010
1000
0010
0000
0010
0100
0000
0010
0000
0220
0330
,
1000
0100
1000
0010
1000
0000
0100
0010
0000
0010
0100
0000
0002
0000
0003
1000
,
0001
0000
1000
0000
0100
0010
0000
1000
0000
0001
0010
0000
0220
0330
0022
0033
,
0010
0100
0010
0000
1000
0100
0000
0010
0000
0010
0001
0000
0022
0033
0220
0330
,
1100
0000
1000
0000
0100
0010
0000
0001
0000
0001
0010
0000
0220
0330
2200
3300
,
0010
0001
0010
0000
0010
0100
0000
0100
0000
0100
1000
0000
2222
0000
3333
0000
,
0001
0010
0001
1000
0001
0000
0010
0000
0100
0000
1100
0000
0100
0000
0011
0000
,
1100
0100
0010
0001
1100
0010
0110
0001
,
1000
0100
1000
0010
1000
0000
0001
1000
0010
0100
0001
0000
0010
0100
1000
0000
,
1000
0000
0010
0100
0010
0000
0010
0000
0200
0000
0000
0300
1100
0000
0000
0000
,
0100
0000
0110
0000
0010
0001
0000
0010
0000
0100
1000
0000
2200
3300
0220
0330
,
0001
1000
0010
0000
1000
0100
0000
0001
0000
0100
1000
0000
2200
3300
2002
3003
,
0100
0000
0101
0000
0001
0100
0000
1000
0000
0100
0001
0000
0202
0303
2020
3030
,
1000
0010
1000
0000
1000
0010
0000
0100
0000
0010
0100
0000
2222
0000
3333
0000
,
1000
0000
0100
0000
0010
0001
0000
0010
0000
0100
1000
0100
1000
0000
0220
0330
,
1000
0010
0100
0000
0010
0100
0000
0001
0000
0001
0010
0001
0020
0030
2200
3300
,
0100
0000
0110
0000
1000
0001
0000
0010
0000
0100
1000
0010
0100
0000
0202
0303
,
1000
0010
0100
0000
0010
0100
0000
1000
0000
0100
0010
0001
0010
0100
1000
0100
,
0011
0000
1000
0000
0100
0001
0000
0010
0000
0001
0100
0000
2200
3300
0220
0330
,
1000
0001
1000
0000
0001
0010
0000
0010
0000
0010
0001
0000
0022
0033
0220
0330
,
0010
0000
0101
0000
0100
0001
0000
0001
0000
0001
0100
0000
0202
0303
2020
3030
,
0001
0100
0001
0000
0100
0001
0000
0100
0000
0100
0001
0000
0202
0303
2020
3030
,
0100
0000
0110
0000
1000
0001
0000
1000
0000
0001
1000
0000
2002
3003
0220
0330
,
1000
0010
1000
0000
1000
0010
0000
0100
0000
0100
0001
0000
2200
3300
0220
0330
,
0001
0000
0110
0000
1000
0100
0000
0010
0000
0100
1000
0000
1100
0000
0110
0000
,
1000
0010
1000
0000
1000
0010
0000
0100
0000
0010
0100
0000
0110
0000
1100
0000
,
1000
0000
0110
0000
0010
0000
0011
0000
0010
0000
0010
0100
0000
0100
1000
0000
,
1000
0000
0110
0000
0001
0010
0000
0100
0000
0010
0001
0000
0022
0000
0000
0033
,
1100
0000
0100
0000
0110
0000
0010
0000
1100
0000
0100
0010
0000
0020
0002
0000
,
1033
0000
0100
0000
0010
0001
0000
0010
0000
0001
0010
0000
2200
0000
0000
3300
,
0001
0010
0001
0100
0001
0000
1000
0010
1000
0100
1000
0000
1111
0000
0000
0000
,
1000
0010
0100
0001
0010
0000
0001
0100
0010
1000
0100
0000
1111
0000
0000
0000
,
0010
0100
0010
0100
0010
0000
0001
0010
0001
0010
0001
0000
1000
0001
1000
0001
,
1000
0100
0010
0001
0010
0000
0010
0100
1000
0100
0010
0000
0011
0000
0110
0000
,
1000
0000
1100
0000
0100
0010
0000
0001
0000
0010
0001
0000
0001
0000
0011
0000
,
0010
0001
0010
0000
0010
0100
0000
1000
0000
0100
0010
0000
0001
0000
0011
0000
,
0100
0000
1001
0000
0100
0010
0000
0100
0000
0010
1000
0000
1010
0000
0110
0000
,
1000
0001
1000
0000
0001
0010
0000
0100
0000
1000
0100
0000
2222
0000
0000
3333
,
1000
0000
0110
0000
0010
0001
0000
1000
0000
0001
0010
0000
0110
0000
1100
0000
,
1000
0010
0100
0000
0010
0100
0000
0001
0000
0010
0100
0000
1100
0000
0110
0000
,
0001
1000
0001
0000
1000
0100
0000
0100
0000
0010
0001
0000
0011
0000
0110
0000
,
1000
0100
1000
0000
0010
0100
0000
0010
0000
0100
0010
0000
0220
0000
0000
0330
,
1000
0010
0100
0001
0010
0000
1000
0001
0010
0100
1000
0000
1100
0000
0110
0000
,
0001
0010
0100
1000
0100
0000
0010
0100
0001
0100
0010
0000
0110
0000
0011
0000
,
1000
0010
0001
0010
1000
0000
1000
0100
0001
0100
1000
0000
1100
0000
0101
0000
,
0001
0100
1000
0100
0010
0000
0001
0100
0010
1000
0100
0000
2200
0000
0000
3300
,
0001
1000
0010
0100
0001
0000
0001
0010
0100
1000
0100
0000
1100
0000
0110
0000
,
0100
0010
1000
0010
0100
0000
0010
0100
0001
0010
0100
0000
1100
0000
0110
0000
,
1000
0001
1000
0001
1000
0000
0010
0100
0010
0100
0010
0000
0110
0000
1100
0000
,
1000
0010
0100
0001
0010
0000
0010
0001
0010
0000
0011
0000
0022
0000
0000
0000
,
0133
0000
0000
0000
;

//---------------dance-single - Devil`ize----------------
#NOTES:
     dance-single:
     Devil`ize:
     Easy:
     2:
     0.256,0.272,0.086,0.011,0.000:
0000
0000
0000
0000
,
0000
0000
0000
0000
,
0000
0000
0000
0000
,
0000
0000
0000
0000
,
1000
0100
0010
0000
,
0001
0010
0100
0000
,
1000
0100
0010
0001
,
0010
0100
1000
0000
,
1000
0000
0010
0000
,
0100
0000
0001
0000
,
0010
0000
0100
0000
,
1000
0000
0100
0000
,
0010
0000
0001
0010
,
0001
0100
0001
1000
,
0001
0000
0110
0000
,
1000
0010
1000
0100
,
1000
0001
1000
0000
,
1100
0000
0001
0010
,
0100
1000
0100
0010
,
0001
0000
0011
0000
,
1000
0010
0100
0001
,
0100
0010
1000
0000
,
1010
0000
0001
0010
,
0100
0000
1000
0100
,
0010
0000
0001
1000
,
0001
0000
0001
0010
,
0100
0000
1000
0000
,
0100
0000
0010
0000
,
0001
0000
0010
0000
,
0100
0000
1000
0000
,
1000
0100
0010
0001
,
0010
0100
1000
0000
,
0010
0100
0001
0010
,
0100
1000
0000
0001
,
0100
1000
0100
0002
,
0003
1000
0010
1000
,
0010
0100
0000
0001
,
0010
0100
0000
1000
,
0100
0010
0000
0001
,
1000
0001
0010
0100
,
1000
0100
0010
0001
,
0010
0100
1000
0010
,
0100
0000
0001
1000
,
0001
0000
0010
0100
,
1000
0000
1000
0100
,
0010
0000
0001
1000
,
0001
0010
0100
1000
,
0100
0010
0001
0000
,
1000
0010
0100
0000
,
0011
0000
0000
1100
,
0000
0000
0110
0000
,
0000
1000
0010
0100
,
0000
0001
0010
0100
,
0000
1000
0100
0010
,
0000
0001
0010
0100
,
1000
0100
0010
0001
,
0011
0000
0000
0000
;

//---------------dance-single - Renard----------------
#NOTES:
     dance-single:
     Renard:
     Hard:
     9:
     0.660,0.575,0.194,0.086,0.448: // measure 1
0000
0000
0000
0000
,  // measure 2
0000
0000
0000
0000
,  // measure 3
0000
0000
0000
0000
,  // measure 4
0000
0000
0000
1001
,  // measure 5
1000
0000
0010
0000
0100
0001
0000
1000
0000
0000
0100
0000
0010
0000
0001
0000
,  // measure 6
0010
0000
0100
0000
1000
0001
0000
1000
0000
0000
0001
0000
0100
0000
0010
0000
,  // measure 7
1000
0000
0100
0000
0010
0001
0000
1000
0000
0000
0001
0000
1000
0000
0010
0000
,  // measure 8
0100
0000
0001
0000
1000
0100
0000
0010
0000
0000
0000
0000
1001
0000
0000
0000
,  // measure 9
0110
0000
0000
0000
0001
0100
0000
0010
0000
0000
1000
0000
0100
0000
0010
0000
,  // measure 10
0001
0000
0010
0000
0100
1000
0000
0001
0000
0000
0100
0000
0010
0000
0000
0000
,  // measure 11
1001
0000
0000
0000
1000
0010
0000
0100
0000
0000
0001
0000
1000
0000
0100
0000
,  // measure 12
0010
0000
0001
0000
1000
0001
0000
1000
0000
0000
0010
0000
1001
0000
0000
0000
,  // measure 13
1000
1000
0001
0001
1000
1000
0100
0010
,  // measure 14
0001
0001
1000
1000
0001
0001
0010
0100
,  // measure 15
1000
1000
0001
0001
1000
0010
0100
0001
,  // measure 16
0202
0000
0000
0000
0000
0000
1010
0303
,  // measure 17
0001
0000
0100
0000
0001
0100
0000
0010
0000
0000
1000
0000
0100
0000
1000
0000
,  // measure 18
0010
0000
0100
0000
0001
1000
0000
0001
0000
0000
1000
0000
0100
0000
0010
0000
,  // measure 19
0001
0000
0010
0000
0100
1000
0000
0001
0000
0000
1000
0000
0010
0000
0100
0000
,  // measure 20
0001
0000
1000
0000
0100
0010
0000
0001
0000
0000
0020
0000
0200
0000
0000
0030
,  // measure 21
0310
0000
0100
0000
1000
0100
0000
0010
0000
0000
0001
0000
0010
0000
0100
0000
,  // measure 22
1000
0000
0010
0000
0100
0001
0000
0100
0000
0000
0010
0000
1000
0000
0100
0000
,  // measure 23
0010
0000
0001
0000
1000
0001
0000
1000
0000
0000
0100
0000
0010
0000
0100
0000
,  // measure 24
0010
0000
0001
0000
0010
0100
0000
0010
0000
0000
0100
0000
1001
0000
0000
0000
,  // measure 25
1000
0000
0001
0000
1000
0001
0000
0100
0000
0100
0010
0000
1000
0000
0100
0000
,  // measure 26
0010
0000
0001
0000
1000
0100
0000
0010
0000
0010
0001
0000
1000
0000
0010
0000
,  // measure 27
0100
0000
0001
0000
1000
0100
0000
0010
0000
0010
0100
0000
1000
0000
0010
0000
,  // measure 28
0100
0000
0001
0000
0010
0100
0000
0010
0000
0010
0100
0000
0010
0000
0001
0000
,  // measure 29
0100
0000
0010
0000
1000
0001
0000
1000
0000
1000
0001
0000
0100
0000
0010
0000
,  // measure 30
1000
0000
0100
0000
0010
0100
0000
1000
0000
1000
0010
0000
0100
0000
0001
0000
,  // measure 31
0010
0000
0100
0000
0001
0100
0000
0001
0000
0001
0100
0000
0010
0000
0001
0000
,  // measure 32
0100
0000
0010
0000
1000
0001
0000
1000
0000
1000
0001
0000
1001
0000
0000
0000
,  // measure 33
1000
0000
0100
0000
0010
0000
0001
0000
1000
0000
0100
1000
0000
0100
1000
0000
,  // measure 34
0100
0000
0010
0000
0001
0000
0100
0000
0010
0000
0010
0100
0000
0000
0100
0000
,  // measure 35
0010
0000
1000
0000
0001
0000
1000
0000
0010
0000
1000
0010
0000
1000
0010
0000
,  // measure 36
0100
0001
1000
0100
0010
0000
1001
0000
,  // measure 37
0001
0000
0010
0000
0100
0000
1000
0000
0001
0000
0010
0001
0000
0010
0001
0000
,  // measure 38
0010
0000
0100
0000
1000
0000
0010
0100
0000
0100
0010
0000
0110
0000
0000
0000
,  // measure 39
0100
0000
0001
0000
1000
0000
0001
0100
0000
0001
0100
0000
0010
0000
1000
0000
,  // measure 40
0010
1000
0001
0010
0100
0000
1001
0000
,  // measure 41
0001
0000
0100
0000
0010
1000
0000
0001
0000
0000
0010
0000
0100
0000
1000
0000
,  // measure 42
0100
0000
0010
0000
0001
1000
0000
0001
0000
0000
1000
0000
0010
0000
0100
0000
,  // measure 43
0001
0000
0010
0000
0100
1000
0000
0001
0000
0000
1000
0000
0001
0000
0100
0000
,  // measure 44
0010
0000
1000
0000
0001
0010
0000
0100
0000
0000
0000
0000
1001
0000
0000
0000
,  // measure 45
0110
0000
0000
0000
1000
0010
0000
0100
0000
0000
0001
0000
0010
0000
0100
0000
,  // measure 46
1000
0000
0100
0000
0010
0001
0000
1000
0000
0000
0010
0000
0100
0000
0000
0000
,  // measure 47
1001
0000
0000
0000
0001
0100
0000
0010
0000
0000
1000
0000
0001
0000
0010
0000
,  // measure 48
0100
0000
1000
0000
0001
1000
0000
0001
0000
0000
0100
0000
1001
0000
0000
0000
,  // measure 49
1000
0010
0100
0001
1000
1000
0100
0100
,  // measure 50
0010
0001
0100
0010
1000
1000
0001
0001
,  // measure 51
0100
0010
1000
0100
0010
0010
0001
0001
,  // measure 52
1000
0010
0100
0001
1000
0002
2000
0003
,  // measure 53
3001
1000
0100
0010
0100
1000
0001
0100
,  // measure 54
0010
0100
0001
1000
0001
0100
0001
1000
,  // measure 55
0100
1000
0001
0010
0100
1000
0001
0100
,  // measure 56
0010
1000
0100
0010
0001
0000
2200
0000
,  // measure 57
0011
3300
0000
0000
0000
0000
0000
0000
;

//---------------dance-single - Renard----------------
#NOTES:
     dance-single:
     Renard:
     Medium:
     6:
     0.426,0.423,0.076,0.000,0.000:
0000
0000
0000
0000
,
0000
0000
0000
0000
,
0000
0000
0000
0000
,
0000
0000
0000
0000
,
1000
0100
1000
0000
0010
0000
0100
0000
,
0001
1000
0001
0000
1000
0000
1000
0000
,
0100
0010
0001
0000
0100
0000
0001
0000
,
1000
0100
1000
0000
0001
0000
0001
0000
,
1000
0001
1000
0000
0010
0000
0010
0000
,
0100
0001
0100
0000
0010
0000
0010
0000
,
1000
0100
1000
0000
0100
0000
0100
0000
,
0010
0001
0010
0100
1000
0000
1001
0000
,
1000
0001
0100
0010
,
1000
0100
0010
0001
,
0010
0100
1000
0010
,
0100
0000
0001
0000
1000
0001
1000
0000
,
0010
0100
0001
1000
,
0100
0000
0010
0000
0001
0010
0001
0000
,
0010
0100
1000
0010
,
0100
0000
0001
0000
1000
0001
1000
0000
,
0010
0010
0100
0000
0001
0000
1000
0000
,
0100
0100
0010
0000
0001
0000
0010
0000
,
0100
0100
1000
0000
0001
0000
0100
0000
,
0010
1010
1001
0101
,
0100
0010
0100
0010
0100
0000
0100
0000
,
0010
0100
0010
0100
0010
0000
0010
0000
,
1000
0001
1000
0001
1000
0000
1000
0000
,
0001
1000
0001
1000
0001
0000
0001
0000
,
1000
0010
1000
0010
1000
0000
1000
0000
,
0001
0100
0001
0100
0001
0000
0001
0000
,
0100
1000
0100
1000
0100
0000
0100
0000
,
0001
0010
0001
0010
0001
0000
0011
0000
,
0001
0010
0001
0000
0100
0000
0000
0000
,
0010
1000
0100
0000
1000
0010
0100
0000
,
0001
0100
0010
0000
1000
0000
0001
0000
,
1000
0010
0100
0000
0001
1000
0100
0000
,
0010
0001
0010
0000
0100
0000
1000
0000
,
0010
0100
0001
0000
1000
0000
1001
0000
,
0001
1000
0100
0000
1000
0000
0010
0010
,
0100
0000
0001
0000
1000
0001
1000
0000
,
0001
0100
0010
0000
1000
0000
0100
0000
,
1000
0001
1000
0000
0001
0000
0100
0000
,
0010
0000
1000
0000
0100
0010
0001
0000
,
0010
0000
0100
0000
1000
0001
1000
0000
,
0001
1000
0001
0000
0100
0000
0010
0000
,
1000
0100
1000
0000
0010
0000
0100
0000
,
0001
0010
0001
0000
0100
0000
0010
0000
,
1000
0000
0001
0000
1000
0001
1000
0001
,
1000
0001
0100
0000
0001
0000
1000
0000
,
0100
1000
0001
0000
0100
0000
0001
0000
,
1000
0001
0100
0000
0001
0000
1000
0000
,
0100
1000
0001
0100
0001
0000
1000
0000
,
0001
0010
0001
0000
1000
0000
0010
0000
,
1000
0001
0010
0000
0001
0000
1000
0000
,
0010
1000
0001
0000
0010
0000
0001
0000
,
1000
0010
1000
0001
0010
0000
0001
0000
,
1001
0000
0000
0000
;
