#TITLE:Testing 1, 2;
#SUBTITLE:;
#ARTIST:Dougal & Gammer;
#GENRE:Freeform Hardcore;
#TITLETRANSLIT:;
#SUBTITLETRANSLIT:;
#ARTISTTRANSLIT:;
#CREDIT:;
#BANNER:testing.png;
#BACKGROUND:testing-bg.png;
#LYRICSPATH:;
#CDTITLE:;
#MUSIC:testing.mp3;
#OFFSET:-0.025;
#SAMPLESTART:58.246;
#SAMPLELENGTH:12.000;
#SELECTABLE:YES;
#BPMS:0.000=173.000;
#STOPS:;
#BGCHANGES:;

//---------------dance-single - Renard----------------
#NOTES:
     dance-single:
     Renard:
     Hard:
     9:
     0.643,0.808,0.036,0.417,0.583:
0000
0000
0000
0000
,
0000
0000
0000
0000
,
0000
0000
0000
0000
,
0000
0000
0000
0000
,
0000
0000
0000
0000
,
1000
0010
0100
0001
0010
0100
0010
0001
,
0010
0100
1000
0010
0100
0001
0100
0010
,
1000
0100
0010
0001
1000
0010
0100
0001
,
0010
0000
0100
1000
0010
0000
0100
0001
,
0100
0010
0000
0010
1000
0100
0000
0100
,
0010
0001
0000
0001
0010
0100
1000
0010
,
0100
0000
0001
0000
0100
0000
0001
0000
0100
0001
0100
0000
0001
0100
0001
0000
,
0001
0002
0200
0313
,
0002
0000
0000
0000
,
0203
0000
0000
0000
0000
0000
0310
1000
,
0200
0000
0000
0000
,
2300
0000
3020
0000
,
0230
0000
0000
0000
,
0302
0000
1003
0100
,
0020
0000
0000
0000
0002
0000
0000
0030
,
0200
0000
0000
0003
0020
0000
0000
0330
,
1000
0000
0010
0100
0000
0001
0000
0000
0010
0000
0000
0100
0000
1000
0000
0000
,
0010
0000
0000
0100
0001
0000
0000
0000
0010
0000
0000
0100
0000
1000
0000
0000
,
0010
0000
0000
0100
0000
0001
0000
0000
0100
0000
0000
0010
0000
1000
0000
0000
,
0100
0000
0000
0010
0000
0001
0000
0000
0010
0000
0100
0000
1000
0000
0010
0000
,
0100
0000
0000
0001
0000
0100
0000
0000
0010
0000
0000
0000
1000
0000
0000
0000
,
0100
0000
0000
0010
0000
0001
0000
0000
0010
0000
0000
0000
0100
0000
0000
0000
,
1000
0000
0000
0010
0000
0000
0000
0000
0100
0000
0000
0001
0000
0000
0000
0000
,
0100
0010
1000
0010
0100
0001
0100
0010
,
2000
0000
0000
0000
,
0002
0000
0000
0000
,
0000
0000
0000
0000
,
0000
0000
0000
3003
,
0202
0000
0000
0003
0020
0000
0000
0030
2000
0000
0000
3000
0020
0000
0000
0330
,
0010
0000
0100
0010
0100
0000
0010
0100
0010
0000
0100
0000
1001
0000
0000
0000
,
1000
0000
0100
0010
0000
0001
0000
1000
0001
0000
0100
0000
0010
0000
1000
0000
,
0001
0000
0100
0001
0000
1000
0000
0100
1000
0000
0001
0000
0010
0000
0100
0000
,
1000
0000
0001
1000
0000
0001
0000
0100
0001
0000
1000
0000
0100
0000
0010
0000
,
0001
0000
1000
0010
0000
1000
0000
0001
0100
0000
0010
0000
2000
0000
0000
0000
,
3100
0000
0010
0001
0000
0010
0000
0100
1000
0000
0010
0000
0100
0000
0001
0000
,
0100
0000
0010
1000
0000
0010
0000
0100
0001
0000
0100
0000
0020
0000
0000
0000
,
1030
0000
0010
0100
0000
0001
0000
1000
0100
0000
1000
0000
0001
0000
0010
0000
,
0200
0000
0000
0000
2000
0000
0000
3000
0020
0000
0000
0030
0002
0000
0303
0000
,
0001
0100
1000
0010
0100
0001
0100
0010
,
1000
0100
0010
0001
1000
0010
0100
0001
,
0100
1000
0100
0001
0010
0100
1000
0100
,
1000
0100
1000
0100
1000
0100
1000
0100
1000
0100
1000
0100
1000
0000
1000
0000
,
0010
1000
0100
0010
0001
0010
1000
0010
,
0001
0010
0100
1000
0100
0001
0100
1000
,
0010
0100
0001
0100
1000
0100
0001
0100
,
0020
0000
0000
0000
2000
0000
0000
3000
0200
0000
0000
0300
0002
0000
0033
0000
,
0010
0000
1000
0010
0000
1000
0000
0010
0000
1000
0010
1000
0000
0010
0000
1000
,
0010
0000
1000
0010
0000
1000
0000
0010
0000
1000
0010
1000
0000
0010
0000
1000
,
0010
0000
1000
0010
0000
1000
0000
0010
0000
1000
0010
1000
0000
0010
0000
1000
,
0010
0000
1000
0010
0000
1000
0000
0010
0000
1000
0010
1000
0000
0010
0000
1000
,
0001
0000
0100
0001
0000
0100
0000
0001
0000
0100
0001
0100
0000
0001
0000
0100
,
0001
0000
0100
0001
0000
0100
0000
0001
0000
0100
0001
0100
0000
0001
0000
0100
,
0001
0000
0100
0001
0000
0100
0000
0001
0000
0100
0001
0100
0000
0001
0100
0000
,
0202
0000
0000
0003
0020
0000
0000
0030
2000
0000
0300
0000
0002
0000
0000
0000
,
3003
0000
0000
0000
;

//---------------dance-single - Renard----------------
#NOTES:
     dance-single:
     Renard:
     Challenge:
     11:
     0.818,1.000,0.083,0.417,1.000:
0000
0000
0000
0000
,
0000
0000
0000
0000
,
0000
0000
0000
0000
,
0000
0000
0000
0000
,
0000
0000
0000
0000
,
0001
0100
0010
1000
0100
0010
0100
1000
,
0100
0010
0001
0100
0010
1000
0010
0100
,
0001
0010
0100
1000
0001
0100
0010
1000
,
0100
0000
0010
0001
0100
0000
0010
1000
,
0010
0100
0000
0100
0001
0010
0000
0010
,
0100
1000
0000
1000
0100
0010
0001
0100
,
0010
0000
1000
0000
0010
0000
1000
0000
0010
1000
0010
0000
1000
0010
1000
0000
,
2000
0020
0100
3031
,
2000
0000
0000
0000
,
3020
0000
0000
0000
0000
0000
0130
0001
,
0020
0000
0000
0000
,
0032
0000
0203
0000
,
0320
0000
0000
0000
,
2030
0000
3001
0010
,
0200
0000
0000
0000
2000
0000
0000
0300
,
0020
0000
0000
3000
0200
0000
0000
0330
,
0100
0001
0010
0100
0010
0100
0010
0001
0100
0010
1000
0100
1000
0100
1000
0100
,
0010
0100
0010
0001
0100
0001
0100
0010
1000
0010
0100
0001
0100
0000
0100
0001
,
1000
0100
1000
0100
1000
0010
1000
0010
0100
0010
0100
0001
0100
0001
0100
0001
,
0010
0100
0010
1000
0010
1000
0010
0100
0010
0001
0100
0000
0010
0000
1000
0010
,
1000
0001
0010
0100
0000
0100
0000
0000
0010
0001
1000
0000
1000
0000
0010
0100
,
0010
1000
0001
0010
0000
0010
0000
0000
0010
0001
1000
0000
0010
0000
1000
0001
,
1000
0010
0100
0001
1000
0000
0000
0000
1000
0010
0100
0001
1000
0000
0000
0000
,
0011
0100
1010
0100
1001
0010
1001
0100
,
0002
0000
0000
0000
,
2000
0000
0000
0000
,
0000
0000
0000
0000
,
0000
0000
0000
3003
,
2020
0000
0000
3000
0200
0000
0000
0300
0002
0000
0000
0003
0200
0000
0000
0330
,
0100
0000
0010
0100
0010
0000
0100
0010
0100
0000
0010
0000
1001
0000
0000
0000
,
0001
0000
0010
0100
0000
1000
0000
0001
1000
0000
0010
0000
0100
0000
0001
0000
,
1000
0000
0010
1000
0000
0001
0000
0010
0001
0000
1000
0000
0100
0000
0010
0000
,
0001
0000
1000
0001
0000
1000
0000
0010
1000
0000
0001
0000
0010
0000
0100
0000
,
1000
0000
0001
0100
0000
0001
0000
1000
0010
0000
0100
0000
0002
0000
0000
0000
,
0013
0000
0100
1000
0000
0100
0000
0010
0001
0000
0100
0000
0010
0000
1000
0000
,
0010
0000
0100
0001
0000
0100
0000
0010
1000
0000
0010
0000
0200
0000
0000
0000
,
0301
0000
0100
0010
0000
1000
0000
0001
0010
0000
0001
0000
1000
0000
0100
0000
,
0020
0000
0000
0000
0002
0000
0000
0003
0200
0000
0000
0300
2000
0000
3030
0000
,
1000
0010
0100
0001
0100
0001
0100
0010
1000
0010
1000
0100
1000
0100
1000
0100
,
0010
0001
0100
0010
0100
0010
0100
0010
1000
0100
0010
0001
0010
0001
0010
0100
,
1000
0010
0100
0001
0100
0001
0010
0100
1000
0100
0010
0100
0010
0100
1000
0000
,
0001
0010
0001
0010
0001
0010
0001
0010
0001
0010
0001
0010
0001
0000
0001
0000
,
1000
0010
0100
0001
0100
0001
0100
0010
1000
0100
0010
0001
0010
0001
0010
0100
,
1000
0010
0100
0001
0100
0001
0100
0010
1000
0100
0010
0100
0010
0100
1000
0010
,
0100
0001
0100
0010
1000
0010
1000
0010
0100
0001
0010
0100
0010
0100
0010
0000
,
0200
0000
0000
0000
0002
0000
0000
0003
0020
0000
0000
0030
2000
0000
3300
0000
,
1000
0000
0010
1000
0000
0010
0000
1000
0000
0010
1000
0010
0000
1000
0000
0010
,
1000
0000
0010
1000
0000
0010
0000
1000
0000
0010
1000
0010
0000
1000
0000
0010
,
1000
0000
0010
1000
0000
0010
0000
1000
0000
0010
1000
0010
0000
1000
0000
0010
,
1000
0000
0010
1000
0000
0010
0000
1000
0000
0010
1000
0010
0000
1000
0000
0010
,
0100
0000
0001
0100
0000
0001
0000
0100
0000
0001
0100
0001
0000
0100
0000
0001
,
0100
0000
0001
0100
0000
0001
0000
0100
0000
0001
0100
0001
0000
0100
0000
0001
,
0100
0000
0001
0100
0000
0001
0000
0100
0000
0001
0100
0001
0000
0100
0001
0000
,
0202
0000
0000
0300
2000
0000
0000
3000
0020
0000
0003
0000
0200
0000
0000
0000
,
0330
0000
0000
0000
;

//---------------dance-single - Renard----------------
#NOTES:
     dance-single:
     Renard:
     Medium:
     7:
     0.468,0.595,0.226,0.107,0.000:
0000
0000
0000
0000
,
0000
0000
0000
0000
,
0000
0000
0000
0000
,
0000
0000
0000
0000
,
0000
0000
0000
0000
,
1000
0000
0010
0100
0001
0000
0100
0010
,
1000
0000
0100
0010
0001
0000
0010
0100
,
1000
0010
0100
0001
1000
0001
1000
0001
,
1000
0010
1000
0001
1000
0100
1000
0001
,
1000
0001
0010
0001
0100
0001
1000
0001
,
0100
0001
1000
0010
1000
0001
0100
0001
,
1000
0100
0010
0001
1000
0001
1000
0001
,
1000
0001
0110
1001
,
1000
0100
1000
0000
0000
0000
0000
0000
,
0001
0010
0001
0000
0000
0000
0000
0000
,
0100
0001
0100
0000
0000
0000
0000
0000
,
0010
1000
0010
0000
0000
0000
0000
0000
,
1000
0100
1000
0000
0001
0010
0001
0000
,
1000
0010
1000
0000
0001
0100
0001
0000
,
2000
0000
3200
0000
,
0320
0000
0032
0000
,
0103
0010
1000
0000
,
0001
0000
0100
0000
,
0010
1000
0100
0000
,
0010
0000
1001
1010
,
0101
0000
0010
0100
,
1001
0000
0100
0010
,
1010
0100
0011
0100
,
1001
0010
0100
1001
,
2002
0000
0000
0000
,
0000
0000
0000
0000
,
0000
0000
0000
0000
,
0000
0000
0000
3003
,
0002
0200
0010
0313
,
0002
0000
0000
1003
,
1000
0100
0010
0000
0001
0010
0100
0000
,
1000
0000
1000
0000
0010
0100
0001
0000
,
0100
0010
1000
0000
0010
0100
0001
0000
,
1000
0000
0100
0000
0010
0001
0010
0000
,
0100
1000
0100
0000
1000
0010
1000
0000
,
0001
0000
0100
0000
0001
1000
0001
0000
,
1000
0100
1000
0000
0001
0010
0001
0000
,
1000
0010
0101
1010
,
0001
0100
0001
0100
0001
0100
0001
0100
,
0010
0100
0010
0100
0010
0100
0010
0000
,
1000
0010
1000
0010
1000
0010
1000
0010
,
1000
0100
1000
0100
1000
0100
1100
0000
,
0010
0001
0010
0001
0010
0001
0010
0000
,
0001
0100
0001
0100
0001
0100
0001
0000
,
1000
0010
1000
0000
0001
1000
0001
0000
,
0100
0001
1000
0100
0010
0000
1001
0000
,
0010
0010
1000
0001
,
0100
0100
0010
1000
,
0100
0100
0010
0001
,
0010
0010
0100
1000
,
0010
0010
0100
0001
,
0010
0010
0100
1000
,
0010
0100
0001
0100
,
1001
0110
1010
0101
;

//---------------dance-single - Renard----------------
#NOTES:
     dance-single:
     Renard:
     Easy:
     3:
     0.325,0.350,0.095,0.131,0.000:
0000
0000
0000
0000
,
0000
0000
0000
0000
,
0000
0000
0000
0000
,
0000
0000
0000
0000
,
0000
0000
0000
0000
,
1001
1000
0010
0100
,
0001
0010
0100
1000
,
0001
0100
0010
1000
,
0100
0001
0010
1000
,
0100
1000
0010
0001
,
0100
1000
0100
0001
,
0010
1010
0100
0000
,
0001
1000
0010
0100
,
2002
0000
0000
3000
,
0200
0000
0000
0003
,
0020
0000
0000
0300
,
2000
0000
0000
0030
,
0200
0000
0000
3000
,
0020
0000
0000
0300
,
0032
0000
0203
0000
,
0302
0000
2003
0000
,
3100
1000
0010
0100
,
0001
0100
0010
1000
,
0100
1000
0010
0100
,
0001
0100
0010
0000
,
1000
0100
0000
0000
,
0010
0001
0000
0000
,
0100
0001
1000
1000
,
0001
0001
0100
0010
,
0000
0000
0000
0000
,
0000
0000
0000
0000
,
0000
0000
0000
0000
,
0000
0000
0000
0000
,
1000
0001
0100
0010
,
1000
0100
1000
1001
,
1000
0100
0010
0001
,
1000
1000
0001
0001
,
1000
0001
0010
0100
,
1000
1000
0001
0001
,
1000
0010
0100
0001
,
1000
1000
0001
0001
,
1000
0100
0010
0001
,
0001
1000
0001
1000
,
0010
0100
0010
1000
,
0001
0100
0010
0010
,
1000
0100
0010
0001
,
0100
0010
1000
1000
,
0010
0100
0001
0010
,
0100
0100
1000
1000
,
0010
0100
0001
1000
,
0001
1000
0010
0100
,
0001
0001
0001
0001
,
1000
1000
1000
1000
,
0010
0010
0010
0010
,
0100
0100
0100
0100
,
0001
0001
0001
0001
,
1000
1000
1000
1000
,
0100
0100
0100
0100
,
0011
1100
1010
0101
;
