#TITLE:Take Me Back;
#SUBTITLE:;
#ARTIST:KaW;
#GENRE:Speed Dance;
#TITLETRANSLIT:;
#SUBTITLETRANSLIT:;
#ARTISTTRANSLIT:;
#CREDIT:;
#BANNER:back.png;
#BACKGROUND:back-bg.png;
#LYRICSPATH:;
#CDTITLE:;
#MUSIC:back.ogg;
#OFFSET:0.000;
#SAMPLESTART:76.800;
#SAMPLELENGTH:14.000;
#SELECTABLE:YES;
#BPMS:0.000=175.000;
#STOPS:92.000=0.686
;
#BGCHANGES:;

//---------------dance-single - Renard----------------
#NOTES:
     dance-single:
     Renard:
     Challenge:
     9:
     0.741,0.776,0.348,0.320,0.085:
0000
0000
0000
0000
,
0000
0000
0000
0000
,
0000
0000
0000
0000
,
0000
0000
0000
0000
,
1000
0100
0010
0001
0000
0001
0010
0100
,
1000
0010
0100
0001
0000
0000
0000
0000
,
0001
0100
0010
1000
0000
0100
0010
0100
,
2002
0000
0000
0000
0000
0000
3000
0000
1003
0000
0001
0000
1000
0001
1000
0001
,
1000
0000
0100
0000
1000
0000
0010
0100
0000
0100
0001
0000
0100
0000
0010
0000
,
1000
0100
0010
0001
1000
0100
1000
0000
,
0010
0000
0100
0000
0001
0000
0100
0010
0000
0010
1000
0000
0100
0000
0010
0000
,
0001
0010
0100
1000
0010
0100
0001
0000
,
0001
0000
0010
0000
0001
0000
0100
0010
0000
0010
1000
0000
0010
0000
0100
0000
,
0001
0010
0100
1000
0001
0010
0001
0000
,
0100
0000
0010
0000
1000
0000
0010
0100
0000
0100
0001
0000
0010
0000
0100
0000
,
1000
0100
0010
0001
0100
0010
1000
0000
,
0020
0130
0001
0200
0310
2000
3100
2000
,
3010
0100
0001
0100
1000
0100
0001
0000
,
0002
0013
1000
0020
0031
0200
0310
2000
,
3100
1000
0010
0100
0001
0100
1000
0100
,
0020
1030
0010
0200
0301
0020
0130
2000
,
3100
0001
0100
1000
0010
0100
0001
0000
,
0002
0103
0010
2000
3100
0020
0031
0020
,
0130
0000
0000
0000
1000
1000
0100
0100
,
0010
0001
0010
0100
0000
1001
0000
0200
,
0002
0300
2000
0003
3010
1000
0100
0010
,
0001
0010
0100
1000
0000
0110
0000
0100
,
0001
0000
1000
0000
0001
0001
0010
0010
,
0100
1000
0100
0010
0000
1001
0000
0020
,
2000
0030
0002
3000
0103
0001
0010
0100
,
1000
0100
0010
0001
0000
0110
0000
0010
,
1000
0000
0001
0000
1000
0100
1000
0010
,
1000
0001
1000
0010
0000
0010
0100
0001
,
0100
0010
0100
0000
0001
0010
0001
0100
,
0001
1000
0001
0100
0000
0100
0010
1000
,
0100
0010
0001
0000
0100
0010
0100
1000
,
0100
0001
0100
0010
0000
0010
1000
0010
,
0100
0001
0100
0000
0010
1000
0010
0001
,
0010
0100
0010
1000
0000
1000
0010
0100
,
0001
1000
0100
0010
0001
0010
0100
1000
,
0000
1000
0010
0100
0001
0100
1000
0100
,
0000
0010
0100
0000
0010
1000
0010
0001
,
0000
0001
0010
0100
1000
0100
0001
0100
,
0000
0100
0010
1000
0010
0100
0001
0010
,
0000
0010
0100
1000
0010
0100
0001
0100
,
0000
0100
0010
0000
1000
0010
0100
0001
,
0000
0001
0100
1000
0100
0010
1000
0010
,
0000
0010
0100
0001
0010
0100
1000
0010
,
0100
0001
0010
0100
1000
0000
0010
0000
,
0100
0001
0100
0000
0010
1000
0100
0010
,
0100
1000
0010
0100
0001
0000
0010
0000
,
0100
1000
0100
0000
0010
0001
0010
0100
,
1000
0010
0100
0001
0100
1000
0100
0000
,
0010
0100
0010
0000
0100
0001
0100
0010
,
1000
0100
0001
0100
0010
0001
0010
0100
,
1000
0001
1000
0001
1000
0001
1000
0001
1000
0000
0100
1000
0100
0000
1000
0000
,
0010
0100
0000
1001
0000
1010
0000
0210
,
0002
0000
0000
0000
1010
0000
0303
0000
0001
0000
1000
0100
1000
0000
0010
0000
,
0100
0001
0000
1010
0000
0101
0000
2100
,
0002
0000
0000
0000
0110
0000
3003
0000
0001
0000
0010
0001
0010
0000
0001
0000
,
0100
0010
0000
1001
0000
1010
0000
2000
,
0200
0000
0000
0000
0011
0000
3300
0000
1000
0000
0001
0010
0001
0000
0100
0000
,
0010
1000
0000
0101
0000
1010
0000
0012
,
2000
0000
0110
3003
1010
0000
0101
0000
,
0011
1100
0000
1001
0000
0101
0000
1010
,
1001
0000
0101
0000
0001
0100
0010
1000
,
0100
0010
0001
0010
1000
0010
0001
0100
,
0010
1000
0100
0010
0001
0000
1010
0000
,
1100
0011
0000
1001
0000
1010
0000
0101
,
1001
0000
1010
0000
1000
0010
0100
0001
,
0010
0100
1000
0100
0001
0100
1000
0010
,
0100
0001
0010
0100
1000
0001
0100
0010
,
0000
0010
1000
0100
0010
0001
0010
0100
,
0000
0000
0000
0000
0100
1000
0010
0100
,
0000
0100
0001
0200
0020
0000
0000
0000
,
0330
0000
0000
0000
;

//---------------dance-single - Renard----------------
#NOTES:
     dance-single:
     Renard:
     Hard:
     9:
     0.610,0.596,0.188,0.000,0.033:
0000
0000
0000
0000
,
0000
0000
0000
0000
,
0000
0000
0000
0000
,
0000
0000
0000
0000
,
1000
0000
1000
0010
0000
0010
0100
0001
,
0010
0000
0001
0000
,
1000
0000
1000
0001
0000
0001
0100
0010
,
1000
0000
0000
0000
0000
0000
0000
0000
0001
0000
1000
0000
0001
1000
0001
0000
,
1000
0010
0100
0001
0000
0001
1000
0100
,
0010
0000
0001
0000
1000
1000
1000
0000
,
0010
0100
0001
0010
0000
0100
1000
0010
,
0100
0000
0001
0000
1000
1000
1000
0000
,
0001
0010
0100
0010
0000
0010
0001
0100
,
0010
0000
1000
0000
1000
1000
1000
0000
,
0010
0100
0001
0010
0000
0100
0010
0100
,
0010
0000
0100
0000
1000
1000
1000
0000
,
0010
0100
0001
1000
0100
0000
1000
0000
,
0001
0010
0001
0100
0001
0001
0001
0000
,
0010
0100
0010
0001
0000
0100
0010
1000
,
0001
0000
0100
0000
0001
0001
0001
0000
,
1000
0100
0010
0001
0000
0001
0010
0100
,
1000
0000
0010
0000
0001
0001
0001
0000
,
0010
0000
1000
0100
0000
0001
0100
1000
,
0010
0000
0000
0000
0100
0001
0100
0010
,
1000
0100
0010
0001
0000
0011
0000
0010
,
0100
0000
1010
0000
0100
0001
0100
0010
,
1000
0100
0010
0011
0000
0010
0000
0010
,
0100
0000
1000
0000
0010
0100
0001
0100
,
0010
1000
0100
0010
0000
0110
0000
0010
,
0001
0000
0100
0000
0010
1000
0100
0010
,
0001
0010
0001
0011
0000
0001
0010
0100
,
1000
0110
0101
0110
,
1010
0000
1000
0100
0000
0100
0010
0001
,
0010
0100
1000
0010
0100
0001
0100
0000
,
0010
1000
0001
0100
0000
0110
0000
0010
,
1000
0010
0100
0001
0010
0100
0010
0000
,
0110
0000
0010
0001
0000
0010
0100
1000
,
0010
0000
0100
0000
0001
0100
0001
0000
,
1000
0010
1000
0001
0000
0001
1000
0100
,
0010
0001
0010
0010
,
0100
0000
0100
0000
1000
0000
1000
0010
,
0000
0010
0100
0001
0100
0000
0000
0100
,
0000
0010
0000
0000
1000
0000
0100
0010
,
0001
1000
0001
1000
0001
0000
0100
0010
,
0000
1000
0000
0010
0100
0000
0001
1000
,
0100
0010
0001
0000
0010
0001
0010
0001
,
0010
0100
1000
0010
0100
0001
1000
0010
,
0100
0100
0100
0000
0001
1000
0100
0000
,
0001
0000
1000
0010
0000
0100
0001
1000
,
0100
0010
0001
0000
1000
0010
0100
0001
,
0000
1000
0100
1000
0001
0010
0001
1000
,
0001
0001
0001
0000
1000
0010
0100
0001
,
0000
0010
0001
0100
0001
0000
0010
0100
,
1000
1000
1000
0000
0010
0100
0001
1000
,
0100
0010
0001
1000
0010
0100
0001
1000
,
0001
1000
0001
0000
1000
0000
0000
0000
0010
0000
0100
0000
0001
0000
0000
0001
,
1000
0000
0100
0000
0010
0000
0001
0000
0000
0000
0011
0000
0000
0000
0010
0100
,
0000
0000
0100
0000
1000
0000
0010
0000
0100
0000
0001
0000
0010
0000
0000
0010
,
0100
1000
0010
0100
0000
0101
0000
1010
,
0000
0100
0001
0010
0100
1000
0010
0100
,
0001
0000
1000
0000
0000
0000
0100
0000
0000
0000
0100
0010
0001
0000
0010
0000
,
0100
0000
0000
0000
1000
0000
0000
0000
0010
0000
0100
0000
0001
0000
0000
1000
,
0001
1000
0010
0100
0000
0101
0000
0000
,
0110
0000
1000
0000
0010
0100
0001
0100
,
0010
1000
0100
0010
0001
0000
0100
1000
,
0010
0100
0001
0010
0100
0010
0001
0010
,
0100
1000
0010
0100
0000
1001
0000
0010
,
1000
0000
0101
0000
0010
1000
0100
0010
,
0001
0010
0100
0010
0001
1000
0010
0100
,
0001
0100
0010
1000
0100
1000
0001
0010
,
0001
1000
0010
0100
0000
0001
0100
0010
,
1000
0000
1001
0000
1010
0000
0000
0001
,
0000
0001
0100
0010
1000
0100
0010
0001
,
0000
0000
0000
0000
0001
0010
0100
1000
,
0000
1000
0010
0100
0001
0000
0000
0000
;

//---------------dance-single - Renard----------------
#NOTES:
     dance-single:
     Renard:
     Medium:
     6:
     0.391,0.421,0.019,0.000,0.000:
0000
0000
0000
0000
,
0000
0000
0000
0000
,
0000
0000
0000
0000
,
0000
0000
0000
0000
,
0010
0000
0001
0000
0100
0000
0001
1000
,
0001
1000
0100
0000
,
0010
0000
0001
0000
1000
0000
0010
1000
,
0010
1000
0010
0000
,
0100
0000
0001
1000
0000
0100
0010
0000
,
0001
0000
0010
0100
0000
1000
0010
0000
,
0100
0000
0001
1000
0000
0001
0100
0000
,
0010
0000
1000
0100
1000
0001
1000
0000
,
0001
0000
0010
0100
0000
1000
0010
0000
,
0100
0000
0001
1000
0001
1000
0001
0000
,
1000
0000
0010
0100
0000
0001
1000
0000
,
0100
0000
0010
0000
0001
1000
0001
0000
,
1000
0000
0000
0010
0000
0000
0100
0000
,
0001
0000
0000
0010
0000
0000
0100
1000
,
0100
0000
0000
1000
0000
0000
0010
0000
,
0100
0000
0000
0001
0000
0000
0010
0000
,
0100
0000
0000
1000
0000
0000
0010
0000
,
0100
0000
0000
0000
0001
1000
0001
0000
,
1000
0000
0000
0010
0000
0000
0100
0000
,
1001
0000
1000
0010
,
0100
0001
0100
0001
0000
0100
0000
0010
,
1000
0010
1000
0100
,
0010
0001
1000
0000
,
0001
0000
0100
0001
,
1000
0000
0100
0010
0000
0100
0000
1000
,
0010
0100
0001
0100
,
0001
1000
0100
0010
,
0001
1000
0001
0100
,
0010
0000
1000
0001
0000
1000
0001
1000
,
0001
1000
0010
0100
,
0001
0000
1000
0001
0000
1000
0001
1000
,
0001
1000
0010
0100
,
0001
0000
1000
0001
0000
1000
0001
1000
,
0001
1000
0010
0100
,
0001
0000
0010
0100
0000
0010
0100
0010
,
0100
1000
0010
0000
,
0100
0000
0001
0000
,
0001
0000
1000
0000
,
0100
0000
0010
0001
,
1000
0001
1000
0001
1000
0000
0000
0000
,
0010
0000
0100
0000
,
0001
0000
1000
0000
,
0010
0000
0000
0100
0000
0000
0001
0000
,
0100
0000
0010
0000
1000
0100
0000
0000
,
1000
0000
0100
1000
0000
0000
0100
0000
,
1000
0000
0010
0000
0100
0001
0000
0000
,
0100
0000
0001
0100
0000
0001
0000
0000
,
0100
0000
0010
0000
1000
0100
0000
0000
,
1000
0000
0100
1000
0000
0100
0000
0000
,
0010
0000
0001
0000
0010
0100
0000
0000
,
0010
0000
0100
0000
1000
0010
0000
0000
,
1000
0010
0100
0001
,
0100
0001
0000
1000
0000
0010
0000
0100
,
0000
0000
0001
0010
,
0100
1000
0000
0010
0000
0100
0000
0000
,
1001
0000
1000
0010
,
0100
0001
0000
0100
0000
0010
0000
1000
,
0000
0000
0100
0010
,
0001
0010
0000
0100
0000
1000
0000
0000
,
0010
0000
0100
0001
,
0100
0001
0000
1000
0000
0010
0000
1000
,
0001
1000
0001
0100
,
0010
1000
0000
0100
0000
0010
0000
0001
,
0010
0000
0100
0000
1000
0010
0000
0100
,
0001
0000
0100
0010
0000
1000
0001
0000
,
0100
0000
0001
0000
1000
0100
0000
0010
,
0001
0000
0010
0100
0000
1000
0000
0010
,
0100
0001
0100
0010
,
1000
0000
0100
0000
0010
0001
0010
0100
,
0000
0000
1000
0010
,
0100
0000
0001
1000
0001
0000
0000
0000
;

//---------------dance-single - Renard----------------
#NOTES:
     dance-single:
     Renard:
     Easy:
     3:
     0.391,0.421,0.348,0.000,0.000: // measure 1
0000
0000
0000
0000
,  // measure 2
0000
0000
0000
0000
,  // measure 3
0000
0000
0000
0000
,  // measure 4
0000
0000
0000
0000
,  // measure 5
0100
1000
0010
1000
,  // measure 6
1001
0001
0010
0000
,  // measure 7
0100
1000
0001
0100
,  // measure 8
0101
0001
0100
0000
,  // measure 9
0010
1000
0001
0110
,  // measure 10
1000
0100
0010
0101
,  // measure 11
0010
1000
0001
1010
,  // measure 12
0100
0001
0011
1001
,  // measure 13
1000
0100
0010
0101
,  // measure 14
0010
1000
1001
1001
,  // measure 15
0001
0100
0010
1001
,  // measure 16
0010
0100
1000
1001
,  // measure 17
0001
0000
0100
0010
,  // measure 18
1000
0000
0100
0010
,  // measure 19
0011
0000
0001
0100
,  // measure 20
0010
0000
1000
0100
,  // measure 21
0010
0000
0001
0100
,  // measure 22
0010
0000
1000
1001
,  // measure 23
0001
0000
0100
0010
,  // measure 24
1001
0000
0001
0100
,  // measure 25
0010
1010
1000
0010
,  // measure 26
0101
0100
0001
0010
,  // measure 27
0100
1000
0001
0000
,  // measure 28
1000
0000
0010
1000
,  // measure 29
0001
0010
0100
0010
,  // measure 30
0101
0010
1000
0010
,  // measure 31
1000
0001
0010
0100
,  // measure 32
1000
0001
1000
0010
,  // measure 33
0100
0001
1000
1001
,  // measure 34
1001
0001
0100
0010
,  // measure 35
1000
0001
1000
1001
,  // measure 36
1001
0001
0100
0010
,  // measure 37
1000
0001
1000
1001
,  // measure 38
1001
0001
0100
0010
,  // measure 39
1000
0100
0010
0110
,  // measure 40
0110
0001
0100
0000
,  // measure 41
0010
0000
1000
0000
,  // measure 42
1000
0000
0001
0000
,  // measure 43
0010
0000
0100
1000
,  // measure 44
0001
1001
1001
0000
,  // measure 45
0100
0000
0010
0000
,  // measure 46
1000
0000
0001
0000
,  // measure 47
0100
0000
0010
1000
,  // measure 48
0010
0100
0001
0010
,  // measure 49
0001
0010
0001
0010
,  // measure 50
0001
0100
0010
1000
,  // measure 51
0010
1000
0010
1000
,  // measure 52
0010
0100
0001
0010
,  // measure 53
0001
0010
0001
0010
,  // measure 54
0100
1000
0100
0010
,  // measure 55
0100
0010
0001
0100
,  // measure 56
0001
0100
0010
1000
,  // measure 57
0010
1000
0001
0100
,  // measure 58
0010
0000
1000
0100
,  // measure 59
0010
0001
0100
0010
,  // measure 60
1001
0000
0001
0100
,  // measure 61
0010
1000
0010
0100
,  // measure 62
0001
0000
0010
0100
,  // measure 63
1000
0100
0010
0001
,  // measure 64
0100
0000
0010
1000
,  // measure 65
0010
1000
0001
0100
,  // measure 66
1001
0001
1000
0010
,  // measure 67
0100
0001
0010
0100
,  // measure 68
1100
0010
0001
0100
,  // measure 69
1010
0010
0100
1001
,  // measure 70
0010
1000
0001
0010
,  // measure 71
1100
0100
0010
0001
,  // measure 72
0110
1000
0010
0100
,  // measure 73
0001
0010
0100
1100
,  // measure 74
0010
0000
0001
0100
,  // measure 75
0010
1000
1001
0000
;
