#TITLE:Supremacy;
#SUBTITLE:;
#ARTIST:KaW;
#GENRE:Dancepop;
#TITLETRANSLIT:;
#SUBTITLETRANSLIT:;
#ARTISTTRANSLIT:;
#CREDIT:;
#BANNER:supremacy.png;
#BACKGROUND:supremacy-bg.png;
#LYRICSPATH:;
#CDTITLE:;
#MUSIC:supremacy.ogg;
#OFFSET:-0.000;
#SAMPLESTART:40.483;
#SAMPLELENGTH:14.000;
#SELECTABLE:YES;
#BPMS:0.000=142.000,128.000=71.000,144.000=142.000;
#STOPS:;
#BGCHANGES:;

//---------------dance-single - Devil`ize----------------
#NOTES:
     dance-single:
     Devil`ize:
     Challenge:
     10:
     0.891,1.000,0.835,0.180,0.988:
0000
0000
0000
0000
,
0000
0000
0000
0000
0000
0000
0000
0110
,
1001
0000
0000
0000
0000
0000
0000
0011
,
1100
0000
1000
0100
0010
0001
1000
0000
0001
0010
0100
1000
0100
0000
0110
0000
,
1001
0000
1000
0010
0100
0001
1000
0000
1000
0010
0100
0001
0010
0000
1001
0000
,
1100
0000
0001
0010
0001
0100
0010
0000
1000
0010
0100
0001
0010
0000
0100
0000
,
1000
0000
0010
0100
0001
0100
0010
0000
0010
1000
0001
0010
0100
0000
1000
0000
,
2200
0000
3300
0000
1001
0110
1100
0011
,
1001
0000
1000
0010
0100
0001
0010
0000
0110
0000
1000
0010
0100
0000
0011
0000
,
1100
0000
1000
0010
0100
0001
0010
0001
0010
0100
1000
0100
0010
0001
0010
0000
,
0011
0000
0001
0010
0100
1000
0100
0000
0011
0000
0010
0001
0010
0000
0110
0000
,
1100
0000
1000
0001
0010
0100
1000
0000
1100
0000
0010
0001
0010
0000
0011
0000
,
1001
0000
1000
0001
1000
0010
1000
0000
0110
0000
1000
0001
0010
0000
0011
0000
,
1001
0000
1000
0010
0100
0001
0010
0000
1000
0010
1000
0001
1000
0100
1000
0000
,
1100
0000
0001
0010
0100
1000
0100
0000
1100
0000
1000
0100
1000
0000
1100
0000
,
0011
0000
0001
0010
0001
0100
0010
0000
1001
0000
0001
0010
0100
1000
0100
0000
,
1000
0100
0000
0100
1000
0000
1000
0010
0000
0100
0001
0000
0001
0000
1010
0000
,
1000
0001
0000
0001
0000
0000
0011
0000
0001
1000
0000
0000
1000
0001
0000
0000
,
1000
0010
0000
0100
0001
0000
0001
0010
0000
0100
1000
0000
1000
0000
1100
0000
,
2002
0000
0000
0000
0000
3003
0000
0010
0100
0000
1001
0000
1000
0010
0000
0000
,
1000
0010
0000
1000
0001
0000
1000
0100
0000
1000
0010
0000
1100
0000
0110
0000
,
1000
0010
0000
1010
0000
0000
0100
0000
0001
0010
0000
0000
0011
0000
0000
0000
,
1000
0010
0000
0001
0100
0000
0001
0010
0000
0001
1000
0000
1001
0000
0110
0000
,
2002
0000
0000
0000
0000
0000
0000
3003
0000
0000
0001
0001
0000
0000
0110
0000
,
0100
1000
0000
1000
0100
0000
0010
0001
0000
0010
0100
0000
1100
0000
0110
0000
,
0001
0010
0000
0110
0000
0000
1000
0000
0100
0010
0000
0000
1001
0000
0110
0000
,
1000
0100
0000
0100
0001
0000
0001
0100
0000
0100
1000
0000
1100
0000
0110
0000
,
0022
0000
0000
0000
0000
0000
0033
1000
0010
0000
0100
0000
0001
0010
0000
0000
,
1000
0010
0000
0010
0001
0000
0001
0010
0000
0010
1000
0000
1010
0000
0110
0000
,
0100
0010
0000
0110
0000
0000
1000
0000
0100
0001
0000
0000
0101
0000
1100
0000
,
1000
0010
0000
0100
0000
0001
0000
0000
1000
0010
0100
0000
0001
0010
0100
0000
,
2200
0000
0000
0000
0000
3300
0010
0001
0000
0001
0010
0000
0011
0000
0000
0000
,
0002
0000
0000
0000
0003
0000
1000
0000
0100
0000
0010
0000
0100
0000
1000
0000
0001
0100
0010
1000
0100
0000
0010
0000
0001
0000
0100
0000
0010
0000
0100
0000
,
0001
0100
0010
0100
0001
0000
1000
0000
0100
0000
0010
0000
0100
0000
1000
0000
0001
0100
0001
0100
0001
0000
0100
0000
0010
0000
0000
1000
0000
0000
0010
0000
,
1000
0001
0100
0010
0100
0000
0001
0000
0100
0000
0010
0000
0100
0000
0001
0000
1000
0001
1000
0001
1000
0000
0100
0000
0010
0000
1000
0000
0010
0000
0100
0000
,
1000
0001
0100
0001
0100
0000
0010
0000
1000
0000
0100
0000
0010
0000
0100
0000
1000
0100
0010
0001
0010
0000
0100
0000
1000
0000
0000
0100
0000
0000
1000
0000
,
1001
0000
1000
0001
1000
0000
1000
0010
0100
0000
0001
0100
0010
0000
1000
0010
,
0100
0001
0100
0010
1000
0000
1100
0000
0001
0010
0100
0000
1000
0100
0010
0000
,
0001
1000
0001
1000
0010
0100
0001
0000
1100
0000
0001
0010
0001
0000
1000
0010
,
0100
0000
0001
0010
0001
0000
0010
0100
1000
0100
0010
0001
1000
0000
1100
0000
,
1000
0100
0010
0000
1000
0010
0100
0000
0001
0010
0100
1000
0010
0100
0001
0000
,
0101
0000
0010
0001
0000
0001
0010
0000
1001
0000
0010
0100
0000
0001
0100
0000
,
1100
0000
0010
1000
0100
0000
0100
1000
0100
0000
1000
0100
0010
0000
0001
0100
,
0001
1000
0001
0010
0001
0000
0100
0000
1010
0000
1000
0010
0000
1000
0100
0000
,
2200
0000
0010
0001
0000
0010
0001
0010
,
0000
0000
0000
0000
0000
0000
3300
0000
0001
0010
0000
0000
0110
0000
0000
0000
,
0202
0000
0010
1000
0000
0010
1000
0010
,
0303
0000
0000
0000
0000
0000
0000
0000
0010
0100
0000
0000
1100
0000
0000
0000
,
0010
0001
0010
0000
0100
0000
0010
0001
0010
0000
0110
0000
1001
0000
0110
0000
,
0000
0000
0000
0000
0000
0000
0000
0000
0001
1000
0000
0000
1001
0000
0000
0000
,
1000
0100
0000
0010
0001
0000
0001
0010
0000
0100
1000
0000
1100
0000
0110
0000
,
0202
0000
0303
0000
;

//---------------dance-single - Devil`ize----------------
#NOTES:
     dance-single:
     Devil`ize:
     Easy:
     2:
     0.281,0.440,0.232,0.116,0.000:
0000
0000
0000
0000
,
0000
0000
0000
0000
,
0000
0000
0000
0000
,
0000
0000
0000
0000
,
0001
0001
0001
0001
,
1000
1000
1000
1000
,
0010
0010
0010
0010
,
0100
0100
0100
0100
,
0110
0001
1000
0100
,
0010
0001
0100
0010
,
1100
0100
0001
0010
,
0100
1000
0001
0100
,
0101
1000
1000
0010
,
0100
0100
0202
0003
,
2320
0000
3232
0300
,
2203
3300
0022
0000
,
0033
1000
0000
0001
,
0000
1000
0000
0110
,
0000
1000
0000
0001
,
0000
0010
0000
0100
,
0000
0001
0000
1000
,
0000
0001
0000
1000
,
0000
0001
0100
0001
,
0100
0000
1000
0000
,
0010
0100
0010
0100
,
0010
0100
0010
0100
,
1000
0001
1000
0001
,
1000
0000
0001
0000
,
0100
0000
0010
0000
,
1000
0000
0100
0000
,
0010
0000
0101
0000
,
1010
0000
0101
0000
,
0110
1001
0001
0100
,
0010
0100
0010
1000
,
0001
0100
0010
0010
,
0100
1000
0001
1000
,
0110
1000
0001
0010
,
0100
1000
0001
0000
,
1000
0001
0100
0010
,
1000
0100
0010
0000
,
0101
1100
0011
1010
,
0100
0010
1000
0100
,
1000
0000
0001
0000
,
0010
0000
0100
0000
,
1000
0010
0100
0001
,
0010
0100
1000
1000
,
0001
0001
1000
1000
,
0001
0001
0100
0100
,
0010
0010
1000
1000
,
0001
0001
0110
1001
,
0110
1000
0001
1000
,
0002
0000
0000
0000
,
0003
0000
0000
0000
;

//---------------dance-single - Devil`ize----------------
#NOTES:
     dance-single:
     Devil`ize:
     Medium:
     5:
     0.302,0.410,0.095,0.063,0.000:
0000
0000
0000
0000
,
0000
0000
0000
0000
,
0000
0000
0000
0000
,
0000
0000
0000
0000
,
0010
0100
0010
0000
1000
0000
0001
0000
,
0001
0010
1000
0100
,
1000
0100
1000
0000
0001
0000
0100
0000
,
0010
0100
0010
0000
1000
0000
0001
0000
,
1000
0001
0100
0010
,
1000
0000
0100
0000
0010
0100
0010
0000
,
0001
0100
0010
1000
,
0100
0010
0100
0000
,
1000
0000
0001
0010
0100
0000
1000
0000
,
0001
0000
0100
0010
0100
0001
0100
0000
,
0001
0000
1000
0000
0100
0000
0010
0100
,
0010
0000
0100
1100
,
0001
0000
0010
1010
,
1000
0010
0000
0101
,
0010
0000
0010
1010
,
0001
0010
0000
0010
,
1000
0000
1000
0000
,
1000
0000
0010
0000
,
0100
0010
0100
0010
0100
0010
0100
0010
,
0100
0001
1000
0100
,
0010
0001
0100
0010
,
1000
0100
0010
0001
,
0010
0100
0010
0100
0010
0100
0010
0100
,
0010
0000
0010
0000
0100
0001
0100
0010
,
1000
0100
0010
0001
,
2002
0000
0000
0000
0000
0000
0000
3003
,
0220
0000
0000
0330
,
1000
0001
0010
0100
,
1000
0000
0001
0000
0100
0000
0010
0100
,
0110
0001
1000
0000
0100
0010
0100
1000
,
0001
0100
0010
0000
1000
0100
0010
0000
,
0001
0100
0010
0000
1000
0000
0001
0000
,
1001
0001
0100
0010
,
0000
0100
0100
0000
,
0001
0100
1000
0100
,
0001
0000
1000
0100
,
0001
0100
0000
0010
,
1000
0001
0100
0010
,
0000
1000
0010
0100
,
0000
0010
1000
0001
,
1000
0100
0000
0100
,
1000
0010
0000
1000
,
0001
0010
0000
0100
,
1000
0000
0001
0000
,
1000
0000
0000
0000
0001
0010
0001
0000
,
1000
0000
0001
0000
,
0010
0000
0000
0000
1000
0001
1000
0000
,
2002
0000
0000
3003
;

//---------------dance-single - Devil`ize----------------
#NOTES:
     dance-single:
     Devil`ize:
     Hard:
     8:
     0.560,0.620,0.158,0.264,0.359:
0000
0000
0000
0000
,
0000
0000
0000
0000
0000
0000
0000
1000
,
0100
0110
0000
0000
0000
0000
0000
0000
,
0100
0010
0001
0000
0100
1000
0100
0000
,
1001
0000
1000
0100
0010
0001
0010
0000
,
1000
0010
0100
0001
0010
0000
1000
0010
,
0100
0000
0001
0010
0100
0000
1000
0010
,
0001
0010
1000
0000
1000
0100
0010
0001
,
0011
0000
0010
0100
1000
0100
0010
0001
,
0000
0000
0100
1000
0100
0000
0100
0010
,
0100
0000
1000
0100
1000
0000
0001
0010
,
0001
0100
0001
1000
0001
0010
0100
1000
,
0100
0000
0001
0010
0100
0000
1000
0100
,
0010
0001
0010
0100
1000
0000
1000
0100
,
0011
0000
1000
0010
0100
0001
0100
0000
,
0001
0010
0100
0000
1000
0100
0010
0000
,
0001
0010
0000
0010
0001
0000
0001
1000
0000
1000
0001
0000
0010
0000
0100
0000
,
1000
0100
0000
0100
0000
0000
0010
0000
0001
0010
0000
0000
0022
0000
0000
0033
,
1000
0100
0000
0010
0001
0000
0001
0010
0000
0100
1000
0000
1000
0000
0100
0000
,
2200
0000
0000
0000
0000
3300
0000
1000
0100
0000
0010
0000
0001
0000
0000
0000
,
1000
0100
0000
0100
1000
0000
1000
0010
0000
1000
0010
0000
0100
0000
0001
0000
,
0010
0001
0000
0001
0000
0000
0010
0000
0100
0000
1000
0000
1000
0100
0000
0000
,
1000
0100
0000
0100
0010
0000
0010
0001
0000
0001
0010
0000
0100
0000
1000
0000
,
2200
0000
0000
0000
0000
0000
0000
0000
3300
0000
0010
0001
0000
0000
0000
0000
,
0010
0100
0000
0100
0010
0000
0010
1000
0000
1000
0010
0000
0100
0000
0001
0000
,
0010
0001
0000
0001
0000
0000
0001
0000
0100
0010
0000
0000
1000
0000
0000
0000
,
0010
0100
0000
0010
0100
0000
0001
0010
0000
0100
1000
0000
1000
0000
0100
0000
,
0020
0000
0000
0000
0000
0000
0030
0001
0010
0000
0100
0000
1000
0100
0000
0000
,
1000
0100
0000
0100
1000
0000
1000
0100
0000
0001
0100
0000
1000
0000
0100
0000
,
0100
0010
0000
0010
0000
0000
0001
0000
0001
0010
0000
0000
0100
0000
0000
0000
,
1000
0100
0000
0010
0000
0001
0000
0000
0010
0001
0010
0000
0100
1000
0100
0000
,
2000
0000
0000
0000
0000
3000
1000
0100
0000
0010
0000
0001
0010
0000
0100
0000
,
2000
0000
0000
0000
3200
0000
0000
0000
0310
0001
0010
0100
2000
0000
0000
0000
,
3020
0000
0000
0000
0230
0000
0000
0000
0301
0010
0100
1000
0100
0010
0001
0010
,
0200
0000
0000
0000
2300
0000
0000
0000
3200
0000
0000
0000
0320
0000
0000
0030
,
0001
0000
0001
0000
0010
0000
0001
0010
0000
0100
0000
1000
0100
0000
0010
0000
,
0001
0010
0100
0000
1000
0100
0010
0000
,
0001
0010
0100
1000
0100
0010
0011
0000
,
1000
0010
0100
0001
0010
0000
0001
0100
,
0010
0100
0001
0000
1000
0010
0100
0001
,
0100
0010
1010
0000
1000
0010
0100
0000
,
0001
0010
0100
0000
1000
0100
0010
0000
,
0001
0010
0100
1000
0100
0010
0110
0000
,
2200
0000
0000
0000
0000
0000
0000
3300
,
2000
0000
3100
0020
0000
0031
0010
0100
,
0000
0000
0000
0000
0000
0000
0000
0000
1000
0100
0000
0000
0011
0000
0000
0000
,
0002
0000
0103
0020
0000
1030
0001
0100
,
0000
0000
0000
0000
0000
0000
0000
0000
0010
0100
0000
0000
0110
0000
0000
0000
,
0200
0000
0000
0000
0310
0000
0200
0000
0000
0300
0010
0000
0100
0000
0001
0000
,
0000
0000
0000
0000
0000
0000
0000
0000
0001
0010
0000
0000
1001
0000
0000
0000
,
1000
0100
0000
0100
0010
0000
0010
0001
0000
0001
0010
0000
0100
0000
1000
0000
,
1100
0000
0000
0000
;
