#TITLE:Superfabulous;
#SUBTITLE:;
#ARTIST:BT;
#GENRE:Electrorock;
#TITLETRANSLIT:;
#SUBTITLETRANSLIT:;
#ARTISTTRANSLIT:;
#CREDIT:;
#BANNER:Superfabulous-bn.png;
#BACKGROUND:superfabulous-bg.jpg;
#LYRICSPATH:;
#CDTITLE:;
#MUSIC:superfabulous.ogg;
#OFFSET:0.000;
#SAMPLESTART:41.691;
#SAMPLELENGTH:12.000;
#SELECTABLE:YES;
#BPMS:0.000=136.000;
#STOPS:;
#BGCHANGES:;

//---------------dance-single - Renard----------------
#NOTES:
     dance-single:
     Renard:
     Hard:
     8:
     0.610,0.609,0.635,0.039,0.234:
0000
0000
0000
0000
,
0000
0000
0000
0000
,
0000
0000
0000
0000
,
0000
0000
0000
0000
,
0001
0000
1000
0100
1000
0000
0001
0100
0001
0000
1000
0000
0100
0000
0010
0000
,
0001
0010
1000
0010
0100
1000
0010
0100
,
0100
0000
0001
0100
0001
0000
1000
0100
1000
0000
0001
0000
1000
0000
0010
0000
,
0100
0000
0000
0001
0000
0000
0100
0000
0010
0000
1000
0010
1000
0000
0010
0000
,
0100
0100
0001
0001
0010
0010
0100
0100
,
1000
1010
0100
0101
,
0010
0000
0010
0000
0001
0000
0001
0000
0100
0010
0100
0000
0010
1000
0010
0000
,
1000
1100
0010
0011
,
0100
0010
0110
0000
0010
1000
1010
0000
,
0001
0100
0101
0000
1000
0100
1100
0000
,
1000
0010
0100
0001
0010
1000
0010
0100
,
1000
0000
0010
0000
0100
0000
0001
0000
1000
0001
1000
0001
1000
0001
1000
0000
,
1000
0010
0100
0000
0001
0010
0000
1000
,
0000
0010
0001
0100
1000
0100
0101
0000
,
0001
0100
1000
0000
0100
0001
0000
0010
,
0000
1000
0010
0000
1010
0000
0010
0100
,
1000
0010
0100
0001
0100
1000
0000
1100
,
0000
0100
0001
0010
1000
0010
0100
1000
,
0100
0001
0100
1000
0010
1000
0001
0010
,
0100
1000
0000
1001
0000
0000
0000
0000
,
0100
1000
1010
0000
0100
0001
0011
0000
,
0100
1000
1010
0000
0100
0001
0011
0000
,
1000
0000
1010
0000
0100
0001
0100
1000
,
0100
0001
0010
1000
0010
0100
1000
0000
,
1000
0000
1100
0000
0010
0001
0011
0000
,
0001
0000
0101
0000
0100
0010
0110
0000
,
0010
1010
1000
1100
,
1000
0100
0010
0001
0010
1000
0010
0000
,
0011
0000
0000
0110
0000
0000
1100
0000
0000
1001
0000
0000
1000
0000
0000
0001
,
0100
0000
0010
0000
0000
1010
0000
0000
0101
0000
0000
1001
0000
0000
1000
0000
,
0100
0000
1000
0000
0000
1010
0000
0000
0101
0000
0000
0011
0000
0000
1001
0000
,
0000
1010
0000
0000
0001
0000
0100
0001
0100
0000
0010
0000
1000
0000
0100
0000
,
1000
0000
0010
0000
0100
0000
0001
1000
0000
0001
0000
1000
0010
0000
0100
0001
,
0100
0000
0010
0000
1000
0000
0001
0100
0000
0001
0000
1000
0100
0000
1000
0001
,
0100
0000
0010
0000
1000
0000
0100
1000
0000
0001
0000
0010
0001
0000
0100
0000
,
0001
0000
1000
0000
0100
0000
1000
0001
0000
0100
0000
0001
1000
0000
0001
0000
,
1001
0000
0000
0000
1010
0000
0000
0000
0100
0001
0100
0000
0001
0000
0010
0000
,
1000
0010
0100
0000
1100
1000
1010
0000
,
0101
0000
0110
0000
1100
0000
1000
0100
,
0001
0100
0010
0000
1010
0000
1001
0000
,
0100
0000
0001
0000
1000
0100
1000
0000
0001
0000
0100
0000
0001
0000
1000
0010
,
1000
0010
0100
0000
0001
0000
0100
0000
0010
0000
1000
0000
0100
0000
0000
0000
,
0011
0000
0000
0011
0000
0000
0110
0000
0000
0110
0000
0000
1100
0000
0000
1100
,
0000
0000
1010
0000
0000
0101
0000
0000
0002
0000
1000
0000
1003
0000
0000
0000
,
1100
1000
1010
0000
0101
0001
0011
0000
,
1001
1000
1010
0000
1001
0001
0011
0000
,
1010
1001
0101
0012
,
1003
0010
0001
0010
1000
0010
0100
1000
,
0010
0000
0100
0001
0100
0000
0010
0000
1000
0000
0100
0000
1000
0000
0010
0000
,
0100
0000
0001
0100
0001
0000
1000
0000
0100
0000
1000
0000
0010
0000
0100
0001
,
0100
0000
0010
1000
0010
0000
0100
0000
0001
0000
1000
0000
0100
0000
0010
0001
,
0010
0000
0100
1000
0100
0000
1000
0000
0010
0000
0100
0000
0001
0000
0000
0000
,
1002
0100
0010
0020
0000
0033
0000
0000
;

//---------------dance-single - Renard----------------
#NOTES:
     dance-single:
     Renard:
     Medium:
     6:
     0.391,0.465,0.098,0.010,0.000:
0000
0000
0000
0000
,
0000
0000
0000
0000
,
1000
0000
0001
0000
,
0100
0010
1000
0010
,
0100
0000
0100
0100
0100
0000
0100
0100
,
0100
0000
0100
0100
0100
0000
0100
0100
,
0010
0000
0010
0010
0010
0000
0010
0010
,
0010
0010
1001
0000
,
1000
0100
1000
0100
1000
0100
1000
0100
,
1000
1000
1000
0000
,
0001
0010
0001
0010
0001
0001
1000
1000
,
0000
0001
1000
0001
,
1000
0001
1000
0001
1000
0001
1000
0001
,
1000
0001
1000
0001
1000
0001
1000
0001
,
1000
1000
0001
0001
,
1000
0000
0001
0000
1000
0001
0100
0000
,
0010
0000
0010
0000
1000
0001
0000
0100
,
0000
0001
1000
0000
0000
0000
0000
0000
,
0000
0000
0100
0010
0001
1000
0000
0001
,
0000
0100
0000
0010
0000
0000
0000
0000
,
0000
0000
1000
0000
0010
0100
0001
1000
,
0000
0100
0010
0000
0001
0000
0010
0000
,
0100
0000
1000
0010
0100
0001
0100
0001
,
0000
1000
0000
0100
0000
0010
0001
0000
,
1001
0000
0110
0000
,
1010
0000
0101
0000
,
1000
0001
0100
0010
,
1000
1000
1000
0000
0010
0010
0010
0000
,
1000
0100
0010
0001
,
0010
0100
1000
0100
,
0010
0001
0010
0100
,
1000
1000
1000
0000
0010
0010
0010
0000
,
0100
0000
0001
0000
1000
0000
0001
1000
,
0100
0010
0000
0010
0000
0010
0000
0010
,
0001
0100
0001
1000
,
0100
0000
1000
0000
0010
0100
0001
0000
,
1000
0001
1000
0001
1000
0001
1000
0001
,
0100
0010
0100
0010
0100
0010
0100
0010
,
1000
0001
1000
0001
1000
0001
1000
0001
,
1000
0001
1000
0001
0100
0010
0010
0000
,
1000
0000
1000
0000
1000
1000
1000
1000
,
1000
0000
1000
0000
0010
0010
0000
0010
,
0000
0100
0001
0010
,
0001
0000
1000
1000
0001
0000
0001
0001
,
0000
0000
0100
0000
0010
1000
0010
0000
,
0100
0000
0001
1000
0001
1000
0100
0010
,
0002
0000
0000
0000
,
0000
0000
0000
0000
1003
0001
0001
0000
,
1000
1001
0001
1001
,
0100
0110
0010
0110
,
1000
0010
0100
0001
,
0010
0010
0010
0000
0001
0001
0001
0000
,
0100
0010
1000
0010
0000
0100
0001
1000
,
0000
0100
0010
0001
0000
1000
0001
0100
,
0001
0000
0001
0000
0001
1000
1000
1000
,
0001
0001
1000
0000
0001
0001
1000
0000
,
0110
0000
0000
0000
;

//---------------dance-single - Renard----------------
#NOTES:
     dance-single:
     Renard:
     Easy:
     2:
     0.272,0.274,0.137,0.010,0.000: // measure 1
0000
0000
0000
0000
,  // measure 2
0000
0000
0000
0000
,  // measure 3
1000
0000
0010
0000
,  // measure 4
0000
0000
0100
0001
,  // measure 5
1000
1000
1000
1000
,  // measure 6
0001
0001
0001
0100
,  // measure 7
0001
0001
0001
0001
,  // measure 8
1000
1000
0010
0000
,  // measure 9
1000
0001
0100
0010
,  // measure 10
1000
0000
0001
0001
,  // measure 11
1000
0100
0010
0001
,  // measure 12
0100
0000
0110
0010
,  // measure 13
1000
0010
0110
0000
,  // measure 14
0001
0100
0110
0000
,  // measure 15
1010
0000
0101
0000
,  // measure 16
1000
0100
0020
0000
,  // measure 17
0031
0001
0001
0000
,  // measure 18
0100
0000
0100
0000
,  // measure 19
0010
0010
0010
0000
,  // measure 20
1000
0000
1000
0000
,  // measure 21
0100
0100
0100
0000
,  // measure 22
0010
0000
0010
0000
,  // measure 23
0001
1000
0001
0000
,  // measure 24
1000
0001
1000
0000
,  // measure 25
0001
0100
0010
0100
,  // measure 26
0001
0100
0010
0100
,  // measure 27
0001
0100
0010
0100
,  // measure 28
0001
0100
0001
0000
,  // measure 29
1000
0100
0010
0100
,  // measure 30
1000
0100
0010
0100
,  // measure 31
1000
0100
0010
0100
,  // measure 32
1000
0001
1001
0000
,  // measure 33
1000
0000
1000
0001
,  // measure 34
0100
0000
1001
0000
,  // measure 35
0001
0000
1000
0100
,  // measure 36
1000
0000
1001
0000
,  // measure 37
0001
0100
0010
0010
,  // measure 38
1000
0010
0100
0100
,  // measure 39
0001
0001
1000
1000
,  // measure 40
0001
1000
0110
0000
,  // measure 41
1001
0000
1010
0000
,  // measure 42
0101
1000
0100
0010
,  // measure 43
0001
0100
1000
0010
,  // measure 44
0001
0100
1000
0010
,  // measure 45
0001
0000
0100
1000
,  // measure 46
0010
0000
0001
0100
,  // measure 47
1000
0010
0001
0100
,  // measure 48
1000
0001
1001
1000
,  // measure 49
0010
0100
0100
0100
,  // measure 50
0001
0100
0100
0100
,  // measure 51
0010
1000
0100
0010
,  // measure 52
0001
0010
0001
0010
,  // measure 53
0100
0100
1000
0010
,  // measure 54
0100
0100
0001
0010
,  // measure 55
0001
0001
1000
1000
,  // measure 56
0001
0100
0010
0000
,  // measure 57
1001
0000
0000
0000
;

//---------------dance-single - BlueChaos----------------
#NOTES:
     dance-single:
     BlueChaos:
     Challenge:
     9:
     0.763,0.826,0.703,0.264,0.493:
0000
0000
0000
0000
,
0000
0000
0000
0000
,
1000
0001
1000
0001
0000
0000
0000
0000
0000
0000
0000
0000
1000
0100
1000
0100
0000
0000
1000
0000
0000
0010
0000
0000
,
0100
0001
0010
0100
,
1000
0000
0001
0100
0010
0000
0100
0010
1000
0000
0100
0010
0001
0000
0010
0001
,
0100
0000
0001
0100
0010
0000
0100
0001
0010
0000
0001
0010
0100
0000
1100
0000
,
1000
0000
0001
0100
0000
0000
0010
0000
1000
0000
0001
0010
0000
0000
0001
0000
,
0101
0000
0000
1001
0000
0000
1000
0100
0010
0000
0001
0100
0000
0010
1000
0100
,
0010
0000
0001
0000
0101
0000
0001
0100
0010
0000
1000
0000
1001
0000
0000
0000
,
1001
0000
0010
0000
0101
0000
1000
0100
0010
0000
0100
0000
1010
0000
0000
0000
,
1010
0000
0100
0000
1001
0000
0001
0000
1000
0001
1000
0000
0001
0100
0000
0001
,
1000
0100
1000
0010
0100
0000
0100
0010
1000
0100
0010
0000
1001
0000
0000
0000
,
1100
0000
0100
0000
1000
0100
0010
0001
0100
0000
0001
0100
0010
0000
0100
0001
,
0100
0001
1000
0100
0010
0000
0000
0000
0001
0000
0100
0000
0010
0000
0100
0000
,
0001
0100
0010
0000
0120
0000
1030
0000
2010
0000
3001
0000
0012
0000
0103
0000
,
0210
0000
0301
0000
1001
0000
0000
0000
0001
0100
0010
0100
0001
0010
0100
1000
,
0001
0000
1100
0000
0010
0000
0110
0100
,
0000
0100
0101
0000
1001
1000
0100
1000
,
0010
0000
0100
0010
1000
0100
1000
1001
,
0000
0101
0000
1100
0000
1000
1001
0001
,
0200
0000
0301
0011
0010
0000
0001
1000
,
0100
0000
0010
0000
0011
0000
0000
0000
0001
1000
0001
1000
0001
1000
0001
1000
,
0010
0000
1000
1010
0010
0000
1000
1001
,
0000
0000
0001
0000
0022
0000
0000
0033
0000
0000
1000
0000
0020
0000
0000
0000
,
1030
0100
0001
0100
1000
0100
0010
0001
,
0100
1000
0100
0001
1000
0010
0100
0001
,
0202
0000
0000
0000
0010
0000
0000
0000
1000
0000
0303
0000
0001
0000
0100
0001
,
1000
0001
0011
0000
1001
0100
0010
0000
,
0100
0000
0001
0010
0001
0000
0001
0010
0001
0000
0100
0000
0010
0000
1000
0100
,
1000
0000
1000
0010
1000
0000
0010
0000
0100
0000
0001
1000
0001
0010
0100
0000
,
2200
0000
0010
0000
0001
3300
1000
0100
,
0010
0001
0100
0000
0110
0000
0000
0000
0010
0000
0100
0000
2002
0000
3003
0000
,
1000
0000
0010
0100
0000
0100
0001
0000
0001
1000
0000
1000
0100
0000
1000
0000
,
1001
0000
0101
0000
0000
0110
0000
0000
1010
0000
0000
1001
0000
0000
0011
0000
,
1001
0000
1100
0000
0000
1010
0000
0000
1001
0000
0000
0011
0000
0000
1100
0000
,
0100
0000
0000
0000
0000
0000
0010
0000
0000
0000
0000
0000
0011
0000
0000
0000
0000
0000
0000
0000
0000
0101
0000
0000
0000
0000
0000
0000
0000
0000
1010
0000
0000
0000
0000
0000
1000
0000
0000
0000
0010
0000
0000
0000
0100
0000
0000
0000
,
0001
0000
1000
0000
0010
0000
1000
0001
0000
1000
0001
0000
1000
0010
0100
0000
,
0001
0000
0010
0000
0100
0000
1000
0010
0000
1000
0010
0000
0100
0001
0010
0000
,
0001
0000
0011
0000
0000
0101
0000
0000
1001
0000
0000
1100
0000
0000
0110
0000
,
0010
0000
0000
0001
0000
0000
0100
0000
0000
0001
0000
0000
1000
0000
0001
0000
0100
0000
0010
0000
1000
0000
0100
0000
,
0010
0001
0100
0001
1000
0010
0100
0000
0010
1000
0100
0010
0001
1000
0010
0000
,
1000
0000
0000
0100
0000
0000
0010
0000
0000
0100
0000
0000
1000
0000
0001
0000
1000
0000
0001
0000
0000
0000
0000
0000
1000
0000
0000
0000
0000
0000
0010
0000
0000
0000
0000
0000
1000
0000
0000
0000
0000
0000
0100
0000
0000
0000
0000
0000
,
2000
0000
3001
0100
1000
0100
0101
0000
,
0011
0010
1000
0010
0011
0001
0101
0000
,
0011
0001
0100
1000
0100
0010
0110
0000
,
1010
1000
0001
0010
1000
0010
0011
0000
,
0002
0000
0000
0200
0003
0000
2000
0300
0000
0200
3000
0000
0002
0300
0000
2000
,
0003
0000
0200
3000
0000
0020
0300
0000
0031
0000
0100
0000
0101
0000
0000
0000
,
0001
0100
0010
0000
1000
0000
0001
0100
0000
0010
1000
0000
0001
0000
0010
0000
,
0001
1000
0100
0000
1000
0000
0100
0010
0000
0100
1000
0000
0100
0000
0010
0000
,
0001
0100
0010
0000
1001
0000
0100
0000
0001
1000
0100
0000
1100
0000
1000
0000
,
0001
0000
0100
0000
0110
0000
0000
0000
0010
0100
0010
0000
0100
0000
1001
0000
,
0001
0100
0001
0000
1000
0000
0001
0100
0001
0000
1000
0000
0001
0000
1000
0000
,
0100
1000
0100
0000
0010
0000
0100
1000
0100
0000
1000
0000
0001
0000
0100
0001
,
0010
0001
1001
1000
0100
0010
0100
1000
,
0001
1000
2002
0000
0000
0000
0000
3003
,
2001
0001
0002
3003
0000
0000
0000
0000
;
