#TITLE:Sunrise;
#SUBTITLE:;
#ARTIST:MGD-Crew feat. Kitsune²;
#GENRE:Popcore;
#TITLETRANSLIT:;
#SUBTITLETRANSLIT:;
#ARTISTTRANSLIT:;
#CREDIT:;
#BANNER:sunrise.png;
#BACKGROUND:sunrise-bg.png;
#LYRICSPATH:;
#CDTITLE:;
#MUSIC:sunrise.ogg;
#OFFSET:0.000;
#SAMPLESTART:53.997;
#SAMPLELENGTH:12.000;
#SELECTABLE:YES;
#BPMS:0.000=182.231;
#STOPS:;
#BGCHANGES:;

//---------------dance-single - Renard----------------
#NOTES:
     dance-single:
     Renard:
     Hard:
     8:
     0.645,0.697,0.282,0.000,0.000:
0000
0000
0000
0000
,
0000
0000
0000
0000
,
0000
0000
0000
0000
,
0000
0000
0000
0000
,
0001
0010
0100
1000
0001
0010
0100
1000
,
0001
0100
0010
1000
0001
0100
0010
1000
,
0100
0000
0011
0000
0001
0010
0100
1000
,
0000
1010
0000
0100
0000
0001
0100
0000
,
0010
1000
0100
0000
0100
1000
0010
0000
,
0010
0100
0001
0010
0001
0100
0010
0000
,
1000
0000
0100
1000
0010
0000
0100
0001
,
0010
0000
0001
0100
0010
1000
0100
0000
,
0100
1000
0010
0000
0010
0100
0001
0000
,
0001
1000
0100
0010
0001
1000
0001
0000
,
0001
1000
0010
0000
0010
1000
0001
0000
,
0001
0100
0001
1000
0100
0000
0011
0000
,
1100
0000
0100
1000
0010
0000
0010
0100
,
0001
0000
0001
0100
0010
1000
0100
0000
,
0100
0000
0100
1000
0010
0000
0010
0100
,
0001
0100
1010
0101
,
1000
0001
0100
0000
0010
1000
0100
0000
,
0010
0001
0100
0000
0001
1000
0001
0000
,
0100
0010
0100
0010
0100
0010
0100
0010
,
1000
0001
0100
0001
1000
0100
1000
0000
,
1001
0000
0000
0000
,
1000
0000
0010
0100
0001
0100
0010
1000
,
0100
0000
0010
0001
0010
0100
1000
0010
,
0100
0000
0001
0100
0010
1000
0001
0000
,
0001
0001
0010
0010
0100
0100
1000
1000
,
0010
0000
0100
0001
0100
0010
1000
0100
,
0010
0000
0010
0001
0010
0100
1000
0000
,
1001
1000
1010
0010
0110
0100
0101
0001
,
0001
0100
0010
1000
0010
0100
0001
0000
,
1001
0000
1000
0100
0010
0001
0010
0000
,
0100
1000
0010
0100
0001
0000
1001
0000
,
1000
0100
0010
0001
0010
0100
1000
0000
,
0010
1000
1001
0000
0010
1000
1001
0000
,
1000
0010
0100
0001
0010
0100
1000
0000
,
0100
1000
0100
1000
0010
0000
0010
0000
,
1000
0010
0100
0001
0010
0001
1000
0000
,
0010
0001
1001
0000
0010
0001
1001
0000
,
1000
0010
0100
0000
0001
0100
0010
0000
,
1000
0100
0010
0001
0010
0100
1000
0000
,
0001
0010
0100
0000
0100
1000
0010
0000
,
0010
0100
0001
1000
0010
0100
0001
0000
,
0001
1000
0100
0000
0100
1000
0010
0000
,
0010
0100
0001
1000
0100
0010
0001
0000
,
0001
1000
0010
0000
0010
1000
0100
0000
,
0100
1000
0001
1000
0010
1000
0100
1000
,
0100
1000
0010
0100
0001
0010
0001
0000
,
0001
1000
0100
0010
0001
1000
0100
0000
,
0100
1000
0010
0100
0001
0100
0010
0000
,
0010
0100
0001
1000
0100
1000
0001
0001
,
1000
0010
0100
0001
1000
0100
1000
0000
,
1000
0010
0100
0001
0010
0100
1000
1000
,
0010
0100
0001
0100
0010
0000
0010
1000
,
0001
0100
0010
0000
0010
1000
0001
0000
,
1001
0000
1000
0000
0010
0000
0100
0001
,
0010
0100
1000
0000
,
1010
0000
0100
0000
0001
0000
0010
0001
,
0100
0010
1000
0000
,
1100
0000
0010
0000
0001
0000
0100
0010
,
1000
0100
0010
0000
,
1100
0000
1000
0000
0010
0000
0100
0001
,
0100
0010
1001
0000
,
1010
0000
0100
0001
0010
0000
0001
0100
,
0010
1000
1100
0010
,
0101
0000
0100
0010
1000
0000
0100
0010
,
0001
0000
0010
0000
1100
0000
1000
0010
,
0100
0000
0001
0100
0010
0000
1000
0100
,
0010
0000
0001
0000
0110
0000
0100
1000
,
0010
0000
0010
0100
0001
0000
0001
0100
,
0010
1000
0100
0010
0001
0000
1000
0001
,
1001
0000
0000
0000
;

//---------------dance-single - Renard----------------
#NOTES:
     dance-single:
     Renard:
     Medium:
     7:
     0.444,0.514,0.221,0.091,0.000:
0000
0000
0000
0000
,
0000
0000
0000
0000
,
0000
0000
0000
0000
,
0000
0000
0000
0000
,
0001
0000
1000
0001
1000
0000
0001
1000
,
0001
0000
0001
0010
0100
0000
0100
1000
,
0001
0000
1000
0000
0001
1000
0001
1000
,
0000
1001
0000
1001
0000
1001
0000
0000
,
1000
0000
0100
0010
0001
0000
0000
0000
,
1000
0000
0001
0010
0100
0000
0000
0000
,
1000
0000
0010
0100
0001
0000
0000
0000
,
0100
0000
0010
1000
0010
0000
0000
0000
,
1000
0000
0000
1000
0001
0000
0000
0001
,
1000
0000
0001
1000
0001
0000
0000
0000
,
1000
0000
0000
1000
0001
0000
0000
0001
,
1000
0001
1000
0001
1000
0000
1001
0000
,
1001
0000
0000
1000
0010
0000
0000
0010
,
0100
0000
0100
0001
0010
0000
0100
0000
,
1000
0000
0000
1000
0001
0000
0000
0001
,
1000
0001
1000
0000
1001
0000
0000
0000
,
0001
0000
0000
0001
0010
0000
0000
0010
,
0100
0000
0100
1000
0000
0001
1000
0000
,
1001
0000
0000
0001
1000
0000
0001
1000
,
0001
0000
0000
1000
0001
0000
1000
0001
,
1001
0000
0000
0000
,
1000
0000
0001
0100
0000
0010
0000
1000
,
0100
0000
0010
0001
0000
0010
0000
0100
,
1000
0000
0010
0100
0000
0001
0000
1000
,
0001
1000
0001
1000
0001
1000
0001
1000
,
0001
0000
0010
0100
0000
1000
0000
0001
,
0010
0000
0100
1000
0000
0001
0010
0100
,
1000
0000
0001
0010
0000
0100
0000
1000
,
0000
0001
0000
0010
0100
1000
0001
0000
,
1000
0001
1000
0001
1000
0001
1000
0000
,
0001
1000
0001
1000
,
0001
1000
0001
1000
0001
1000
0001
0000
,
1000
1001
0001
1001
,
0001
0100
0010
1000
,
0100
0010
0011
0011
,
0100
1000
0010
0100
,
0001
1000
0001
0000
1000
0001
1000
0000
,
0001
0000
0000
0100
0010
0000
0000
1000
,
0010
0000
0000
0100
0001
0000
1000
0000
,
0100
0000
0000
0110
0001
0000
0000
0010
,
0100
0000
0000
0100
1000
0000
0010
0100
,
0001
0000
0000
1000
0001
0000
0000
1000
,
0100
0000
0000
1000
0010
0000
0000
1000
,
0001
0000
0100
0000
0001
0000
0000
0010
,
0100
0000
1000
0000
0010
0000
0000
1000
,
0001
0100
0001
1000
,
0100
0010
0001
0010
,
0100
0000
0000
0100
1000
0000
0000
1000
,
0001
0100
0010
1000
,
0100
0010
0001
0010
,
0100
1000
0010
0100
,
0001
0000
0000
0001
1000
0000
0000
0001
,
1000
0000
0000
0001
1000
0000
0001
0000
,
0200
0000
0000
0000
,
0320
0000
0000
0000
,
2030
0000
0000
0000
,
3002
0000
0000
0000
,
0203
0000
0000
0000
,
0320
0000
0000
0000
,
2030
0000
0000
0000
,
3200
0000
0320
0000
,
0031
0000
0000
0000
1000
0000
0001
1000
,
0001
0100
0110
0000
,
1000
0000
0000
0000
0001
0000
1000
0100
,
1000
0010
0101
0000
,
1001
0000
0000
0000
0010
0000
1000
0001
,
1000
0001
1001
0000
,
1010
0100
0011
0100
,
1001
0000
1010
0000
,
1001
0000
0000
0000
;

//---------------dance-single - Renard----------------
#NOTES:
     dance-single:
     Renard:
     Easy:
     4:
     0.300,0.330,0.010,0.050,0.000: // measure 1
0000
0000
0000
0000
,  // measure 2
0000
0000
0000
0000
,  // measure 3
0000
0000
0000
0000
,  // measure 4
0000
0000
0000
0000
,  // measure 5
0001
1000
0001
0001
,  // measure 6
0001
0001
0010
0100
,  // measure 7
0001
1000
0001
0001
,  // measure 8
1000
0001
0001
0001
,  // measure 9
1000
0100
0001
0000
,  // measure 10
1000
0001
0010
0000
,  // measure 11
1000
0010
0001
0000
,  // measure 12
0100
0010
0010
0000
,  // measure 13
1000
0000
0001
0000
,  // measure 14
0001
0001
0001
0000
,  // measure 15
1000
0000
0001
0000
,  // measure 16
0001
0001
0001
0001
,  // measure 17
0001
0000
0010
0000
,  // measure 18
0010
0100
0001
0100
,  // measure 19
1000
0000
0001
0000
,  // measure 20
0001
0001
0001
0000
,  // measure 21
0001
0000
0001
0000
,  // measure 22
0010
0100
1000
0001
,  // measure 23
0001
0000
0001
0001
,  // measure 24
0001
0000
0001
1000
,  // measure 25
0001
0000
0000
0000
,  // measure 26
1000
0001
0100
0010
,  // measure 27
0100
0010
0001
0010
,  // measure 28
0100
0010
0100
0001
,  // measure 29
0001
0001
0001
0001
,  // measure 30
0001
0010
0100
1000
,  // measure 31
0001
0100
1000
0001
,  // measure 32
0100
0001
0010
0100
,  // measure 33
1000
0001
0010
0001
,  // measure 34
1000
0001
0001
0001
,  // measure 35
0001
1000
0001
1000
,  // measure 36
0001
0001
0001
0001
,  // measure 37
1000
0001
0001
0001
,  // measure 38
0001
0100
0010
1000
,  // measure 39
0100
0010
0001
0001
,  // measure 40
0100
1000
0010
0100
,  // measure 41
0001
0001
1000
0001
,  // measure 42
0001
0000
0010
0000
,  // measure 43
0010
0000
0001
1000
,  // measure 44
0100
0000
0001
0000
,  // measure 45
0010
0000
0100
0010
,  // measure 46
0001
0000
0001
0000
,  // measure 47
0100
0000
0010
0000
,  // measure 48
0001
0100
0001
0000
,  // measure 49
0010
1000
0010
0000
,  // measure 50
0001
0100
0001
1000
,  // measure 51
0100
0010
0001
0010
,  // measure 52
0100
0000
0100
0000
,  // measure 53
0001
0100
0010
1000
,  // measure 54
0100
0010
0001
0010
,  // measure 55
0100
1000
0010
0100
,  // measure 56
0001
0000
0001
0000
,  // measure 57
0001
0000
0001
0001
,  // measure 58
0200
0000
0000
0000
,  // measure 59
0300
0000
0000
0000
,  // measure 60
2000
0000
0000
0000
,  // measure 61
3000
0000
0000
0000
,  // measure 62
0200
0000
0000
0000
,  // measure 63
0300
0000
0000
0000
,  // measure 64
2000
0000
0000
0000
,  // measure 65
3000
0000
0020
0000
,  // measure 66
0030
0000
1000
0001
,  // measure 67
0001
0100
0010
0000
,  // measure 68
1000
0000
0001
1000
,  // measure 69
0100
0010
0001
0000
,  // measure 70
0001
0000
0010
1000
,  // measure 71
0001
0001
0001
0000
,  // measure 72
0010
0100
0001
0100
,  // measure 73
0001
0000
0010
0000
,  // measure 74
1001
0000
0000
0000
;
