#TITLE:Sugarkill;
#SUBTITLE:;
#ARTIST:Lollipop;
#GENRE:Synthpop;
#TITLETRANSLIT:;
#SUBTITLETRANSLIT:;
#ARTISTTRANSLIT:;
#CREDIT:;
#BANNER:Sugarkill.png;
#BACKGROUND:Sugarkill-bg.png;
#LYRICSPATH:;
#CDTITLE:;
#MUSIC:sugarkill.mp3;
#OFFSET:-0.040;
#SAMPLESTART:18.710;
#SAMPLELENGTH:12.000;
#SELECTABLE:YES;
#BPMS:0.000=152.090;
#STOPS:;
#BGCHANGES:;

//---------------dance-single - BlueChaos----------------
#NOTES:
     dance-single:
     BlueChaos:
     Challenge:
     11:
     0.872,0.950,0.502,0.423,0.738:
0000
0000
0000
0000
,
0000
0000
0000
0000
,
0000
0000
0000
0000
,
0000
0000
0000
0000
,
1000
0001
1000
0001
1000
0001
1000
0000
0001
0100
0001
0100
0001
0100
0001
0000
,
1000
0010
1000
0010
1000
0000
0010
1000
0010
1000
0010
1000
0100
0010
0001
0000
,
1000
0010
0100
0001
0010
0100
1000
0000
0001
0100
0010
1000
0100
0010
0001
0000
,
0010
0100
1000
0010
0100
0010
1000
0100
0010
0001
1000
0100
0010
0001
1000
0000
,
1001
0000
0001
0000
1000
0001
0000
0001
0100
0000
0110
0000
1001
0000
0001
0000
,
1000
0000
0100
0000
0010
0001
0000
0001
0010
0000
0001
0000
0101
0000
0100
0000
,
0010
1000
0010
0000
1000
0001
1000
0000
1001
0000
1010
0000
1100
0000
0110
0000
,
0010
0001
0010
0000
0001
1000
0001
0000
1010
0000
1001
0000
0101
0000
0110
0000
,
1001
0000
0110
0000
1100
0000
0000
0010
,
0001
0100
0010
2000
0000
0001
3001
0000
,
1000
0001
0000
0001
0100
0000
0100
1000
0000
1000
0100
0001
0100
0000
0001
0000
,
0100
0001
0010
0001
0010
0100
0010
0100
1000
0100
1000
0010
1000
0000
0000
0000
,
0002
0000
0200
0003
2000
0300
0000
3100
,
0001
0020
1000
1000
0000
0031
0100
0010
,
1010
0000
0000
0000
1000
0100
1000
0100
0010
0001
0010
0001
0010
0100
1000
0100
,
1000
0010
1000
0010
0100
0010
0100
0010
0100
0001
0100
0001
0100
0010
1000
0001
,
0200
0000
1000
0000
0010
0000
0000
0301
,
0010
0001
1000
1010
0000
1010
1000
0001
,
0010
0001
0010
0100
1000
0000
0100
0000
1000
0100
0010
0001
0010
0000
0001
0000
,
0010
0001
0100
0010
1000
0000
0010
0000
1000
0010
0100
0010
1000
0001
1000
0001
,
2000
0000
0200
0000
0001
0000
3300
0001
,
0010
1000
0010
0002
0000
0103
1000
0100
,
0001
0010
0100
0010
0001
0000
0100
0000
0010
1000
0100
0010
0001
0000
1000
0000
,
0010
1000
0100
1000
0010
0000
0100
0000
0010
0100
0001
0010
0001
0010
0100
1000
,
2002
0000
0000
3003
2200
0000
0000
3300
,
0022
0000
0000
0033
0220
0000
0000
0330
,
2002
0000
0000
3003
2020
0000
0000
3030
,
0202
0000
0000
0303
0010
0100
1001
0000
,
1000
0000
0001
0000
0100
0000
0010
1000
0001
1000
0000
1000
0100
0000
1001
0000
,
1000
0000
0100
0000
0010
0000
0001
0010
0100
1000
0000
1000
0001
0000
0011
0000
,
0010
0000
0100
0000
1000
0000
1000
0001
0100
0010
0000
0010
1000
0000
1001
0000
,
0001
0000
0100
0000
1000
0000
0100
1000
0100
0010
0000
0010
1000
0100
0010
0000
,
1001
0000
0000
0110
0000
0000
1010
0000
0101
0000
0000
0000
1001
0000
0000
0000
,
2010
0000
0001
0000
0200
3000
0000
1300
,
0010
0001
0010
1010
0000
1010
1000
0001
,
1000
0100
0000
1000
0010
0000
1000
0100
0000
1000
0001
0010
0100
0000
1000
0000
,
1000
0010
0100
0001
0010
0100
1000
0100
0010
0001
0100
0010
1000
0100
1000
0001
,
0202
0000
0010
0000
1000
0000
0303
0001
,
0100
1000
0001
0011
0000
1010
1000
0100
,
0010
0001
0100
1000
0100
0000
1000
0000
0100
0001
0010
1000
0010
0000
0001
0000
,
0100
1000
0100
0010
1000
0000
0100
0000
0010
0100
0001
0100
1000
0100
1000
0100
,
2000
0000
0002
0000
0010
0000
3003
0001
,
2000
3001
2000
0020
3000
1030
0001
0010
,
0100
0010
0001
0100
1000
0000
0100
0000
0010
1000
0100
0001
0100
0000
0010
0000
,
0001
0100
1000
0100
0010
0000
1000
0000
0010
1000
0100
0001
0100
0010
0100
0010
,
0200
0000
2000
0000
0010
0000
3300
0001
,
0100
1000
0100
0001
0000
0001
1000
0010
,
1001
0000
0000
0000
1000
0100
0010
0100
1000
0000
0100
0000
0010
0100
1000
0100
,
0010
0000
0100
0000
0010
0001
0010
0001
0100
0000
0010
0000
1000
0010
1000
0010
,
0210
0000
0000
0000
0001
0000
0010
0000
1300
0000
0100
0010
1000
0100
0010
0000
,
0001
0010
0100
1000
0100
0000
0001
0000
0100
0000
0020
0000
1000
0000
0100
0000
,
0032
0000
0000
0000
0013
0000
0001
0000
1100
0000
1000
0100
0010
0001
0100
0000
,
0010
1000
0010
0100
0001
0000
1000
0000
0020
0000
1000
0000
0100
0000
1030
0000
,
2100
0000
0000
0000
0001
0000
0010
0000
3001
0000
1000
0001
0100
0010
1000
0000
,
0100
1000
0010
0100
0001
0000
0010
0000
1000
0000
0020
0000
0001
0000
0130
0000
,
1001
0000
0000
0000
1200
0000
0001
0000
1300
0000
0100
1000
0010
0100
0010
0000
,
0100
0001
0010
0100
0010
0000
0100
0000
1000
0000
1001
0000
0011
0000
0101
0000
,
0001
0010
0100
0000
2002
0000
0000
0000
0000
0000
0000
0000
0000
0000
0000
0000
,
0000
0000
0000
3003
0110
0000
0000
0000
0000
0000
0000
0000
0000
0000
0000
0000
;

//---------------dance-single - BlueChaos----------------
#NOTES:
     dance-single:
     BlueChaos:
     Hard:
     9:
     0.707,0.735,0.404,0.394,0.251:
0000
0000
0000
0000
,
0000
0000
0000
0000
,
0000
0000
0000
0000
,
0000
0000
0000
0000
,
1000
0100
1000
0000
0100
0000
0010
0000
0001
0010
0001
0000
0100
0000
0010
0000
,
1000
0001
1000
0000
0001
0000
0100
0001
0010
0000
0100
0000
1000
0000
0010
0000
,
1000
0010
1000
0000
0010
0000
0100
0000
0001
1000
0001
0000
1000
0000
0100
0000
,
0010
0001
0010
0000
0001
0000
0100
0001
0010
0000
0001
0000
1000
0000
0100
0000
,
0011
0001
0100
0010
1010
1000
0100
0010
,
0011
0001
0100
0010
1010
1000
0001
0100
,
0110
0010
1000
0001
1001
0001
0100
0010
,
0110
0100
0001
1000
1001
0001
1000
0010
,
2000
0000
3002
0000
0203
0000
0000
0301
,
0100
1000
0100
0001
0000
0001
1000
0100
,
0010
0001
0000
0001
0100
0000
0100
0010
0000
0010
1000
0000
0001
0000
1001
0000
,
0001
0100
0001
0000
0100
0000
0010
0000
1000
0001
1000
0000
0100
0000
0000
0000
,
0200
0000
2300
0000
3002
0000
0000
1003
,
0100
0001
0100
1000
0000
1000
0010
0100
,
0001
0100
1000
0100
0001
1000
0100
0010
,
0100
0000
1000
0000
0001
0000
1000
0000
0100
0000
0001
0000
0100
1000
0100
1000
,
0200
0000
0320
0000
0032
0000
0000
1003
,
0010
0001
0010
1000
0000
1000
0100
0010
,
0001
0010
0100
0000
1000
0000
0001
0000
0100
0001
0010
0000
0100
0000
1000
0000
,
0100
0010
0001
0000
0100
0000
0010
0000
1000
0000
0001
0000
0100
0001
0100
0001
,
0200
0000
0302
0000
0023
0000
0000
0100
,
0001
0100
0100
0230
0000
1300
0010
0100
,
2001
0001
0001
3002
0100
0100
0100
0203
,
0010
0000
0010
0000
0010
0000
0320
0000
1000
0000
1000
0030
1000
0010
0100
0001
,
0020
0000
0032
0000
,
0203
0000
2300
0000
,
3200
0000
0320
0000
,
2030
0000
0000
0000
3001
0010
1001
0000
,
1000
0000
0100
0000
1000
0000
0100
1000
0000
1000
0010
0000
1000
0000
1010
0000
,
0010
0000
1000
0000
0001
0000
0100
0010
0000
0010
0100
0000
0001
0000
0101
0000
,
0100
0000
0010
0000
1000
0000
0001
0100
0000
0010
1000
0000
0100
0000
1100
0000
,
1000
0100
0010
0001
0001
0000
0000
0000
,
1001
0000
0000
1100
0000
0000
1010
0000
1001
0000
0000
0000
0000
0000
0000
0000
,
2000
0000
3020
0000
0230
0000
0000
0301
,
0010
0100
1000
0100
0000
0100
1000
0010
,
0100
0001
0000
0001
1000
0000
1000
0100
0000
0100
0010
0000
0001
0000
0010
0000
,
0001
0010
0001
0000
1000
0100
1000
0000
0010
1000
0010
0000
0101
0000
0000
0000
,
0002
0000
0023
0000
0230
0000
0000
1300
,
0001
0100
1000
0100
0000
0100
0010
1000
,
0100
1000
0100
0000
1000
0000
0010
0000
0100
0001
0100
0000
0001
0000
0010
0000
,
0100
0010
0100
0000
0010
0000
0001
0000
0100
0010
0100
0000
0010
0000
1000
0000
,
0020
0000
0230
0000
0302
0000
0000
1003
,
0001
0010
1000
0010
0000
0010
0001
0100
,
0001
0100
0001
0100
0001
0000
0100
0000
0002
0000
0000
0000
1003
0000
0000
0000
,
0100
1000
0100
1000
0100
0000
1000
0000
0020
0000
0000
0000
0130
0000
0000
0000
,
2000
0000
3002
0000
0023
0000
0000
0130
,
1000
0001
0010
1000
0000
1000
0010
0001
,
0100
0001
1000
0000
0100
0000
0001
0000
0100
0000
1000
0000
0100
0000
0010
0000
,
0001
0100
0010
0000
1000
0000
0010
0000
0001
0000
0010
0000
1000
0100
0010
0001
,
0100
0000
0101
0110
1010
1000
0100
0010
,
0001
0100
0001
1000
0100
0010
0011
0101
,
1001
0000
0101
1100
0110
0100
1000
0001
,
0100
1000
0100
0010
1000
0100
0110
0011
,
0101
0000
0110
1010
1001
0001
1000
0010
,
0001
0010
1000
0100
0010
0001
1001
1001
,
1001
0000
0101
1010
0101
0001
1000
0100
,
1000
0000
0100
0000
0001
0000
0100
0000
0010
0000
0001
0000
0100
0001
0100
0001
,
1000
2002
0000
0000
,
0000
3003
0000
0000
;

//---------------dance-single - BlueChaos----------------
#NOTES:
     dance-single:
     BlueChaos:
     Easy:
     3:
     0.350,0.398,0.384,0.236,0.000:
0000
0000
0000
0000
,
0000
0000
0000
0000
,
0000
0000
0000
0000
,
0000
0000
0000
0000
,
1000
1000
1000
0000
,
0001
0001
0001
0000
,
0100
0100
0100
0000
,
0010
0010
0010
0000
,
1000
0100
1100
0000
,
0001
0100
0101
0000
,
0010
0100
0110
0000
,
1000
0001
1001
0000
,
0001
1000
0002
0003
,
1001
0100
0010
1000
,
0100
0100
0100
0100
,
2200
0000
0000
3300
,
0100
0010
0200
0300
,
0110
0010
0001
0100
,
0010
0010
0010
0010
,
0110
0000
0100
0000
0100
0000
0100
0001
,
0100
0001
2000
3000
,
1001
0001
1000
0010
,
1000
1000
1000
1000
,
1001
0000
0001
0000
0001
0000
0001
1000
,
0002
1000
1003
0000
,
1001
0000
0110
0000
,
1001
0001
0010
0100
,
1000
0001
0100
0010
,
2002
0000
0000
0000
,
0000
0000
0000
3003
,
0220
0000
0000
0000
,
0000
0000
0330
0000
1000
0001
1001
0000
,
0001
0001
1000
1000
,
0100
0100
0010
0010
,
0001
0001
0100
0100
,
0001
0001
1000
1000
,
1001
0010
1001
0000
,
0001
1000
0002
0000
,
1003
0100
0020
0000
,
0031
0100
0001
0100
,
0202
0000
0000
0303
,
0001
1000
0020
0000
,
1030
0001
0200
0300
,
0110
0000
1001
0000
,
1100
0000
0101
0000
,
2000
0001
3001
0000
,
0002
1000
1003
0000
,
1000
1000
1000
0000
,
0001
0000
0001
0000
0001
0000
1000
0001
,
2000
3010
1010
0000
,
0002
1003
1001
0001
,
0200
0001
0001
0001
,
0302
0000
1000
0000
1000
0000
1003
0001
,
1001
0110
1001
0000
,
0010
1000
0100
1000
,
1100
0011
1100
0000
,
1000
0010
1000
0001
,
0101
1010
0101
0000
,
1000
0100
0010
0001
,
1001
0110
1001
0000
,
0001
0100
0010
1000
,
2002
0000
0000
0000
,
3003
1001
0000
0000
;

//---------------dance-single - BlueChaos----------------
#NOTES:
     dance-single:
     BlueChaos:
     Medium:
     6:
     0.478,0.491,0.325,0.266,0.005:
0000
0000
0000
0000
,
0000
0000
0000
0000
,
0000
0000
0000
0000
,
0000
0000
0000
0000
,
1000
0100
0100
0000
0001
0100
0100
0000
,
0010
1000
1000
0000
1000
0100
0100
0000
,
0001
0100
0010
0000
1000
0100
0010
0000
,
0001
1000
0001
0000
1000
0001
1000
0000
,
0001
0100
0000
0100
0001
0010
0000
0010
,
0001
0100
0000
0100
0001
1000
0000
1000
,
0001
0010
0000
0010
0100
1000
0000
1000
,
0100
0001
0000
0001
0100
1000
0000
1000
,
1001
0000
0101
0000
1010
0000
0000
1000
,
0100
0010
0001
1000
0000
1000
0010
0000
,
2000
3020
0230
0302
,
2003
0000
0000
0000
0000
0000
0000
3000
,
1001
0000
0110
0000
1001
0000
0000
0001
,
0010
0100
1000
0100
0000
1000
0020
0000
,
1030
1001
0001
0101
,
0100
0000
0110
0000
0010
0000
1000
0100
,
0011
0000
0011
0000
0011
0000
0000
0001
,
0010
0100
0010
0001
0000
0000
0001
1000
,
0020
1030
2000
3100
,
0200
0000
0310
0000
0020
0000
0031
1000
,
1001
0000
1100
0000
0101
0000
0000
0001
,
0100
0001
0100
0010
0000
0010
1000
0100
,
1000
1000
0001
0001
,
0100
0000
0100
0000
0010
0000
0010
1000
,
0200
0000
2300
0000
,
3020
0000
0230
0000
,
0302
0000
2003
0000
,
3200
0000
0000
0000
1300
0010
1010
0000
,
1000
0100
0010
0000
0010
0001
0100
0000
,
0001
0100
0010
0000
0100
0001
0010
0000
,
0001
0010
0100
0000
0010
0100
1000
0000
,
0100
1000
0001
0000
1000
0001
0200
0000
,
0001
0000
0000
0001
0000
0000
0001
0000
0301
0000
0000
0000
0000
0000
0000
0000
,
1100
0000
0110
0000
0011
0000
0000
0001
,
0010
0100
1000
0010
0000
1000
0010
0100
,
0002
0203
0320
2030
,
3002
0000
0000
0003
,
0101
0000
0110
0000
1010
0000
0000
1000
,
0010
0100
0010
1000
0000
1000
0100
0010
,
0001
1000
0010
1000
,
0001
0000
0100
0000
0010
0000
1000
0010
,
2000
0000
0010
0000
3010
0000
0000
1000
,
0010
0010
1000
0010
0000
1000
0010
1000
,
0010
1000
1000
0010
,
1000
0000
0001
0000
0010
0000
0001
0010
,
0002
0000
0010
0000
0013
0000
0000
0001
,
0010
0010
0001
0010
0000
0001
0010
0001
,
0010
0001
1000
0010
,
1000
0000
0001
0000
0100
0000
0010
1000
,
1010
0000
1000
0010
1010
0000
0010
0000
,
1000
0000
0001
0000
0010
0001
1000
0001
,
1001
0000
0001
0100
0101
0000
0001
0000
,
0001
0000
1000
0000
1000
0000
0010
1000
,
1001
0000
0010
0001
1001
0000
0001
0000
,
0100
0000
0010
0000
1000
1100
1000
0010
,
1010
0000
0010
1000
1100
0000
1000
0000
,
0001
0000
1000
0000
0001
0000
0010
0001
,
1000
2002
0000
0000
0000
0000
0000
0000
,
0000
0000
3003
1001
0000
0000
0000
0000
;
