#TITLE:Sugarkill Ultimate;
#SUBTITLE:;
#ARTIST:Lollipop;
#GENRE:Synthpop;
#TITLETRANSLIT:;
#SUBTITLETRANSLIT:;
#ARTISTTRANSLIT:;
#CREDIT:;
#BANNER:Sugarkill Ultimate.png;
#BACKGROUND:Sugarkill Ultimate-bg.png;
#LYRICSPATH:;
#CDTITLE:;
#MUSIC:Sugarkill Ultimate.mp3;
#OFFSET:-0.020;
#SAMPLESTART:39.494;
#SAMPLELENGTH:12.000;
#SELECTABLE:YES;
#BPMS:0.000=152.090;
#STOPS:;
#BGCHANGES:;

//---------------dance-single - Renard----------------
#NOTES:
     dance-single:
     Renard:
     Challenge:
     11:
     0.890,0.991,0.372,0.176,0.826:
0000
0000
0000
0000
,
0000
0000
0000
0000
,
0000
0000
0000
0000
,
0000
0000
0000
0000
0000
0000
0000
0000
1000
0100
0010
0001
1000
0000
0001
1000
,
0001
0000
0100
0000
1001
0000
0000
1010
0000
0000
1100
0000
0000
1001
0000
0000
,
0010
0000
0100
0000
0001
0000
0000
1010
0000
0000
1100
0000
0000
1001
0000
0000
,
0010
0000
0100
0000
0001
0000
0000
1010
0000
0000
0101
0000
0000
1010
0000
0000
,
0100
0000
1000
0000
0010
0000
0000
0101
0000
0000
0110
0000
0000
1010
0000
0000
,
0100
0000
0010
0000
1000
0000
0000
1001
0000
0000
0110
0000
0000
1010
0000
0000
,
0001
0000
0100
0000
0010
0000
0000
1100
0000
0000
0011
0000
0000
1001
0000
0000
,
0001
0000
0100
0000
0010
0000
0000
1001
0000
0000
1010
0000
0000
0101
0000
1000
,
0010
0000
0100
0000
0001
0000
1000
0000
0100
0000
1000
0000
0100
1000
0100
0000
,
1000
0000
0100
0000
1000
0000
0010
0100
0001
0000
0100
0000
0010
0000
1000
0000
,
0100
0000
0010
0000
0001
0000
0010
0100
1000
0000
0010
0000
0100
0000
0001
0000
,
0010
0000
0001
0000
1000
0000
0100
0010
0001
0000
0010
0000
0100
0000
1000
0000
,
0100
0000
0010
0000
1000
0000
0010
0100
1000
0000
0010
0000
0100
0000
0001
0000
,
1000
0100
0010
0001
1000
0100
0010
0001
1000
0010
0100
0001
1000
0010
0100
0001
,
1000
0100
1000
0010
0100
0001
0010
0001
0100
0010
1000
0100
1000
0001
0010
0000
,
0001
0010
0100
1000
0001
0010
0100
1000
0001
0100
0010
1000
0001
0100
0010
1000
,
0001
0010
0001
0100
0010
1000
0100
1000
0010
0100
0001
0010
0001
1000
0100
0000
,
1000
0100
0010
0001
1000
0000
0001
0000
0100
0000
0010
0000
1000
0000
0100
0000
,
0010
0001
0010
0100
1000
0000
0010
0000
0100
0000
0001
0000
1000
0000
0100
0000
,
0010
0001
0010
0100
1000
0000
0100
0000
1000
0000
0010
0000
0100
0000
0001
0000
,
0010
0001
1000
0100
1000
0000
0001
0000
0010
0000
0001
0000
0100
0000
0010
0000
,
0100
0000
0010
1000
0010
0000
0100
0000
0001
0000
0010
0000
0100
0000
1000
0100
,
1000
0000
0010
0000
0100
0000
0001
0010
0100
0000
0010
0000
0001
0000
1000
0100
,
1000
0000
0010
0000
0100
0000
0001
0010
0100
0000
0010
0000
0001
0000
1000
0100
,
0010
0000
0100
0000
1000
0000
0010
0000
0100
0001
1000
0001
2000
0000
0000
0000
,
3001
0100
1000
0001
0010
1000
0001
0100
,
1000
0100
0001
0010
0100
1000
0100
0001
,
0200
2300
3020
0230
,
0301
0100
0010
1000
0100
0000
0010
0000
0001
0010
0000
0010
0100
0000
0000
0000
,
1000
0100
0001
1000
0010
0001
1000
0100
,
0001
0100
1000
0010
0100
0001
0010
0100
,
2000
3200
0320
0032
,
1003
0100
0010
0001
1000
0000
0100
0000
0010
0001
0000
0001
1000
0000
0000
0000
,
0001
0010
1000
0010
0100
1000
0001
0010
,
1000
0010
0100
1000
0001
0010
1000
0010
,
0200
2300
3020
0230
,
0301
0100
0010
1000
0100
0000
0010
0000
0100
1000
0000
1000
0001
0000
0100
0000
,
0010
0100
0001
1000
0100
0001
0100
0010
,
0001
1000
0100
0001
0100
1000
0010
0100
,
0002
0203
0320
2030
,
3100
0010
0001
0010
0100
0000
1000
0000
0100
0010
0000
0010
0001
0000
0000
0000
,
1000
0100
1000
0010
1000
0001
1000
0010
1000
0100
1000
0010
1000
0001
1000
0000
,
0001
0010
0001
0100
0001
1000
0001
0100
0001
0010
0001
0100
0001
1000
0001
0000
,
0100
0010
0100
1000
0100
0001
0100
0010
0100
1000
0100
0001
0100
0010
0100
0000
,
0010
1000
0010
0100
0010
0001
0010
0100
0010
1000
0010
0001
0010
0100
0010
0000
,
1000
0100
0010
0100
1000
0001
0010
0100
0010
0001
1000
0100
1000
0001
0010
0000
,
0001
0010
0100
0010
0001
1000
0100
1000
0001
0010
0100
1000
0100
0010
0001
0000
,
1000
0100
0010
0001
1000
0010
0100
0001
1000
0100
0010
0001
1000
0010
0100
0000
,
0001
0100
0010
1000
0100
0010
0001
0100
0010
1000
0100
0010
0001
0010
0100
0000
,
1000
0000
0100
0000
1000
0000
0010
0100
0001
0000
0100
0000
0010
1000
0100
0000
,
1000
0000
0010
0000
0100
0000
0001
0010
0001
0000
0100
0000
0010
1000
0100
0000
,
1000
0000
0010
0000
0100
0000
0001
0010
0001
0000
0100
0000
0010
1000
0100
0000
,
1000
0000
0010
0000
0100
0000
0001
0010
0100
0000
1000
0000
0100
0010
0001
0000
,
1000
0000
0000
1000
0010
0000
0000
0110
0000
0000
1010
0000
1001
0000
0101
0000
,
0001
0000
0000
0001
0100
0000
0000
1010
0000
0000
0101
0000
1001
0000
1010
0000
,
0100
0000
0000
0100
0010
0000
0000
1010
0000
0000
1100
0000
1001
0000
0101
0000
,
0011
0000
0000
0001
0100
0000
0000
0100
0001
0100
0010
1000
0100
0000
0010
0100
,
1001
0000
0000
0000
;

//---------------dance-single - Renard----------------
#NOTES:
     dance-single:
     Renard:
     Hard:
     8:
     0.609,0.527,0.165,0.000,0.000:
0000
0000
0000
0000
,
0000
0000
0000
0000
,
0000
0000
0000
0000
,
0000
0000
0000
0000
0001
0100
0001
1000
,
0001
0100
0010
0000
1000
0100
0010
0000
,
0001
0100
0010
0000
1000
0010
0100
0000
,
0001
0010
0100
0000
1000
0100
0010
0000
,
0001
0010
0100
1000
0010
0000
0100
0000
,
0001
0100
0010
1000
0100
0000
0010
0000
,
0000
0001
0010
0100
1000
0000
1001
0000
,
1000
0100
0010
0001
0010
0000
0100
0000
,
0000
1000
0010
0100
0001
0000
1001
0000
,
1000
0100
0010
0001
0010
1000
0010
0001
,
0010
0100
1000
0100
0010
0001
0010
0000
,
0010
0100
0001
0100
1000
0010
0100
0001
,
0100
1000
0100
0001
0100
0010
1000
0000
,
1000
0010
0001
0010
0100
1000
0100
0001
,
0100
0010
1000
0100
0010
0001
0010
0000
,
0010
1000
0010
0001
0010
0100
1000
0100
,
0001
0100
1000
0010
0100
0001
0100
0000
,
0010
1000
0100
1000
0001
0010
0001
1000
,
0010
1000
0001
0100
0001
0000
1001
0000
,
1000
0100
1000
0001
0010
0001
1000
0010
,
1000
0001
0100
0001
1000
0000
1001
0000
,
1000
0100
0010
0001
0010
0100
1000
0010
,
0100
0001
0100
0010
1000
0000
1001
0000
,
1000
0100
1000
0001
0010
0001
0100
0001
,
1000
0010
1000
0001
1000
0000
1001
0000
,
1000
0100
0010
0000
0001
0000
0100
0010
,
1000
0100
0010
1001
0000
0001
1000
0010
,
0100
0000
0001
0010
0100
1000
0010
0100
,
0001
1000
0100
0010
0001
0010
0011
0000
,
0001
0010
0100
0000
1010
0000
0100
0001
,
0010
0100
1000
1001
0000
1000
0010
0100
,
0001
0010
0100
0000
1000
0010
0100
0001
,
1000
0100
0010
0001
1000
0010
1010
0000
,
1000
0010
0100
0001
0010
0100
0010
0001
,
1000
0010
0100
0001
0000
0001
0100
0010
,
1001
0000
0010
0100
0001
1000
0010
1000
,
0100
0010
0001
0010
0100
1000
1100
0000
,
1000
0010
0100
0000
1001
0000
0010
0100
,
0001
1000
0100
0110
0000
0100
1000
0010
,
0100
0001
1000
0100
0010
0001
1000
0010
,
0100
0001
0100
0010
1000
0010
1010
0000
,
1000
0010
0100
0010
1000
0010
0100
0010
,
0100
0001
0100
0010
0100
0001
1000
0000
,
0100
0010
0001
0010
0100
0010
0001
1000
,
0010
0100
0001
1000
0100
0010
0001
0000
,
1000
0010
0100
0001
0100
0010
1000
0100
,
0010
0001
0010
0100
1000
0100
0010
0001
,
0010
1000
0010
1000
0010
0100
0010
0100
,
0010
0100
1000
0100
0001
0100
1000
0010
,
0100
0001
0100
0010
1000
0100
1000
0010
,
0100
0001
0010
0001
1000
0010
0100
0000
,
0001
0100
0010
1000
0100
0010
0001
0010
,
0100
1000
0010
0100
0001
1000
0001
0100
,
0010
0010
1000
0000
0010
0010
0100
0000
,
0010
0010
0001
0000
0010
0010
0100
0000
,
0010
0010
1000
0000
0010
0010
0100
0000
,
0010
0010
0001
0010
0100
0010
1000
0010
,
0001
0000
0000
0000
;

//---------------dance-single - Renard----------------
#NOTES:
     dance-single:
     Renard:
     Medium:
     6:
     0.409,0.403,0.021,0.000,0.000:
0000
0000
0000
0000
,
0000
0000
0000
0000
,
0000
0000
0000
0000
,
0000
0000
0000
0000
0001
1000
0001
1000
,
0001
0001
0100
0100
,
0010
0010
1000
1000
,
0100
0100
0010
0010
,
0001
0001
1000
1000
,
0001
0100
0001
0000
0100
0000
0100
0000
,
0010
1000
0010
0000
1000
0000
1000
0000
,
0001
1000
0001
0000
1000
0000
1000
0000
,
0100
1000
0100
0000
1000
0000
1000
0000
,
0001
0100
0001
0100
,
0010
0100
0010
0100
,
1000
0100
1000
0100
,
0010
0100
0010
0100
,
0001
0010
0001
0010
,
0100
0010
0100
0010
,
1000
0010
1000
0010
,
0100
0010
0100
0010
,
0001
0000
1000
0000
0001
0100
0001
0000
,
1000
0000
0100
0000
1000
0001
1000
0000
,
0001
0000
0100
0000
0001
1000
0001
0000
,
1000
0000
0100
0000
1000
0001
1000
0000
,
0001
0000
0100
0000
0001
1000
0001
0000
,
1000
0000
0010
0000
1000
0001
1000
0000
,
0001
0000
0100
0000
0001
1000
0001
0000
,
1000
0000
0010
0000
0100
0001
0100
0000
,
0001
0000
0100
0000
0010
0000
0000
1000
,
0100
1000
0001
1000
0000
1000
0010
0100
,
0001
0100
0010
1000
,
0001
0100
0001
1000
0001
1000
0001
0000
,
1000
0000
0100
0000
0010
0000
0000
0001
,
0010
0100
1000
0010
0000
0010
0100
0001
,
0100
0010
1000
0100
,
1000
0100
1000
0100
1000
0100
1000
0000
,
0010
0000
0100
0000
0001
0000
1000
0001
,
0010
0100
1000
0001
0000
0001
0010
0001
,
0010
0001
0010
0001
,
0100
0001
0100
0001
0100
0001
0100
0000
,
0001
0000
1000
0000
0100
0000
0010
0001
,
0010
0100
1000
0010
0000
0010
0100
0001
,
0100
0001
1000
0100
,
1000
0001
1000
0001
1000
0000
1001
0000
,
1000
1000
0010
0010
,
1000
1000
0010
0010
,
0100
0100
0001
0001
,
0100
0100
0001
0001
,
1000
1000
0100
0100
,
1000
1000
0100
0100
,
0010
0010
0001
0001
,
0010
0010
0001
0001
,
1000
0000
0010
0000
0100
0000
0100
0100
,
0010
0000
0010
0000
0100
0000
0100
0100
,
0001
0000
0001
0000
0100
0000
0100
0100
,
1000
0000
1000
0000
0100
0000
0100
0100
,
0010
0000
1000
0000
0001
0000
0010
0100
,
1000
0000
0001
0000
0010
0000
0001
1000
,
0010
0000
0100
0000
0001
0000
1000
0001
,
0100
0000
0010
0000
1000
0100
0010
0001
,
0011
0000
0000
0000
;

//---------------dance-single - Renard----------------
#NOTES:
     dance-single:
     Renard:
     Easy:
     3:
     0.305,0.341,0.145,0.062,0.000: // measure 1
0000
0000
0000
0000
,  // measure 2
0000
0000
0000
0000
,  // measure 3
0000
0000
0000
0000
,  // measure 4
0000
0000
0000
0000
,  // measure 5
1000
1000
0001
0001
,  // measure 6
0100
0100
0010
1000
,  // measure 7
0010
0100
0001
0010
,  // measure 8
0100
0100
0010
0000
,  // measure 9
0001
1000
0010
0100
,  // measure 10
0001
0001
1000
1000
,  // measure 11
0100
1000
0010
0010
,  // measure 12
0100
0001
1000
0000
,  // measure 13
0001
0100
0010
0100
,  // measure 14
0001
0100
0010
0100
,  // measure 15
0001
0100
0010
0100
,  // measure 16
0001
0100
0010
0000
,  // measure 17
1000
0100
0010
0100
,  // measure 18
1000
0100
0010
0100
,  // measure 19
1000
0100
0010
0100
,  // measure 20
1000
0100
0010
0000
,  // measure 21
0100
1000
0001
0000
,  // measure 22
0100
0001
1000
0000
,  // measure 23
0001
1000
0100
0000
,  // measure 24
0010
0001
1000
0000
,  // measure 25
0010
1000
0001
0000
,  // measure 26
0010
0001
1000
0000
,  // measure 27
0010
1000
0001
0100
,  // measure 28
0010
1000
0001
0001
,  // measure 29
1000
0100
0010
0000
,  // measure 30
0001
0100
0010
1000
,  // measure 31
0020
0000
0000
0000
,  // measure 32
0130
0000
0100
0000
,  // measure 33
0001
1000
0100
0000
,  // measure 34
0010
0001
0010
0000
,  // measure 35
0100
0200
0000
0000
,  // measure 36
1300
0010
0100
0000
,  // measure 37
0001
0100
0010
0000
,  // measure 38
0100
0001
1000
0100
,  // measure 39
0020
0000
0000
0000
,  // measure 40
0031
0010
0100
0000
,  // measure 41
1000
0010
0200
0000
,  // measure 42
0301
0100
0020
0000
,  // measure 43
2030
0000
0000
0000
,  // measure 44
3100
0010
0001
1001
,  // measure 45
1000
1000
0010
0010
,  // measure 46
1000
1000
0010
0010
,  // measure 47
0100
0100
0001
0001
,  // measure 48
0100
0100
0001
0001
,  // measure 49
1000
1000
0100
0100
,  // measure 50
1000
1000
0100
0100
,  // measure 51
0010
0010
0001
0001
,  // measure 52
0010
0010
0001
0001
,  // measure 53
1000
1010
0000
1010
,  // measure 54
1000
1010
0000
1010
,  // measure 55
1000
1010
0000
1010
,  // measure 56
1000
1010
0000
1010
,  // measure 57
0100
0101
0000
0101
,  // measure 58
0010
0011
0000
0011
,  // measure 59
0001
0001
0000
0001
,  // measure 60
1000
0001
0100
0010
,  // measure 61
1001
0000
0000
0000
;
