#TITLE:Sugarkill Breakdown;
#SUBTITLE:;
#ARTIST:Renard vs Lollipop;
#GENRE:Dark Synthpop;
#TITLETRANSLIT:;
#SUBTITLETRANSLIT:;
#ARTISTTRANSLIT:;
#CREDIT:;
#BANNER:break.png;
#BACKGROUND:break-bg.png;
#LYRICSPATH:;
#CDTITLE:;
#MUSIC:break.ogg;
#OFFSET:0.000;
#SAMPLESTART:0.010;
#SAMPLELENGTH:12.000;
#SELECTABLE:YES;
#BPMS:0.000=300.000;
#STOPS:;
#BGCHANGES:;

//---------------dance-single - INSANE----------------
#NOTES:
     dance-single:
     Renard:
     Challenge:
     14:
     1.000,1.000,0.417,0.000,0.118: // measure 1
0000
0000
0000
0000
,  // measure 2
1000
0100
0010
0000
1001
0000
0101
0000
,  // measure 3
0001
0100
0000
0100
0010
0000
0010
1000
,  // measure 4
0000
1000
0100
0000
0010
0001
0010
0100
,  // measure 5
1000
0010
0000
0010
0100
0000
0100
0001
,  // measure 6
0000
0001
1000
0000
0100
1000
0100
1000
,  // measure 7
0010
0100
0000
0100
0001
0000
0001
1000
,  // measure 8
0000
1000
0100
0000
1000
0001
1000
0001
,  // measure 9
0100
0010
0000
0010
1000
0000
1000
0001
,  // measure 10
0000
0001
0100
0000
0010
1000
0010
1000
,  // measure 11
0010
0100
0000
0001
0100
0000
0000
0000
,  // measure 12
0000
0000
0010
1010
0000
0100
0101
0000
,  // measure 13
1000
0100
0000
0010
0001
0000
0000
0000
,  // measure 14
0000
0000
1000
1100
0000
0010
0011
0000
,  // measure 15
1000
0100
1000
0001
0010
0000
0001
0100
,  // measure 16
0000
0010
1000
1010
0000
0001
0101
0000
,  // measure 17
0010
1000
0001
0100
0001
0000
1000
0100
,  // measure 18
0010
0000
0001
0011
0000
0100
1100
0000
,  // measure 19
0001
0000
1000
0100
1000
0000
0001
0000
0100
0000
0010
0000
1000
0000
0000
0000
,  // measure 20
0001
0100
0010
1000
0010
0100
0001
1000
,  // measure 21
0001
1000
0100
0010
0001
0000
0100
0010
,  // measure 22
1000
0001
0100
0001
1000
0100
0010
0001
,  // measure 23
1000
0001
0100
0001
1000
0000
0001
0100
,  // measure 24
0001
1000
0100
1000
0001
0010
0100
1000
,  // measure 25
0001
0100
0001
1000
0100
1000
0001
0010
,  // measure 26
0100
0010
0001
1000
0010
0100
0001
1000
,  // measure 27
0001
0000
0000
0000
0000
0000
0100
0000
0001
0000
0100
0000
0001
0000
0000
1000
0000
0000
0100
0000
0000
0000
0000
0000
,  // measure 28
1000
0000
0000
0100
0010
0100
0010
0000
0000
0001
0100
0001
,  // measure 29
0100
0010
1000
0010
0100
0001
1000
0000
,  // measure 30
0001
0000
0000
1000
0100
1000
0100
0000
0000
0010
0001
0010
,  // measure 31
0001
1000
0001
0100
0010
1000
0001
0000
,  // measure 32
1000
0000
0000
0001
0100
0001
0100
0000
0000
0010
1000
0010
,  // measure 33
1000
0010
0100
0001
1000
0001
1000
0000
,  // measure 34
0001
0100
0010
1000
0010
0100
0001
0100
,  // measure 35
1000
0001
0010
1000
0010
0100
0001
0000
,  // measure 36
1001
0000
0000
1010
0000
0000
0101
0000
,  // measure 37
0001
1000
0100
1000
0001
0100
0001
0000
,  // measure 38
1100
1010
0101
0011
,  // measure 39
1000
0001
0100
0010
0000
0010
1000
0010
,  // measure 40
0100
0000
0001
0100
0010
0000
0010
1000
,  // measure 41
0010
0000
0010
0100
0001
0000
0100
0001
,  // measure 42
1000
0100
1000
0001
0010
0001
1000
0010
,  // measure 43
0100
0000
0001
0100
0101
0000
0110
0000
,  // measure 44
1010
1001
0101
1001
,  // measure 45
1000
0100
0010
0001
0000
0001
0010
0100
,  // measure 46
1000
0100
1000
0100
0001
0100
0010
0001
,  // measure 47
0010
0000
0100
0000
1000
0000
0010
0100
,  // measure 48
0001
0100
0001
1000
0010
1000
0001
0000
,  // measure 49
1000
0100
1000
0001
0010
0001
1000
0000
,  // measure 50
1010
0010
0110
0100
,  // measure 51
0101
0000
0001
0000
1000
0001
1000
0000
,  // measure 52
0001
0100
0010
1000
0010
0100
0001
1000
,  // measure 53
0100
1000
0001
0010
0001
1000
0100
0010
,  // measure 54
0001
0010
0100
1000
0001
0100
0010
0100
,  // measure 55
0001
1000
0100
0010
0001
0100
0010
0100
,  // measure 56
0001
0010
0100
1000
0010
0100
0010
1000
,  // measure 57
0100
1000
0001
0010
0100
1000
0010
0100
,  // measure 58
0010
0100
0001
1000
0100
0010
0001
0100
,  // measure 59
0010
1000
0100
1000
0001
0010
0100
1000
,  // measure 60
0010
0100
0001
1000
0100
0010
0001
0010
,  // measure 61
0100
1000
0010
0100
0001
0100
0010
1000
,  // measure 62
0100
1000
0001
0010
0100
1000
0010
0100
,  // measure 63
0001
0010
0001
0100
0010
1000
0100
1000
,  // measure 64
0010
0100
0010
0100
0001
1000
0100
0010
,  // measure 65
0001
1000
0001
0010
0100
1000
0010
0100
,  // measure 66
0010
1000
0000
1000
0010
0000
0100
0001
,  // measure 67
0000
0001
0100
0000
0001
1000
0001
0000
,  // measure 68
1000
0000
0100
1000
0100
0000
1000
0000
0010
0000
0100
0000
0001
0000
0000
0000
,  // measure 69
0100
0000
0010
1000
0010
0000
0100
0001
,  // measure 70
0000
1001
0000
1100
0000
0010
0001
0000
,  // measure 71
1000
0000
0100
1000
0100
1000
0010
0000
,  // measure 72
0101
0000
0010
1000
0010
0000
0101
0000
,  // measure 73
1010
0000
1000
0100
0010
0001
0010
0000
,  // measure 74
0100
1000
0010
0000
1001
0000
1010
0000
,  // measure 75
0100
0011
1001
0000
,  // measure 76
1000
1000
0001
0001
0100
0010
1000
0000
,  // measure 77
0001
0100
0001
0000
1000
0100
1000
0000
,  // measure 78
0001
0010
0100
1000
0001
0000
1000
0000
,  // measure 79
0001
0100
0001
1000
0100
1000
0000
1000
,  // measure 80
0010
0100
0001
0100
0010
1000
0100
1000
,  // measure 81
0001
0010
0001
0100
0000
0100
0010
1000
,  // measure 82
0010
0000
0000
0100
0001
0100
0010
0000
0000
1000
0010
1000
,  // measure 83
0010
0000
0000
0000
0000
0000
1000
0000
0100
0000
1000
0000
0100
0000
0000
0010
0000
0000
0001
0000
0000
0000
0000
0000
,  // measure 84
1000
0100
0010
0100
1000
0001
0010
0100
,  // measure 85
0010
0001
1000
0010
0100
0010
1000
0001
,  // measure 86
0100
0010
0100
0001
1000
0100
0010
0100
,  // measure 87
1000
0001
0010
0100
0010
0001
0100
0010
,  // measure 88
0100
0001
1000
0100
0010
0001
0010
0100
,  // measure 89
1000
0010
0100
0001
0100
0010
1000
0010
,  // measure 90
0100
0001
1000
0100
0010
0100
1000
0010
,  // measure 91
0100
0010
0100
0001
0010
0100
0010
0100
,  // measure 92
1000
0010
0100
0001
1000
0100
0010
0001
,  // measure 93
0100
0010
1000
0100
0010
0001
1000
0100
,  // measure 94
1000
0001
0010
0100
1000
0001
0010
0001
,  // measure 95
1000
0100
0010
0001
1000
0001
0100
0010
,  // measure 96
1000
0001
0100
0010
1000
0001
0100
0010
,  // measure 97
1000
0001
1000
0100
1000
0001
0010
0001
,  // measure 98
1000
0010
0100
0001
0010
0100
1000
0100
,  // measure 99
1000
0001
0010
0100
1000
0010
0100
0001
,  // measure 100
0100
0001
0100
1000
0100
0010
0001
0010
,  // measure 101
1000
0010
0100
0001
0100
1000
0100
0010
,  // measure 102
1000
0010
0001
0010
0100
1000
0100
0001
,  // measure 103
0100
0010
1000
0010
0001
0010
0100
1000
,  // measure 104
0100
0001
0100
0010
1000
0010
0100
0001
,  // measure 105
0010
0100
1000
0100
0001
0100
0010
0001
,  // measure 106
0010
1000
0010
0100
1000
0100
0001
0100
,  // measure 107
0010
0001
0010
1000
0010
0100
1000
0100
,  // measure 108
0001
0100
1000
0100
0010
0100
1000
0010
,  // measure 109
0100
0001
0100
1000
0100
0001
0100
0010
,  // measure 110
1000
0010
0001
0010
1000
0010
0100
1000
,  // measure 111
0100
0001
0100
0010
1000
0100
0001
0100
,  // measure 112
0010
0001
0010
1000
0010
0100
1000
0100
,  // measure 113
0001
0100
0010
0001
0010
1000
0010
0100
,  // measure 114
1000
0100
0001
0100
0010
1000
0010
0100
,  // measure 115
0101
0000
0110
0000
0100
1000
1100
0000
,  // measure 116
0101
0000
0000
0000
;
