#TITLE:Stretched;
#SUBTITLE:;
#ARTIST:Infected Mushroom;
#GENRE:Psyrock;
#TITLETRANSLIT:;
#SUBTITLETRANSLIT:;
#ARTISTTRANSLIT:;
#CREDIT:;
#BANNER:stretched.png;
#BACKGROUND:stretched1.jpg;
#LYRICSPATH:;
#CDTITLE:;
#MUSIC:stretched.ogg;
#OFFSET:0.000;
#SAMPLESTART:79.940;
#SAMPLELENGTH:11.000;
#SELECTABLE:YES;
#BPMS:0.000=120.010;
#STOPS:;
#BGCHANGES:;

//---------------dance-single - Renard----------------
#NOTES:
     dance-single:
     Renard:
     Challenge:
     10:
     0.777,0.822,0.182,0.547,0.873:
0000
0000
0000
0000
,
0000
0000
0000
0000
,
0000
0000
0000
0000
,
0000
0000
0000
0000
,
1000
0100
1000
0010
0000
1000
0000
0001
0100
0001
1000
0000
0001
0000
1000
0000
,
0100
1000
0010
0100
0000
0001
0000
1000
0100
1000
0001
0000
1001
0000
0000
0000
,
0001
0010
0001
0100
0000
0001
0000
1000
0010
1000
0001
0000
1000
0000
0001
0000
,
0010
0001
0000
1001
0000
1000
0000
0001
0100
0010
0100
0010
0000
0000
0000
0000
,
1000
0100
0010
0001
0000
0000
0010
0100
0000
0100
0010
0000
0100
0000
0010
0000
,
0001
0010
0100
1000
0000
0000
0010
0100
0000
0100
0010
0000
0110
0000
0000
0000
,
1000
0100
0010
0001
0000
0000
0010
0100
0000
0100
0010
0000
0100
0000
0010
0000
,
0001
0010
0100
1000
0001
0000
1000
0000
0001
0100
0000
0000
1001
0000
0000
0000
,
1000
0000
0100
1000
0010
0000
0100
0001
0010
0000
0001
0000
1000
0000
0001
0000
,
1000
0000
0010
0000
0100
0000
0001
0000
1000
0001
1000
0001
1000
0000
0001
0000
,
0010
0000
0100
1000
0001
0000
1000
0001
0100
0000
0001
0000
1000
0000
0100
0000
,
1000
0010
1000
0010
0100
0000
0001
0100
0000
0001
0100
0000
1001
0000
0000
0000
,
1000
0000
0100
0010
0000
0000
0001
0000
1000
0100
0000
0000
0010
0000
0001
1000
,
0000
0000
0100
0000
0010
0001
0000
0000
1000
0000
0100
0010
0200
0000
0000
0000
,
1300
0000
0001
0100
0000
0000
0010
0000
1000
0001
0000
0000
0100
0000
0010
1000
,
0000
0000
0001
0000
0100
0010
0000
0000
1000
0000
0001
0100
0002
0000
0000
0000
,
0103
0000
0100
0010
0000
0000
1000
0000
1000
0001
0000
0000
0010
0000
0010
0100
,
0000
0000
1000
0000
1000
0010
0000
0000
0100
0000
0100
0001
1000
0000
0000
0000
,
0010
0000
0010
0100
0000
0000
0001
0000
0001
1000
0000
0000
0100
0000
0100
0010
,
0000
0000
0001
0000
0001
0100
0000
0000
0010
0000
0010
1000
0001
0000
0000
0000
,
1000
0000
0100
0000
0011
0000
0100
0000
1000
0000
0010
0100
0000
0001
0100
0000
,
0001
0000
0010
0000
1100
0000
0010
0000
0001
0000
0100
0010
0000
1000
0001
1000
,
0001
0000
1000
0000
0100
0000
0010
0000
0001
0000
0010
0100
0000
0010
0001
0000
,
1000
0000
0010
0100
0010
0000
0100
0000
0001
0000
1000
0001
0000
1000
0001
0000
,
0001
0000
0010
0000
1100
0000
0010
0000
0001
0000
0100
0010
0000
1000
0010
0000
,
1000
0000
0100
0000
0011
0000
0100
0000
1000
0000
0010
0100
0000
0001
1000
0001
,
1000
0000
0001
0000
0010
0000
0100
0000
1000
0000
0100
0010
0000
0100
1000
0000
,
0001
0000
0000
0000
0000
0000
0100
0000
0000
0010
0000
0000
0100
0000
0000
0000
0000
0000
0010
0000
0000
0000
0000
0000
1000
0000
0000
0000
0000
0000
0001
0000
1000
0000
0001
0000
2000
0000
0000
0000
0000
0000
0002
0000
0000
3000
0000
0000
,
2003
3200
0302
0203
0320
0032
0023
2030
,
3020
0032
0203
2300
0002
3000
0020
0003
,
2030
3020
0230
0302
2003
3200
0302
2003
,
3002
0203
2300
3020
0032
0000
0023
0000
,
2030
3002
0203
2300
3200
0320
2030
3020
,
0032
0023
0230
2300
3200
0302
0203
0320
,
2030
3200
0320
0032
0023
0230
2300
3000
,
1001
1001
0200
0301
,
0001
0000
0000
0100
0000
0000
0001
0000
0000
0100
0000
0000
0010
0000
1000
0000
0010
0000
1000
0000
0000
0000
0000
0000
0010
0000
0000
1000
0000
0000
0000
0000
0000
1010
0000
0000
0000
0000
0000
0001
0000
0000
1000
0000
0000
0100
0000
0000
,
0010
0000
0000
0001
0000
0000
0010
0000
0000
0001
0000
0000
1000
0000
0100
0000
1000
0000
0100
0000
0000
0000
0000
0000
1000
0000
0000
0100
0000
0000
0000
0000
0000
0011
0000
0000
0000
0000
0000
0001
0000
0000
0010
0000
0000
0100
0000
0000
,
1000
0000
0000
0100
0000
0000
1000
0000
0000
0100
0000
0000
0010
0000
0001
0000
0010
0000
0001
0000
0000
0000
0000
0000
1000
0000
0000
0100
0000
0000
0000
0000
0000
1100
0000
0000
0000
0000
0000
0010
0000
0000
0001
0000
0000
0100
0000
0000
,
0001
0000
0000
0100
0000
0000
0001
0000
0000
0100
0000
0000
0001
0000
1000
0000
0001
0000
1000
0000
0001
0000
1000
0000
0001
0000
0000
0100
0000
0000
0000
0000
0000
1001
0000
0000
0000
0000
0000
0001
0000
0000
1000
0000
0000
0001
0000
0000
,
1000
0000
0000
0010
0000
0000
1000
0000
0000
0010
0000
0000
0100
0000
0001
0000
0100
0000
0001
0000
0000
0000
0000
0000
0100
0000
0000
0001
0000
0000
0000
0000
0000
0101
0000
0000
0000
0000
0000
1000
0000
0000
0001
0000
0000
0010
0000
0000
,
0100
0000
0000
1000
0000
0000
0100
0000
0000
1000
0000
0000
0001
0000
0010
0000
0001
0000
0010
0000
0000
0000
0000
0000
0001
0000
0000
0010
0000
0000
0000
0000
0000
1100
0000
0000
0000
0000
0000
1000
0000
0000
0100
0000
0000
0010
0000
0000
,
0001
0000
0000
0010
0000
0000
0001
0000
0000
0010
0000
0000
0100
0000
1000
0000
0100
0000
1000
0000
0000
0000
0000
0000
0001
0000
0000
0010
0000
0000
0000
0000
0000
0011
0000
0000
0000
0000
0000
0100
0000
0000
1000
0000
0000
0010
0000
0000
,
1000
0000
0000
0010
0000
0000
1000
0000
0000
0010
0000
0000
1000
0000
0001
0000
1000
0000
0001
0000
1000
0000
0001
0000
1000
0000
0000
0010
0000
0000
0000
0000
0000
1001
0000
0000
0000
0000
0000
1000
0000
0000
0001
0000
0000
1000
0000
0000
,
0001
0100
0001
0100
0010
0100
0010
0100
0010
1000
0010
1000
0001
1000
0001
0000
,
1000
0100
1000
0100
0010
0100
0010
0100
0010
0001
0010
0001
1000
0001
1000
0000
,
0001
0100
0001
0100
0010
0100
0010
0100
0010
1000
0010
1000
0001
1000
0001
0000
,
1000
0100
1000
0100
0010
0100
0010
0100
0010
0001
0020
0000
0130
1000
0100
1000
;

//---------------dance-single - Renard----------------
#NOTES:
     dance-single:
     Renard:
     Hard:
     9:
     0.548,0.548,0.230,0.096,0.355:
0000
0000
0000
0000
,
0000
0000
0000
0000
,
1000
0000
0001
0000
0100
0000
0000
0000
0010
0000
0000
1000
0000
0100
1000
0000
,
0100
0000
1000
0000
0010
0000
0100
0001
0100
0001
0000
1000
0001
0000
1000
0000
,
0010
0000
0100
0000
0001
0000
0010
0000
0100
1000
0100
0000
1000
0000
0010
0000
,
0100
0000
0001
0000
1000
0000
0100
0000
1000
0001
1000
0000
0001
1000
0001
0000
,
1000
0000
0010
0000
0100
0000
0001
0000
0010
0001
0010
0000
0100
0000
1000
0000
,
0010
0000
0100
0000
0001
0000
1000
0000
0001
1000
0001
1000
0000
0000
0000
0000
,
0001
0100
0010
1000
0100
0010
0011
0100
,
0010
0010
1000
0010
0100
0001
1001
0100
,
0010
0010
1000
0100
0010
0010
0101
1000
,
0010
0100
1001
0010
1101
0000
1110
0000
,
1001
0100
0010
0010
0001
0010
0100
1000
,
0010
0100
1001
0010
0100
0100
0010
1000
,
0100
0010
1001
0010
0100
0001
1010
0001
,
0100
0010
1001
0100
0010
0010
1001
0000
,
1000
0000
0010
0100
0000
0000
0001
0000
0100
0010
0000
0000
1000
0000
0010
0100
,
0000
0000
0001
0000
0100
0010
0000
0000
1000
0000
0010
0100
0000
0000
0000
0000
,
0001
0000
0100
0010
0000
0000
1000
0000
0010
0100
0000
0000
0001
0000
0100
0010
,
0000
0000
1000
0000
0010
0100
0000
0000
0001
0000
0100
0010
0000
0000
0000
0000
,
1000
0000
0100
0010
0000
0000
0001
0000
0010
0100
0000
0000
1000
0000
0100
0010
,
0000
0000
0001
0000
0010
0100
0000
0000
1000
0000
0100
0010
0000
0000
0000
0000
,
0001
0000
0010
0100
0000
0000
1000
0000
0100
0010
0000
0000
0001
0000
0010
0100
,
0000
0000
1000
0000
0010
0100
0000
0000
0001
0000
1000
0001
0000
0000
0000
0000
,
1000
0000
0010
0000
0100
0000
0000
0000
0001
0000
0000
1000
0000
0001
1000
0000
,
0010
0000
0100
0000
0001
0000
0000
0000
1000
0000
0000
0001
0000
1000
0001
1000
,
0001
0000
1000
0000
0010
0000
0100
0000
0001
0000
0000
1000
0000
0001
1000
0000
,
0001
0000
1000
0000
0010
0000
0100
0000
0001
0000
0000
1000
0000
0001
1000
0001
,
1000
0000
0010
0000
0100
0000
0001
0000
1000
0000
0000
0001
0000
1000
0001
0000
,
1000
0000
0010
0000
0100
0000
0001
0000
1000
0000
0000
0001
0000
1000
0001
0000
,
1000
0000
0010
0000
0100
0000
0001
0000
1000
0000
0000
0001
0000
1000
0001
0000
,
1000
0010
0100
0001
1000
0000
1001
0000
,
1000
0010
0100
0001
0100
0010
1000
0010
,
0100
0001
0100
0010
1000
0100
0010
0001
,
0020
0000
0230
0000
,
2300
0000
3020
0230
,
0302
0000
0000
0000
,
2003
0000
3200
0000
,
0320
0000
0000
0000
,
0032
0000
0000
0000
0000
0000
0000
0003
0100
0001
0100
0001
0100
0000
0000
0000
,
0001
0000
1000
0000
0100
0000
0010
0000
0001
1000
0000
1001
0000
0000
1000
0000
,
0010
0000
0100
0000
0001
0000
0010
0000
0100
1000
0000
1001
0000
0000
1000
0000
,
0010
0000
0100
0000
0001
0000
1000
0000
0001
0100
0000
1001
0000
0000
1000
0000
,
0001
0000
0100
0000
0001
1000
0001
0000
1000
0010
0000
1001
0000
0000
1000
0000
,
0010
0000
0100
0000
0001
0000
0000
0000
1000
0001
0000
1001
0000
0000
0001
0000
,
1000
0000
0010
0000
0100
0000
0000
0000
0001
1000
0000
1001
0000
0000
1000
0000
,
0010
0000
0100
0000
0001
0000
0010
0000
0100
1000
0000
1001
0000
0000
1000
0000
,
0010
0000
0100
0000
0001
0000
1000
0000
0001
1000
0000
1001
0000
0000
1000
0000
,
0010
0000
0100
0000
0001
0000
1000
0000
0001
1000
0000
1001
0000
0000
1000
0000
,
0010
0000
0100
0000
0001
0000
0010
0000
0100
1000
0000
1001
0000
0000
1000
0000
,
0010
0000
0100
0000
0001
0000
1000
0000
0100
1000
0000
1001
0000
0000
1000
0000
,
0010
0000
0100
0000
0001
0000
0010
0000
0100
0000
1000
0000
0001
0100
0001
0100
;

//---------------dance-single - Renard----------------
#NOTES:
     dance-single:
     Renard:
     Medium:
     5:
     0.352,0.423,0.019,0.038,0.000:
0000
0000
0000
0000
,
0000
0000
0000
0000
,
0000
0000
0000
0000
,
0000
0000
0000
0000
,
1000
0000
0010
0000
0100
0001
0100
0000
,
0010
0000
1000
0000
0100
1000
0100
1000
,
0010
0000
0100
0000
0001
0000
0010
0001
,
0010
0001
0100
1001
,
1000
0000
0010
0000
0100
0001
0100
0010
,
1000
0000
0100
0000
0010
0001
0010
0000
,
0100
0000
1000
0000
0001
0100
0010
1000
,
0100
0000
0010
0000
0001
1000
0010
0000
,
1000
0000
0001
0000
0100
0001
1000
0010
,
1000
0000
0001
0000
0100
0001
1000
0100
,
0000
0000
0001
0000
0010
0100
1000
0010
,
0100
0001
0100
0010
1000
0001
1000
0000
,
0001
0100
0010
1000
,
0100
0000
0010
0000
0001
1000
0001
0000
,
0010
0100
1000
0010
,
0100
0000
0001
0000
1000
0001
1000
0000
,
0010
0010
0100
0100
,
0001
0001
1000
1000
,
0001
0100
0010
1000
,
0100
0000
0010
0000
0001
1000
0001
0000
,
1000
1000
0010
0100
,
0001
0001
0010
0100
,
1000
0000
1000
0010
0100
0000
0100
0001
,
0010
0000
0010
0100
1000
0010
0100
0000
,
0001
0100
0001
0100
0010
0100
0010
0100
,
0010
1000
0010
1000
0100
1000
0100
1000
,
0100
0010
0100
0010
0001
0010
0001
0010
,
0001
1000
0010
0100
0001
0000
1000
0000
,
0010
0010
0100
0100
,
0001
0100
1000
0200
,
0301
0000
0001
0000
,
0001
0000
0010
0000
1000
0000
0010
0020
,
0031
0000
0001
0100
,
0010
0000
0000
0010
1000
0000
0000
1000
,
0010
0100
0001
1000
,
0100
0010
0001
0000
2002
0000
3003
0000
,
1000
0000
0010
0000
0100
0001
0010
0100
,
1000
0000
0010
0000
0100
0001
0100
0001
,
0100
0000
0010
0000
1000
0100
0010
0001
,
0010
0000
0100
0000
1000
0010
0100
0001
,
1000
0000
0001
0000
0100
0010
1000
0000
,
0100
0000
0010
0000
0001
0010
0100
0000
,
1000
0000
0010
0000
0100
0001
1000
0000
,
1000
0100
0010
0000
0001
0010
0100
0000
,
1000
0000
0010
0000
0100
0001
0100
0001
,
0100
0000
0010
0000
1000
0100
1000
0000
,
0001
0010
0100
1000
0001
0010
0100
1000
,
0010
0000
0100
0000
0001
1000
0001
1000
;

//---------------dance-single - Renard----------------
#NOTES:
     dance-single:
     Renard:
     Easy:
     2:
     0.256,0.224,0.000,0.000,0.000: // measure 1
0000
0000
0000
0000
,  // measure 2
0000
0000
0000
0000
,  // measure 3
0000
0000
0000
0000
,  // measure 4
0000
0000
0000
0000
,  // measure 5
0100
1000
0001
0001
,  // measure 6
1000
0100
0001
0100
,  // measure 7
0100
0001
0010
1000
,  // measure 8
1000
0010
0001
0100
,  // measure 9
0100
1000
0001
0001
,  // measure 10
0100
0001
1000
1000
,  // measure 11
0001
0100
0010
0001
,  // measure 12
0100
1000
0010
0100
,  // measure 13
0100
0010
0001
0100
,  // measure 14
0100
0010
0001
0100
,  // measure 15
0001
0010
1000
0100
,  // measure 16
0001
0001
0100
0100
,  // measure 17
0010
0001
1000
0100
,  // measure 18
0001
1000
0010
0100
,  // measure 19
1000
0001
0100
1000
,  // measure 20
0001
0010
0100
0100
,  // measure 21
1000
1000
0001
0001
,  // measure 22
0010
0010
0100
0100
,  // measure 23
0010
0001
1000
0100
,  // measure 24
0001
1000
0010
0100
,  // measure 25
0100
0100
1000
0001
,  // measure 26
0010
0010
1000
0001
,  // measure 27
0100
0100
0001
0001
,  // measure 28
1000
1000
0100
0001
,  // measure 29
0010
0001
0001
0001
,  // measure 30
0001
0100
0100
0100
,  // measure 31
0100
0001
1000
1000
,  // measure 32
1000
0100
0001
0100
,  // measure 33
1000
1000
0001
0001
,  // measure 34
0010
0001
0100
0001
,  // measure 35
0010
0000
0010
0000
,  // measure 36
0010
1000
0100
1000
,  // measure 37
0010
0000
0010
0001
,  // measure 38
1000
0000
0100
0000
,  // measure 39
0100
0001
0010
0100
,  // measure 40
0001
1000
0100
0000
,  // measure 41
0100
1000
0001
1000
,  // measure 42
0100
1000
0001
0001
,  // measure 43
0001
1000
0100
0001
,  // measure 44
1000
0001
0100
0001
,  // measure 45
0100
0010
0001
0100
,  // measure 46
0001
1000
0010
0001
,  // measure 47
0100
1000
0001
0100
,  // measure 48
0100
0001
0010
0001
,  // measure 49
0100
1000
0001
0001
,  // measure 50
0001
1000
0100
0100
,  // measure 51
0010
0001
0100
0001
,  // measure 52
0100
0000
0001
0000
0010
0000
0100
0010
;
