#TITLE:Story;
#SUBTITLE:;
#ARTIST:MGD-Crew feat. Kitsune²;
#GENRE:Speed IDM;
#TITLETRANSLIT:;
#SUBTITLETRANSLIT:;
#ARTISTTRANSLIT:;
#CREDIT:;
#BANNER:;
#BACKGROUND:;
#LYRICSPATH:;
#CDTITLE:;
#MUSIC:story.ogg;
#OFFSET:0.010;
#SAMPLESTART:31.940;
#SAMPLELENGTH:12.000;
#SELECTABLE:YES;
#BPMS:0.000=180.000;
#STOPS:;
#BGCHANGES:;

//---------------dance-single - ----------------
#NOTES:
     dance-single:
     Renard:
     Hard:
     8:
     0.647,0.614,0.217,0.127,0.000:
0000
0000
0000
0000
,
0000
0000
0000
0000
,
0000
0000
0000
0000
,
0000
0000
0000
0000
,
1000
0000
0001
0000
1000
0010
0000
0100
,
0000
0001
0100
0010
0000
0010
1000
0000
,
0010
0100
0001
0000
0100
0000
0001
1000
,
0000
1000
0001
0000
1000
0000
0010
0000
,
0100
0000
0001
0100
0010
1000
0010
0000
,
1000
0100
1000
0000
0100
0010
0100
0000
,
0010
0001
1000
0010
,
0100
0001
0001
1000
,
1010
0000
0100
0000
0001
0010
0001
0000
,
0101
0000
1001
0000
0010
1000
0010
0000
,
1000
0000
0010
0000
0100
0000
0001
0010
,
0001
0000
0010
0100
0010
0000
0100
0000
,
1000
0010
1000
0010
0100
0000
0001
0000
,
0100
0001
1000
0000
0001
1000
0100
0000
,
1000
0000
0001
0000
0010
0000
0001
1000
,
0001
0000
1000
0010
1000
0010
0010
0010
,
1000
0010
1001
0110
,
1000
0010
0101
1010
,
1000
0100
0010
0000
0000
0000
0000
0000
,
0000
0000
0000
0000
,
1000
0001
0200
0000
0320
0000
2030
0000
,
3200
0320
0032
0013
,
0100
1000
0010
0100
0001
0100
0010
1000
,
0100
0010
0001
0010
0100
1000
0010
0100
,
0001
0000
0001
0100
0000
0100
0010
1000
,
0100
0000
0100
1000
0000
1000
0010
0100
,
0002
0000
0203
0320
,
0000
0030
1000
0000
0010
0000
0100
0001
,
0100
0020
2030
3200
,
0310
0002
0023
0130
,
1000
0000
0010
0100
0001
0000
0100
0010
,
1000
0100
0010
0001
0010
0100
1000
0010
,
0100
0000
0001
0100
0010
0100
1000
0100
,
0010
0100
0001
0100
0010
1000
0001
1000
,
0100
0000
0100
1000
0100
0000
0100
0010
,
0100
0000
0010
0001
0010
0000
0001
0010
,
0001
0010
0100
0010
0100
1000
0010
0100
,
0001
0100
0010
1000
0100
0001
0100
1000
,
0010
0001
0010
1000
0010
0100
0001
0010
,
1000
0010
0100
0010
0001
0100
0010
0100
,
0010
1000
0100
0010
0001
1000
0010
0100
,
1000
0100
0010
0001
1000
0100
0010
0100
,
0010
1000
0001
1000
0001
1000
0010
0100
,
0001
0010
0100
1000
0010
0100
0001
1000
,
0001
0100
0001
1000
0001
0010
1000
0010
,
0100
1000
0010
0100
0001
0010
0100
1000
,
0001
0010
1000
0010
0100
1000
0010
0100
,
1000
0001
1000
0100
0010
1000
0001
0010
,
1000
0001
0100
0010
0001
1000
0010
0100
,
0001
0010
0100
1000
0010
0100
0001
0010
,
1000
0001
0100
0010
0001
1000
0010
0100
,
1000
0100
0001
0100
0010
1000
0100
0010
,
0001
1000
0001
0000
1001
0000
1000
0010
,
0100
0001
0100
0000
1001
0000
1000
0100
,
0010
0001
1000
0000
1001
0000
1000
0010
,
0100
0010
0100
0000
1001
0000
1000
0100
,
1000
0000
1000
0000
1010
0000
0100
0001
,
0100
0000
0010
0000
0011
0000
0010
0100
,
1000
0000
1001
0000
1000
0010
0100
0000
,
1001
0000
0100
0010
0100
0000
1001
0000
,
1000
0100
0100
0010
0001
0001
0010
0100
,
1000
0100
0100
1000
0010
0010
0100
0001
,
0100
0000
0010
1000
0100
0000
0010
0001
,
0010
0000
0100
1000
0010
0000
0100
0001
,
0100
0010
0010
1000
0100
0100
0010
0001
,
1000
0001
0001
1000
0010
0010
0100
0001
,
0100
0000
0010
1000
0100
0000
1000
0010
,
0100
0001
1000
0001
1000
0001
1000
0000
,
0010
0100
0001
0000
1001
0000
1000
0100
,
0010
0001
0010
0000
1001
0000
0010
0001
,
0010
0000
0100
0000
1001
0000
1000
0010
,
0100
0010
0100
0000
1001
0000
1000
0010
,
0000
0010
0100
0000
1001
0000
1000
0100
,
0010
0001
0010
0000
1001
0000
0001
0010
,
0100
1000
0010
0000
1001
0000
1000
0010
,
0000
0010
0100
0000
1001
0000
0010
1000
,
0001
0000
0000
0000
;

//---------------dance-single - BlueChaos----------------
#NOTES:
     dance-single:
     BlueChaos:
     Challenge:
     10:
     0.886,0.759,0.307,0.226,0.452:
0000
0000
0000
0000
,
0000
0000
1000
0002
0000
0203
0010
0000
,
0310
1000
1100
0000
1100
1001
0000
0001
,
0100
0001
0101
0000
1001
0011
0000
0010
,
0011
0001
1001
0000
1000
1100
0000
1000
,
1010
0010
0100
0002
0000
2003
0100
0000
,
3100
1000
1010
0000
0010
1000
0000
0001
,
0010
0000
0100
1000
0000
0010
0100
0000
,
0001
0010
0100
1000
0100
0001
0100
0010
,
0001
0100
1000
0100
0010
0100
0001
0100
,
0010
1000
0100
0010
0100
1000
0100
0001
,
0100
1000
0001
0100
0010
0001
0010
1000
,
0100
0001
1000
0001
0100
1000
0100
0001
,
1000
0010
0001
0100
1000
0100
1000
0001
,
0010
0001
0010
1000
0100
0010
0001
1000
,
0100
0010
0001
0100
0010
0100
1000
0100
,
0010
0100
0001
0010
1000
0010
0100
0010
,
0001
0100
0010
1000
0100
0001
0100
1000
,
0001
0100
1000
0100
0001
0010
1000
0010
,
0100
1000
0100
0010
0001
1000
0010
0100
,
0001
0100
1000
0001
1000
0001
0010
1000
,
0100
0001
1000
0001
0100
0010
0001
0100
,
0002
0000
0200
0000
,
0020
0000
2000
3333
,
0101
0000
0000
0001
0100
0000
0000
0100
0010
0000
0000
0010
1000
0000
0000
1000
,
0100
1000
0010
0100
0001
0000
0000
0001
1000
0000
0000
1000
0100
0000
0000
0100
,
0010
0001
0100
0010
1000
0000
0000
1000
0100
0000
0000
0100
0010
0000
0000
0010
,
0001
0010
0100
1000
0001
0010
0200
0000
,
1300
0010
0100
0001
0010
0100
1000
0100
,
0010
0001
0010
0000
0001
0000
0100
0000
0010
0100
0010
0000
1000
0000
0100
0000
,
0010
0001
0010
0000
0001
0000
0100
0000
0010
0000
1000
0000
0100
0000
1000
0000
,
0010
0100
0010
0000
1000
0000
0001
0000
1000
0001
1000
0000
0002
0000
0000
0000
,
1003
0000
0000
0010
1000
0000
0000
1000
0001
0000
0000
0001
0100
0000
0000
0100
,
0010
1000
0100
0010
0001
0000
0000
0001
0100
0000
0000
0100
0001
0000
0000
0001
,
1000
0100
0010
0100
1000
0000
0000
1000
0010
0000
0000
0010
1000
0000
0000
1000
,
0100
0010
0100
0000
0010
0000
0001
0000
1000
0001
1000
0000
0020
0000
0000
0000
,
1030
0010
0100
0001
0010
1000
0010
0001
,
0100
0010
0100
0001
1000
0001
0010
1000
,
0010
0001
0100
0001
0100
1000
0100
1000
,
0100
0010
0100
0010
0100
0001
0100
0001
,
1000
0100
1000
0000
0001
0010
0001
0000
1000
0000
0001
0000
0100
0000
0010
0000
,
1000
0010
1000
0000
0001
0100
0001
0000
0100
0000
0001
0000
0010
0000
0100
0000
,
0010
0001
0010
0000
0100
1000
0100
0000
1000
0000
0010
0000
0100
0000
0001
0000
,
1000
0100
0010
0000
0100
0010
0001
0000
1000
0000
0010
0000
0100
0000
0001
0000
,
0100
0001
1000
0000
0001
1000
0100
0000
1000
0000
0100
0000
0010
0000
0001
0000
,
0100
0010
1000
0000
0001
0010
0100
0000
1000
0000
0100
0000
1000
0000
0001
0000
,
1000
0010
0100
0000
0010
0100
0001
0000
0100
0000
0001
0000
0010
0000
0100
0000
,
0010
0001
0100
0000
0001
0100
0010
0000
1000
0000
0001
0000
0100
0000
0010
0000
,
0100
0001
0100
0000
0001
0000
0010
0000
0100
0000
0010
0000
0001
0000
0100
0000
,
0010
1000
0010
0000
0100
0000
0001
0000
1000
0000
0100
0000
0010
0000
0001
0000
,
0010
0001
0010
0000
0001
0000
0100
0000
0010
0000
1000
0000
0001
0000
0010
0000
,
0100
0010
0100
0000
0010
0000
0001
0000
0101
0000
0000
0000
0100
0000
0001
0000
,
1001
1000
0100
0010
0011
0000
0001
0010
,
0011
0001
0100
0010
1010
0000
1000
0010
,
1010
1000
0100
0010
0110
0000
0010
0100
,
0110
0010
0100
1000
2002
0000
3003
0000
,
1001
0000
0000
0001
0100
0000
0000
0100
1000
0000
0000
1000
0100
0000
0000
0100
,
0001
0000
0000
0001
0010
0000
0000
0010
0001
0000
0000
0001
0010
0000
0000
0010
,
1000
0000
0000
1000
0010
0000
0000
0010
0100
0000
0000
0100
1000
0000
0000
1000
,
0010
0000
0000
0010
0001
0000
0000
0001
0010
0000
0000
0010
1000
0000
0000
1000
,
0100
0000
0000
0100
0010
0000
0000
0010
0100
0000
0000
0100
0001
0000
0000
0001
,
0100
0000
0000
0100
1000
0000
0000
1000
0010
0000
0000
0010
1000
0000
0000
1000
,
0002
0000
0000
0000
2000
0003
0010
3000
,
0010
1000
0010
0000
1000
0000
0100
0000
0010
0100
0010
0000
0200
0000
0000
0000
,
1300
0000
0010
0000
1000
0000
0001
0000
0010
0000
0100
0000
1000
0000
0100
0010
,
0001
0000
0010
0000
0001
0000
0100
0000
1000
0000
0100
0000
0001
0000
0100
0001
,
1000
0000
0001
0000
0010
0000
1000
0000
0010
0000
0001
0000
0100
0000
0001
0100
,
0010
0000
0100
0000
0001
0000
0010
0000
0100
0000
0010
0000
0001
0000
1000
0010
,
0100
0000
0001
0000
0010
0000
0100
1000
0001
0000
1000
0000
0001
0000
0010
0100
,
1000
0000
0100
0000
0010
0000
0001
0100
0010
0000
0100
0000
0001
0000
1000
0000
,
0100
0010
0002
0100
0000
0203
0010
0000
,
0310
1000
0010
1000
0001
0000
1000
0000
0001
1000
0001
1000
0200
0000
0000
0000
,
1300
0010
1010
0000
1010
1001
0000
0001
,
1000
0001
0101
0000
0101
0011
0000
0010
,
0001
1000
0200
0010
0000
0310
0002
0000
,
0013
0100
1000
0100
0010
0000
0100
0000
1000
0010
0100
0010
2000
0000
0000
0000
,
3001
1000
1100
0000
1100
1001
0000
0001
,
0100
0010
1010
0000
1010
1100
0000
0100
,
1000
0100
0020
0001
0000
0031
0200
0000
,
0310
1000
0100
0010
0001
0000
0010
0000
0001
0010
0100
1000
0002
0000
0000
0000
,
1003
0000
0000
0000
;

//---------------dance-single - BlueChaos----------------
#NOTES:
     dance-single:
     BlueChaos:
     Easy:
     4:
     0.232,0.325,0.009,0.127,0.000:
0000
0000
0000
0000
,
0000
1000
0000
0001
,
0000
0100
0000
0000
,
0000
0010
0000
0000
,
0000
1000
0000
0000
,
0000
0001
0000
1000
,
0000
0100
0000
0000
,
0000
1000
0000
0000
,
0000
0001
0000
0100
,
0000
0100
0000
0010
,
0000
1000
0000
0000
,
0000
0001
0000
0000
,
0000
1000
0000
0000
,
0000
0100
0000
0000
,
0000
0010
0000
0000
,
0000
0001
0000
0000
,
0000
1000
0000
0001
,
0000
0100
0000
0010
,
0000
1000
0000
0001
,
0000
1000
0000
0001
,
0000
1000
0000
0100
,
0000
0100
0000
0020
,
0000
0000
0000
0000
,
0000
0000
0031
0000
,
1000
0000
1000
0000
,
1000
0000
0000
0000
,
0001
0000
0001
0000
,
0001
0000
0000
0000
,
0100
0000
0100
0000
,
0100
0000
0010
0000
,
0010
0000
1000
0001
,
0000
0000
0000
0000
,
1000
0000
0100
0000
,
0010
0000
0001
0000
,
1000
0000
0001
0000
,
0100
0000
0010
0000
,
1000
0000
1000
0000
,
1000
0000
0001
0000
,
0010
0000
1000
0000
,
0002
0000
0203
0000
,
0301
0001
0000
1000
,
1000
1000
0000
0010
,
0010
0010
0000
0100
,
0100
0100
0000
0001
,
0001
0001
0000
0001
,
1000
1001
0000
0000
,
0001
0000
0100
0000
,
0010
0000
1000
0000
,
0001
0001
0001
0000
,
1000
1000
1000
0000
,
0100
0100
0100
0000
,
0010
0010
0010
0000
,
0001
0100
0001
0000
,
1000
0010
1000
0000
,
0001
1000
0001
0000
,
1000
0100
1000
0000
,
0002
0000
0100
0000
,
0103
0000
0010
0000
,
2000
0000
0100
0000
,
3100
0000
0010
0000
,
1000
0100
0010
0000
,
0100
0010
0001
0000
,
2000
0000
3001
0100
,
0020
0000
2030
0000
,
3001
0000
1000
0000
,
0100
0000
0010
0000
,
0001
0000
0000
0000
,
1000
0010
0100
0001
,
1000
0000
0100
0000
,
0100
0000
1000
0001
,
0000
0000
0100
0010
,
2000
0000
3002
0000
,
1003
0100
0100
0000
,
1000
0010
0010
0000
,
0100
0001
0001
0000
,
2000
0000
3200
0000
,
1300
1000
0001
0000
,
0001
0001
0100
0000
,
0010
0010
1000
0000
,
0200
0000
0320
0000
,
0030
0000
0000
0000
;

//---------------dance-single - BlueChaos----------------
#NOTES:
     dance-single:
     BlueChaos:
     Medium:
     6:
     0.494,0.506,0.190,0.108,0.000: // measure 1
0000
0000
0000
0000
,  // measure 2
0000
0000
1000
0001
0000
0001
0100
0000
,  // measure 3
0001
1000
0001
0000
0000
1100
0000
0000
,  // measure 4
0000
0000
1001
0000
0000
0101
0000
0000
,  // measure 5
0001
0010
0001
0000
0000
1001
0000
0000
,  // measure 6
0000
0000
1000
0100
0000
0100
0010
0000
,  // measure 7
0100
1000
0100
0000
0000
1100
0000
0000
,  // measure 8
0000
0000
1001
0000
0000
0110
0000
0000
,  // measure 9
1000
0100
0010
0001
,  // measure 10
0010
0100
1000
0000
0100
0000
0010
0000
,  // measure 11
0001
1000
0010
0100
,  // measure 12
0001
1000
0100
0000
1000
0000
0010
0000
,  // measure 13
0100
0001
1000
0000
0001
0000
0010
0000
,  // measure 14
0100
0010
0001
0000
0010
0000
0001
0000
,  // measure 15
0100
0010
1000
0000
0010
0000
0010
0000
,  // measure 16
0100
0001
1000
0000
0100
0000
0100
0000
,  // measure 17
0010
0001
1000
0000
0001
0000
0001
0000
,  // measure 18
1000
0000
0100
1000
0000
1000
0001
0000
,  // measure 19
1000
0001
1000
0000
0001
0000
0010
0000
,  // measure 20
0100
0010
0001
1000
,  // measure 21
0010
0100
0010
0100
0010
0000
0100
0000
,  // measure 22
0001
1000
0100
1000
,  // measure 23
0002
0000
0200
0003
,  // measure 24
0020
0000
0300
0000
2000
0030
0000
0000
,  // measure 25
3001
1001
0001
1000
,  // measure 26
0001
0100
0010
0000
1000
0000
0001
0000
,  // measure 27
1001
1000
0100
0010
,  // measure 28
0001
0100
0001
0000
1000
0100
2000
0000
,  // measure 29
0001
0001
3001
0000
,  // measure 30
0002
0000
0100
0000
0100
0000
0103
0010
,  // measure 31
2000
0000
3001
1001
,  // measure 32
1000
0100
1000
0000
0001
0010
0001
0000
,  // measure 33
1000
0000
1000
0000
1000
0000
1000
0010
,  // measure 34
0100
0000
0100
0000
0100
0000
0100
0001
,  // measure 35
0010
0000
0010
0000
0010
0000
0010
0100
,  // measure 36
1000
0100
0010
0000
0100
0010
0100
0000
,  // measure 37
0010
0000
0010
0000
0001
0000
0001
0100
,  // measure 38
0010
1000
0002
2000
,  // measure 39
0003
0000
3001
1000
,  // measure 40
0100
1000
0001
0000
0001
1000
0010
0000
,  // measure 41
1000
0000
1001
0000
0001
0100
0000
0100
,  // measure 42
0010
0000
1000
0000
0001
0010
0000
0010
,  // measure 43
0100
0000
1000
0000
0001
0100
0000
0100
,  // measure 44
0010
0000
0100
0000
0001
1000
0000
1000
,  // measure 45
0100
0000
0010
0000
0100
1000
0000
0100
,  // measure 46
0010
0000
0001
0000
0010
0001
0000
0010
,  // measure 47
0100
0000
1000
0000
0001
0100
0000
0010
,  // measure 48
1000
0000
0100
0000
1000
0010
0000
0100
,  // measure 49
0001
0000
1000
0000
0100
0010
0000
0000
,  // measure 50
0010
0000
0001
0000
0100
0010
0000
0000
,  // measure 51
0010
0000
1000
0000
0001
1000
0000
0000
,  // measure 52
0100
0000
1000
0000
0100
0010
0000
0000
,  // measure 53
0100
0000
0010
0000
0001
0100
0000
0000
,  // measure 54
0001
0000
1000
0000
0001
0100
0000
0000
,  // measure 55
0010
0000
0100
0000
0010
1000
0000
0000
,  // measure 56
0100
0000
0010
0000
0001
0100
0000
0000
,  // measure 57
0001
0100
1000
0100
,  // measure 58
0001
1000
0100
0001
,  // measure 59
0100
1000
0100
0010
,  // measure 60
0001
0100
0010
1000
,  // measure 61
0001
1000
0001
0000
1001
0000
0000
0000
,  // measure 62
1000
0100
1000
0000
1100
0000
0000
0000
,  // measure 63
2000
0000
3001
0101
,  // measure 64
0001
0100
1000
0000
1000
0100
0001
0000
,  // measure 65
0100
0100
0010
0010
,  // measure 66
1000
0100
0010
0000
0010
0000
0001
0000
,  // measure 67
0001
0100
0010
0000
0100
0000
0100
0000
,  // measure 68
0001
1000
0100
0000
1000
0000
1000
0000
,  // measure 69
0100
0010
0001
0000
0010
0000
0100
0000
,  // measure 70
1000
0010
0100
0000
0010
0000
0100
0000
,  // measure 71
0001
0000
1000
0100
0000
1000
0020
0000
,  // measure 72
1030
0010
0001
0000
0001
0010
1000
0000
,  // measure 73
0010
1000
0010
0000
0000
1001
0000
0000
,  // measure 74
0000
0000
0101
0000
0000
1001
0000
0000
,  // measure 75
1100
0000
0100
0010
0000
0001
0100
0000
,  // measure 76
0010
1000
0100
0000
0010
0001
0100
0000
,  // measure 77
0001
0100
0001
0000
0000
1100
0000
0000
,  // measure 78
0000
0000
1010
0000
0000
1001
0000
0000
,  // measure 79
0001
1000
0010
0100
0000
0100
0001
0000
,  // measure 80
1000
1000
1000
0000
0001
0001
0002
0000
,  // measure 81
1003
0000
0000
0000
;
