#TITLE:Stop It (I Like It);
#SUBTITLE:;
#ARTIST:Housebanner;
#GENRE:Dancepop;
#TITLETRANSLIT:;
#SUBTITLETRANSLIT:;
#ARTISTTRANSLIT:;
#CREDIT:;
#BANNER:stop.png;
#BACKGROUND:stop-bg.png;
#LYRICSPATH:;
#CDTITLE:;
#MUSIC:stop.ogg;
#OFFSET:-0.001;
#SAMPLESTART:38.729;
#SAMPLELENGTH:12.000;
#SELECTABLE:YES;
#BPMS:0.000=130.000;
#STOPS:;
#BGCHANGES:;

//---------------dance-single - Renard----------------
#NOTES:
     dance-single:
     Renard:
     Challenge:
     9:
     0.708,0.658,1.000,0.396,0.229:
0000
0000
0000
0000
,
0000
0000
0000
0000
,
0000
0000
0000
0000
,
0000
0000
0000
2200
,
0022
0000
0000
0300
0100
0233
3311
0000
,
1000
0000
0100
0000
0010
0000
0001
0010
0001
0000
0010
0000
0100
0000
1000
0000
,
1000
0000
0010
0000
0100
0000
0001
0010
0001
0000
0100
0000
0120
0000
0000
0000
,
1030
0000
0010
0000
0100
0000
0001
0000
0010
0000
0001
0010
0001
0000
0010
0000
,
0100
0000
1000
0000
0001
0000
0100
0000
0001
1000
0001
0000
1001
0000
0000
0000
,
0001
0000
0010
0000
0100
0000
1000
0100
1000
0000
0100
0000
0010
0000
0001
0000
,
0001
0000
0100
0000
0010
0000
1000
0100
1000
0000
0010
0000
0210
0000
0000
0000
,
0301
0000
0100
0000
0010
0000
1000
0000
0100
0000
1000
0100
1000
0000
0100
0000
,
0010
0000
0001
0000
1000
0000
0010
0000
1000
0001
1000
0000
1001
0000
0000
0000
,
1001
1000
1100
0100
0110
0010
0011
0001
,
0101
0100
0110
0010
1010
0000
1001
0000
,
1001
0001
0101
0100
0110
0010
1010
1000
,
1100
0100
0110
0010
0011
0001
1001
0000
,
1001
0001
0011
0010
0110
0100
1100
1000
,
1010
0010
0110
0100
0101
0001
1001
0000
,
1010
0010
0110
0100
0101
0001
0011
0010
,
0110
0100
1100
1000
2002
0000
3013
0000
,
1100
0000
0000
1010
0000
0000
1001
0000
0000
0101
0000
0000
0011
0000
1001
0000
,
0202
0000
0000
1010
0000
0300
0100
0000
0200
0000
0000
1010
0303
0000
0000
0000
,
0101
0000
0000
0110
0000
0000
1010
0000
0000
1100
0000
0000
0110
0000
0011
0000
,
2200
0000
0311
0100
0200
0000
3311
0000
,
1000
0000
0000
0001
0000
0100
0001
0000
0000
1000
0000
0100
1000
0000
0000
0001
0000
0010
0001
0000
0000
1000
0000
0010
,
1000
0100
0001
0010
1000
0000
2100
0000
,
3001
0000
0001
0100
0000
0100
0010
0000
1000
0000
0100
1000
0100
0000
1000
0000
,
0002
0100
0010
0100
1000
0100
0013
0000
,
2000
0100
0010
0100
0001
0100
3010
0000
,
1100
0100
0110
0010
0011
0001
0101
0100
,
0110
0010
1010
1000
2002
0000
3013
0000
,
1001
1000
1010
0010
0110
0100
0101
0001
,
0011
0010
0110
0100
2200
0000
3311
0000
,
1000
0001
0000
1001
0000
0000
0001
0000
1000
0001
0000
1001
0000
0000
1000
0000
,
0001
0010
0100
1000
2200
0000
3311
0000
,
1000
0010
0100
0001
0010
0100
0010
0001
,
0100
0001
1000
0001
0100
0001
1000
0000
,
0100
1000
0001
0100
0001
1000
0001
0000
,
0202
0000
0000
0000
0000
0000
0000
0000
1000
0010
0000
0010
1303
0000
0000
0000
,
0101
0000
0000
0110
0000
0000
1100
0000
0000
0110
0000
0000
0101
0000
1001
0000
,
2010
0000
0000
0200
0000
0000
0000
0000
0011
0000
0000
3311
0000
0000
0000
0000
,
1100
0000
0000
0110
0000
0000
0011
0000
0000
0110
0000
0000
1100
0000
0011
0000
,
0202
0000
1310
0100
0200
0000
1313
0000
,
0001
0000
0000
1000
0000
0100
1000
0000
0000
0001
0000
0100
0001
0000
0000
1000
0000
0010
1000
0000
0000
0001
0000
0010
,
0001
0010
1000
0100
0001
0010
1000
0100
,
0001
0000
0001
0010
0000
0010
0100
0000
0100
1000
0000
1000
0001
0000
1001
0000
,
2002
0000
0020
3000
2000
0030
0020
3033
,
1000
0000
1000
0100
0000
0100
0010
0000
0010
0000
0001
0100
0001
0000
1000
0000
,
1100
0010
0001
0100
1010
0100
0001
0010
,
2002
0000
3003
0000
;

//---------------dance-single - Renard----------------
#NOTES:
     dance-single:
     Renard:
     Hard:
     8:
     0.516,0.625,0.323,0.042,0.198:
0000
0000
0000
0000
,
0000
0000
0000
0000
,
0000
0000
0000
0000
,
0000
0000
0000
0000
0000
0000
0001
0100
,
0010
0000
0000
0000
0010
0000
0000
0000
1000
0100
0000
0100
1000
0000
0000
0000
,
0010
0000
0100
0000
0001
0000
0100
0000
0010
0000
1000
0000
0001
0000
1000
0001
,
1000
0001
0100
0010
1000
0000
0000
0000
,
0010
0100
0001
1000
0100
0010
0001
1000
,
0001
0000
1000
0000
0010
0000
0100
0010
0100
0000
0010
0000
1000
0000
0000
0000
,
0001
0100
0001
0000
1000
0100
1000
0000
,
0001
0010
0001
1000
0010
1000
0001
0000
,
1000
0001
1000
0000
0001
1000
0001
1000
,
0010
0100
0010
0100
0010
0000
0110
0000
,
1000
0000
0010
0000
0100
0000
0001
0000
0010
0000
0001
0010
0000
0001
0010
0000
,
0001
0000
0010
0000
0100
0000
1000
0000
0001
0000
0000
1000
0000
0000
0000
0000
,
0001
0000
0000
0100
0010
0000
1000
0000
0100
0000
1000
0100
0000
1000
0100
0000
,
1000
0010
0100
0001
0010
0000
0001
0000
,
0100
0010
0000
1000
0000
0010
0000
0100
0010
0000
0100
0001
0000
0100
0000
0010
,
0100
0010
1000
0100
0010
0001
0010
0100
,
1000
1000
0001
0001
0100
0100
0010
0010
,
1000
0100
0010
0001
1000
0000
1001
0000
,
0101
0000
0000
0110
0000
0000
1010
0000
0000
1100
0000
0000
0110
0000
0000
0000
,
0001
0000
0010
0000
0100
0000
1000
0000
0001
0000
0000
1000
0000
0000
0000
0000
,
0101
0000
0000
0110
0000
0000
1010
0000
0000
1100
0000
0000
0110
0000
0000
0000
,
0001
0010
0100
1000
0010
0000
0100
0000
,
0002
0200
0010
1000
,
1010
1010
1313
0000
,
0001
0000
0000
0100
0000
0000
0010
0000
0000
0000
1000
0000
0100
0000
0010
0000
,
0001
0000
0001
0000
0001
0000
0001
0010
,
0100
0000
0100
0000
0100
0000
0100
1000
,
0010
0010
0010
0010
,
0010
0000
0000
0000
0010
0000
0000
0000
0010
0000
0100
0001
0100
0000
0001
0100
,
0010
0010
0010
0010
,
0010
0000
0000
0000
0010
0000
0010
1000
0100
0000
0100
1000
0010
0000
0010
1000
,
0100
0100
0100
0100
0010
0010
0010
0010
,
0001
0100
0010
1000
0100
0000
0100
0000
,
1000
0010
0100
0001
0010
0100
1000
0010
,
0001
0010
0001
0010
1000
0010
1000
0010
,
1000
0100
0001
0100
1000
0010
0100
0001
,
0100
0000
0000
0000
0202
0000
0000
0000
0010
1000
0000
1000
0313
0000
0000
0000
,
0001
0000
0000
0100
0000
0000
0010
0000
0000
1000
0000
0000
0100
0000
0010
0000
,
0001
0000
0010
0000
0100
0000
1000
0000
0010
0000
0010
0100
0000
0000
0000
0000
,
0001
0100
0010
1000
0100
0010
0001
0010
,
0100
0000
0110
0000
0100
1000
0110
0000
,
0001
0100
0110
0100
0010
0010
1010
1000
,
1100
0100
0110
0010
0011
0001
0101
0001
,
1001
0000
0000
1010
0000
0000
0101
0000
0000
0000
1000
0000
0100
0000
0010
0000
,
0001
0000
0000
1000
0001
0000
0100
0000
0010
0000
1000
0000
0100
0000
0010
0000
,
0011
0000
0000
0110
0000
0000
1010
0000
0000
0000
0010
0000
0001
0000
0100
0000
,
0010
0000
0000
0010
1000
0000
0010
0000
0100
0000
0000
0001
0010
0000
0100
0000
,
1001
0000
0000
0000
;

//---------------dance-single - Renard----------------
#NOTES:
     dance-single:
     Renard:
     Medium:
     6:
     0.371,0.417,0.302,0.115,0.000:
0000
0000
0000
0000
,
0000
0000
0000
0000
,
0000
0000
0000
0000
,
0000
0000
0000
1010
,
2200
0000
0000
3311
,
1000
0000
1000
0000
1000
0000
1000
0010
,
0100
0000
0100
0000
0100
0000
0100
0001
,
0010
0000
0010
0000
0010
0000
0010
0001
,
0100
0000
0100
0000
0100
0000
0100
0100
,
0001
0000
0001
0000
0001
0000
0001
0001
,
0010
0000
0010
0000
0010
0000
0010
0010
,
0100
0000
0100
1000
0010
0000
0010
0100
,
0001
0000
1000
0000
0001
1000
0001
1000
,
0001
0000
0001
0000
0001
1000
0001
0000
,
1001
0000
1000
0000
1000
0001
1000
0000
,
1001
0000
0001
0000
0001
1000
0001
0000
,
0110
1000
0110
0001
,
0110
0000
1010
0000
,
0001
0100
0010
0000
0100
0000
0000
0000
,
0010
1000
0100
0000
1000
0100
1000
0000
,
0001
0010
0001
0010
0001
0000
1001
0000
,
1010
0101
1001
1100
,
0010
0000
0001
0100
0001
0000
0100
0000
,
0010
0000
1000
0000
0100
0000
0010
0001
,
0010
0100
1000
0010
,
0200
0000
0302
0000
,
1003
0000
0200
0000
0310
0020
0000
0000
,
0032
0000
0000
0000
,
0103
0200
0010
0000
0010
0000
0010
0010
,
0010
0010
0310
0000
,
1000
0000
0010
0000
0100
0000
0001
1000
,
0001
0000
1000
0100
1000
0000
0001
0010
,
0001
0000
0100
0000
0110
0000
1000
0100
,
1000
0000
0100
0010
0100
0000
0010
0001
,
0010
0000
0001
0000
0100
0000
0010
1000
,
0010
0000
1000
0100
1000
0000
0100
0010
,
0100
0010
0001
0100
,
1001
0010
1001
1100
,
0011
0100
0010
1000
,
0202
0000
0000
0000
0010
1000
0313
0000
,
0101
0101
0101
0101
,
0110
0000
1000
0000
0100
0010
0001
0010
,
0100
0100
0100
0100
,
0010
0020
0000
0000
0000
0000
0000
0000
,
0001
0001
0100
0100
,
1000
0000
1000
0000
0100
0000
0100
0030
,
0001
0000
0001
0000
0001
0000
0100
0010
,
1000
1000
1000
1000
,
0110
0101
1001
1000
,
0100
0010
0001
0000
0010
0100
1000
0000
,
1001
0000
0000
0000
;

//---------------dance-single - Renard----------------
#NOTES:
     dance-single:
     Renard:
     Easy:
     3:
     0.366,0.417,0.677,0.094,0.000: // measure 1
0000
0000
0000
0000
,  // measure 2
0000
0000
0000
0000
,  // measure 3
0000
0000
0000
0000
,  // measure 4
0000
0000
0000
0101
,  // measure 5
0011
0000
0000
1100
,  // measure 6
0001
0001
0001
0001
,  // measure 7
0110
0010
0010
0010
,  // measure 8
1100
0100
0100
0100
,  // measure 9
1010
0010
0010
0010
,  // measure 10
1010
1000
1000
1000
,  // measure 11
1100
0100
0100
0100
,  // measure 12
0110
0010
0101
0100
,  // measure 13
1010
0001
1000
1001
,  // measure 14
1001
1000
1000
1001
,  // measure 15
1001
0001
0001
1001
,  // measure 16
1001
1000
1000
1001
,  // measure 17
0110
0001
0110
1000
,  // measure 18
0110
0000
0101
0000
,  // measure 19
1000
0110
0010
0000
,  // measure 20
0100
0011
0001
0011
,  // measure 21
1000
1100
1100
1001
,  // measure 22
0101
1010
1001
0011
,  // measure 23
0100
1000
1010
0010
,  // measure 24
0100
0001
0010
0100
,  // measure 25
1100
0010
0001
0100
,  // measure 26
0020
0000
2030
0000
,  // measure 27
3001
0020
0130
0200
,  // measure 28
2300
0000
0000
0000
,  // measure 29
3010
0120
0100
0100
,  // measure 30
0100
0100
0130
0000
,  // measure 31
0001
0100
0010
1000
,  // measure 32
1001
0001
0011
1000
,  // measure 33
1100
0010
0110
0001
,  // measure 34
0011
0010
0110
0100
,  // measure 35
1100
1000
0010
0100
,  // measure 36
0101
0001
0011
0010
,  // measure 37
0110
0100
1000
0010
,  // measure 38
1001
0100
1001
0011
,  // measure 39
1100
0010
0100
0001
,  // measure 40
2020
0000
0100
3131
,  // measure 41
1010
1010
1010
1010
,  // measure 42
0110
0001
0010
1100
,  // measure 43
0110
0010
0010
0010
,  // measure 44
0100
0200
0000
0000
,  // measure 45
1000
1000
0010
0010
,  // measure 46
0001
0001
0010
0010
,  // measure 47
1300
1000
1000
0010
,  // measure 48
0101
0001
0001
0001
,  // measure 49
0110
1010
1001
0001
,  // measure 50
0010
1100
0100
0011
,  // measure 51
1001
0000
0000
0000
;
