#TITLE:Starshine;
#SUBTITLE:;
#ARTIST:Emoticon;
#GENRE:Ryustyle;
#TITLETRANSLIT:;
#SUBTITLETRANSLIT:;
#ARTISTTRANSLIT:;
#CREDIT:;
#BANNER:star.png;
#BACKGROUND:star-bg.png;
#LYRICSPATH:;
#CDTITLE:;
#MUSIC:star.ogg;
#OFFSET:0.000;
#SAMPLESTART:11.848;
#SAMPLELENGTH:12.000;
#SELECTABLE:YES;
#BPMS:0.000=182.000,137.000=91.000,169.000=182.000;
#STOPS:132.000=0.989
;
#BGCHANGES:;

//---------------dance-single - Renard----------------
#NOTES:
     dance-single:
     Renard:
     Challenge:
     10:
     0.815,0.988,0.626,0.022,0.330:
0000
0000
0000
0000
,
0100
1000
0001
1000
0010
1000
0100
0010
,
0000
0110
0000
0010
0100
1000
0001
0000
,
0100
0001
0100
0000
0010
1000
0010
0100
,
0000
0101
0000
0100
0010
1000
1010
0000
,
0010
0001
1000
0001
0100
0001
0010
0100
,
0000
0110
0000
0100
0010
0001
1000
0000
,
0001
0010
0100
1000
0001
0010
0100
1000
,
0001
0010
0100
1000
1000
0100
0010
0001
,
1001
0000
1001
0000
1010
0000
0101
0011
,
0000
0011
0000
0101
0000
1001
1001
0000
,
1000
0010
0100
0001
0010
0100
1000
0010
,
0000
1010
0000
0100
0001
0010
0100
0000
,
1100
0000
0011
0000
1001
0000
1010
1001
,
0000
0101
0000
0011
0000
1001
1001
0000
,
1000
0010
0100
0001
0010
0001
0100
0010
,
1000
0000
0100
0000
1000
0000
0010
0000
0100
0000
0001
0010
0001
0000
0010
0001
,
0010
0001
0100
0001
0010
0001
0100
0001
,
0010
0001
0100
0001
0010
0001
0100
0000
,
0010
1000
0100
1000
0010
1000
0100
1000
,
0010
1000
0100
1000
0010
1000
0100
0000
,
1000
0100
0010
0001
0010
0100
1000
0010
,
0010
0100
0001
0010
0010
0001
0100
0010
,
1000
1000
0100
0010
0001
0001
0010
0100
,
1000
0000
0001
0010
0001
0010
0001
0010
0001
0000
0000
0000
1001
0000
0000
0000
,
0100
0000
0000
1000
0000
0000
0100
0000
0001
0000
0001
0000
0001
0000
0100
0000
,
1000
0000
0010
0000
0100
0000
0001
0000
1000
0001
1000
0000
0001
0000
0010
0000
,
0100
0000
0000
0000
1000
0000
0100
0000
1000
0000
0010
1000
0010
0000
0100
0000
,
0001
0000
0010
0000
0001
0000
0001
0010
0100
0000
1000
0000
1000
0000
0001
0000
,
1000
0000
0000
1000
0000
0000
1000
0000
0001
0000
0010
0000
0001
0000
0100
0000
,
0000
0000
0100
0000
0010
0000
1000
0000
0001
0010
0001
0000
0010
0000
0100
0000
,
1000
0001
0100
0010
1000
0100
1000
0010
,
0000
1010
0000
1100
1001
1001
1001
0000
,
2020
3030
0000
0000
0000
0000
0000
0000
1001
0000
0000
0000
0001
0000
1000
0000
0001
0000
0000
0000
1000
0000
0001
0000
1000
0000
0000
0000
0001
0000
0100
0000
,
0001
0000
0000
1000
0000
0000
0001
0000
0001
0100
0000
0000
1010
0000
0000
1000
0000
1000
0010
0000
0010
0100
0000
0000
,
1001
0000
0000
0001
0000
0001
0100
0000
0000
0100
0000
0000
1010
0000
0000
0010
0000
0010
1000
0000
0010
1000
0000
0000
,
1001
0000
0000
1001
0000
0000
1000
0000
1000
0010
0000
0000
0101
0000
0000
0001
0000
0001
0100
0000
0100
0010
0000
0000
,
1001
0000
0000
1000
0000
1000
0010
0000
0000
0010
0000
0000
0101
0000
0000
0100
0000
0100
0001
0000
0100
0001
0000
0000
,
1001
0000
1001
0000
1000
0100
0010
0001
0010
0000
0010
0000
0100
1000
0001
0100
,
0001
0000
0001
0100
0100
0000
0100
0000
0010
0000
0010
1000
0100
0010
0001
0010
,
0100
0000
0100
0000
1000
0000
0010
0100
0001
0000
0001
0100
0010
1000
0010
0000
,
0100
0001
0100
0000
0010
1000
0100
0000
0010
0001
0010
0000
0100
1000
0001
0100
,
0001
1000
0101
0000
1010
0000
1100
0000
,
0001
0010
0000
0011
0000
1001
0000
0000
,
1010
0010
0110
0000
0101
0000
0001
0010
,
0000
0011
0000
0110
0000
1100
0000
1001
,
1001
0000
0001
0100
0010
0100
1000
0100
,
0010
1000
0100
0010
0001
0100
0010
0001
,
0010
1000
0010
0100
0001
0010
0100
0001
,
0100
1000
0100
0010
1000
0010
0001
0010
,
0100
0000
1000
0000
0100
0000
0100
1000
0000
1000
0100
0000
0010
0000
0001
0000
,
0010
0000
0100
0000
1000
0000
0001
0000
0100
0000
0001
0000
0001
0010
0100
0000
,
0100
1000
0010
1000
0001
0100
0001
0001
,
0010
0000
0001
0000
0100
0000
0010
0000
1000
0000
0100
0000
0010
0000
0001
1000
,
0001
0000
0100
0000
0010
0000
1000
0010
0000
0010
1000
0000
0010
0000
0100
0000
,
0001
0000
0010
0000
0100
0000
1000
0000
0010
0000
0100
0000
0001
1000
0001
0000
,
1000
0000
0010
0000
0100
0001
0100
0001
0100
0010
1000
0010
1000
0100
0010
0001
,
1000
0001
0100
0001
1000
0001
0010
0100
1000
0001
0100
0000
1001
0000
1001
0000
,
1001
0000
0000
0000
;

//---------------dance-single - Renard----------------
#NOTES:
     dance-single:
     Renard:
     Hard:
     9:
     0.645,0.861,0.341,0.000,0.214:
0000
0000
0000
0000
,
1000
0000
0010
0000
0100
0001
1000
0100
,
0000
0100
1000
0010
0000
0010
0100
0000
,
0001
0000
1000
0000
0100
0000
1000
0000
0001
0000
1000
0001
1000
0000
0001
0000
,
1000
0010
0100
0001
1000
0100
1000
0001
,
0010
0000
0101
0000
0010
0000
1000
0100
,
0000
0100
0010
0001
0010
0100
1000
0000
,
0010
0010
0100
0100
0001
0001
1000
1000
,
0001
0010
0100
1000
0100
0010
0001
0000
,
1010
0000
0101
0000
1001
0000
1000
0100
,
0000
0010
0000
0001
0000
0100
0010
1000
,
0001
0000
1010
0000
0100
0001
0000
1010
,
0000
1100
0000
0010
0000
0001
0100
0000
,
1001
0000
1100
0000
0011
0000
1000
0001
,
0000
0110
0000
1010
0000
0000
0100
0001
,
0100
0000
0010
0000
1000
0100
0000
0011
,
0000
0100
1000
0010
0000
0100
0001
0000
,
0100
0000
0100
0000
0010
1000
0100
0010
,
0000
0100
0000
1000
0000
0010
0100
0001
,
0100
0000
0010
0000
1000
0100
0010
0001
,
0000
1000
0000
0001
0000
0010
0100
1000
,
0010
0000
0100
0000
0001
0100
0010
1000
,
0000
0100
0010
0001
0000
0010
0100
1000
,
0010
0000
0100
0000
0001
0100
0010
1000
,
0001
0000
0000
0000
1000
0001
1000
0001
1000
0000
0000
0000
0001
0000
0000
0000
,
1000
0000
0000
1000
0000
0000
1000
0000
0010
0000
0100
0000
0001
0000
0010
0000
,
0000
0100
1000
0010
0100
0001
0100
0010
,
1000
0000
0100
0010
0001
0010
0000
0100
,
0000
1000
0000
0010
0100
0001
1000
0100
,
1000
0000
0000
0001
0000
0000
0010
0000
0001
0000
1000
0000
0010
0000
0100
0000
,
0000
0000
0001
0000
0000
0000
1000
0000
0100
1000
0100
0000
1000
0000
0010
0000
,
0100
0000
0000
0001
0000
0000
0010
0000
0100
0000
1000
0000
0000
0000
0010
0000
,
0000
0100
0000
0001
1000
0001
1000
0000
,
1010
0000
0101
0000
0001
0100
0010
1000
,
0100
0000
0010
0000
0001
0000
0000
0000
0010
0000
0000
0100
1000
0010
0100
0000
,
0001
0000
0000
0000
0100
0000
0010
0000
1000
0000
0100
1000
0010
0100
0001
0000
,
1000
0000
0001
0000
0100
0000
0100
0000
0010
0000
1000
0001
1000
0001
1000
0000
,
1001
0000
1000
0010
0100
0000
0010
0000
0110
0000
0010
0100
0001
0100
0001
0000
,
0101
0000
0001
0000
1000
0100
1000
0000
1100
0000
0001
0010
0001
0000
0011
0000
,
0001
0100
0001
0000
0100
0010
0100
0000
0110
0000
0010
1000
0010
0000
1010
0000
,
1000
0100
1000
0000
0001
0010
0001
0000
0100
0000
0001
0000
1000
0010
0000
0101
,
0000
0000
1010
0000
1100
0000
0000
0000
0010
0000
0000
0000
0001
0010
0000
0100
,
0000
1000
0000
0010
0100
0000
0000
0000
0001
0000
0000
0000
0100
0000
0000
0000
,
0010
0100
0000
0010
0000
1010
0000
0000
,
1000
0010
0100
0000
0001
0000
0010
0100
,
0000
0110
0000
0011
0000
1001
0000
0010
,
1000
0000
0000
0000
0001
0000
0000
0001
0100
0000
0010
0000
1000
0000
0100
0000
,
0010
0000
0001
0000
1000
0000
0000
1000
0001
0000
0010
0000
0100
0000
1000
0000
,
0010
0000
0000
0000
0100
0000
0000
0100
0001
0000
1000
0000
0100
0000
0000
0100
,
1000
0000
0010
0000
0100
0000
0000
0100
0001
0000
0010
0000
0100
0000
1000
0000
,
0010
0000
0000
0000
0100
0000
0000
0001
0000
0000
0100
0000
0010
0000
1000
0000
,
0100
0000
0010
0000
0000
0000
0001
0000
1000
0000
0001
0000
0100
0001
0100
0000
,
0001
0100
0010
0000
1000
0100
0010
0001
,
0000
0011
0000
0110
0000
0100
1000
0010
,
0100
0000
0001
0000
1000
0000
0000
0100
0000
0000
1000
0000
0010
0000
0100
0000
,
0001
0000
0010
0000
0000
0000
0100
0000
1000
0000
0010
0000
0100
0001
0100
0000
,
0010
0100
0001
1000
0010
0100
0001
1000
,
0100
0000
0010
0000
0001
0000
1000
0001
1000
0000
0001
0000
1000
0000
0010
0000
,
0100
0000
0000
0000
;

//---------------dance-single - Renard----------------
#NOTES:
     dance-single:
     Renard:
     Medium:
     7:
     0.405,0.478,0.077,0.000,0.000:
0000
0000
0000
0000
,
1000
0000
1000
0000
0001
0000
0100
0010
,
0000
1000
0000
0010
0000
0100
0001
0000
,
0100
0010
1000
0100
,
0010
0000
0001
0000
1000
0001
1000
0000
,
0001
0000
0100
0000
0010
0000
1000
0100
,
0000
1000
0000
0010
0000
0100
0001
0000
,
0100
0010
1000
0100
,
0010
0000
0010
0000
0001
1000
0001
0000
,
1000
0000
0010
0000
0100
0000
0001
1000
,
0000
1001
0000
1000
0000
0000
0010
0000
,
0100
0000
0001
0000
0010
0000
0100
1000
,
0000
0001
0000
1000
0000
0010
1000
0000
,
0001
0000
0100
0000
0010
0000
1000
0001
,
0000
1001
0000
1000
0000
0000
0010
0100
,
0001
0000
0100
0000
0010
0000
1000
0100
,
0000
1000
0000
0010
0000
0100
0001
0000
,
1000
1000
0001
0001
,
0100
0010
0100
0010
,
1000
1000
0001
0001
,
0100
0010
0100
0000
0010
0000
0000
0000
,
0100
0100
0010
0010
,
1000
0001
1000
0001
,
0100
0100
0010
0010
,
1000
0000
0001
1000
0001
0000
0000
0000
,
1000
0000
0010
0100
,
0001
0000
1000
0000
0100
1000
0100
0000
,
1000
0000
0010
0100
,
0001
0000
0010
0001
0010
0000
0001
1000
,
0001
0000
1000
0010
,
0100
0000
0000
0000
0001
0000
0010
0100
,
1000
0000
1000
0010
,
0100
0000
0001
0000
1000
0001
1000
0000
,
1001
1000
0010
0100
,
0001
1000
0001
0000
0100
0000
0010
0000
,
0010
0010
0110
0010
,
0110
1000
0100
0010
,
0010
0100
0110
0010
,
0110
0000
0010
0001
0100
0010
1000
0100
,
0010
0001
1000
0000
0001
0000
1000
0000
,
0001
0000
0001
0100
0010
1000
0100
0010
,
0001
0000
0001
0010
0100
1000
0010
0100
,
0001
1000
0001
0000
0100
0000
0001
0000
,
1000
0100
0000
1000
0000
0010
0000
0000
,
0100
0000
0001
0000
1000
0000
0100
1000
,
0000
0001
0000
0100
0000
0010
0000
1000
,
0001
1000
1000
0010
,
0100
0001
0000
0100
0000
0010
0000
0000
,
1000
0100
0010
0001
,
1000
0000
0010
0000
0100
0000
0001
1000
,
0001
0100
0010
1000
,
0100
1000
0000
0010
0000
0100
0000
0000
,
0001
0100
0010
1000
,
0100
0010
0001
1000
,
0010
0100
0100
0001
,
1000
0001
0000
0100
0000
0010
0000
0000
,
1000
0100
1000
0010
,
0100
0000
0001
0000
1000
0000
0001
0100
,
0001
0000
0000
0000
;

//---------------dance-single - Renard----------------
#NOTES:
     dance-single:
     Renard:
     Easy:
     3:
     0.405,0.478,0.396,0.000,0.000: // measure 1
0000
0000
0000
0000
,  // measure 2
0001
0001
1000
0010
,  // measure 3
0100
0001
0100
1010
,  // measure 4
0010
0100
0001
0010
,  // measure 5
0100
1000
0001
1001
,  // measure 6
1000
0010
0100
0001
,  // measure 7
0010
0001
0100
1010
,  // measure 8
0010
0100
0001
0010
,  // measure 9
0100
0100
1000
1001
,  // measure 10
0001
0100
0010
1000
,  // measure 11
0001
1001
0001
0100
,  // measure 12
0010
1000
0100
0010
,  // measure 13
0001
1000
0001
0101
,  // measure 14
1000
0010
0100
0001
,  // measure 15
1000
1001
0001
0100
,  // measure 16
1010
0010
0100
0001
,  // measure 17
0010
0001
0100
1010
,  // measure 18
0001
0001
1000
1000
,  // measure 19
0010
0100
0010
0100
,  // measure 20
0001
0001
1000
1000
,  // measure 21
0010
0110
0100
0000
,  // measure 22
0010
0010
0100
0100
,  // measure 23
0001
1000
0001
1000
,  // measure 24
0010
0010
0100
0100
,  // measure 25
0001
1000
1001
0000
,  // measure 26
0001
0000
0100
0010
,  // measure 27
1000
0001
0010
0011
,  // measure 28
0001
0000
0100
0010
,  // measure 29
1000
0100
1100
1000
,  // measure 30
1001
0000
0001
0100
,  // measure 31
0010
0000
1000
0100
,  // measure 32
0011
0000
0001
0100
,  // measure 33
0010
1000
0001
1001
,  // measure 34
1001
0001
0100
0010
,  // measure 35
1000
1001
0010
0100
,  // measure 36
0100
0100
0110
0100
,  // measure 37
0110
0001
0010
0100
,  // measure 38
0100
0010
0110
0100
,  // measure 39
0110
0100
1010
0101
,  // measure 40
0110
1001
1000
0001
,  // measure 41
1000
1000
0110
0011
,  // measure 42
1100
1000
0110
0101
,  // measure 43
1010
1001
0010
1000
,  // measure 44
0001
0010
0001
0100
,  // measure 45
0010
1000
0001
0010
,  // measure 46
0001
1000
0010
0100
,  // measure 47
1001
0001
0001
0100
,  // measure 48
0010
1000
0010
0100
,  // measure 49
0001
0010
0100
1000
,  // measure 50
0001
0100
0010
1000
,  // measure 51
1001
0010
0100
0001
,  // measure 52
0010
0001
0100
0010
,  // measure 53
1000
0010
0100
0001
,  // measure 54
0010
0100
1000
0001
,  // measure 55
0100
0010
0010
1000
,  // measure 56
0001
1000
0010
0100
,  // measure 57
0001
0010
0001
0100
,  // measure 58
0010
1000
0001
1000
,  // measure 59
1010
0000
0000
0000
;
