#TITLE:Space Boy;
#SUBTITLE:;
#ARTIST:Dave Rodgers;
#GENRE:Eurobeat;
#TITLETRANSLIT:;
#SUBTITLETRANSLIT:;
#ARTISTTRANSLIT:;
#CREDIT:;
#BANNER:space.png;
#BACKGROUND:space-bg.png;
#LYRICSPATH:;
#CDTITLE:;
#MUSIC:spaceboy.mp3;
#OFFSET:-5.583;
#SAMPLESTART:54.250;
#SAMPLELENGTH:12.000;
#SELECTABLE:YES;
#BPMS:0.000=155.000;
#STOPS:26.000=0.400
,27.000=0.400
;
#BGCHANGES:;

//---------------dance-single - Devil`ize----------------
#NOTES:
     dance-single:
     Devil`ize:
     Challenge:
     11:
     0.914,0.877,0.645,0.174,0.737:
0000
0000
0000
0000
,
0000
0000
0000
0000
,
0000
0000
1000
1100
0100
0000
0000
0000
,
0000
0000
0000
0000
,
0001
1000
0001
0000
1000
0001
1000
0000
0010
0100
0010
0000
0110
0000
0100
0000
,
1000
0100
0010
0001
0010
0100
1000
0010
,
0100
0000
0000
0000
0000
0000
0000
0000
0001
0000
0000
0000
0000
0000
0000
0000
0010
0000
0000
0000
0000
0000
0000
0000
0100
0000
0000
0000
1000
0000
0000
0000
0200
0000
0000
0000
0000
0000
0000
0000
0000
0000
0000
0000
0000
0000
0000
0300
0020
0000
0000
0000
0000
0000
0000
0000
0000
0000
0000
0000
0000
0000
0000
0000
,
1030
0000
0010
0000
0100
0000
0001
0010
0100
0000
1000
0000
0100
0000
0010
0000
,
0001
0010
0001
0100
0001
1000
0001
0000
0000
0000
1100
0000
0000
0000
1100
0000
,
0110
0000
0010
0000
0001
0000
0010
0100
1000
0000
1000
0100
0010
0000
1000
0010
,
1000
0010
1000
0001
1000
0010
0100
0001
0010
0100
1000
0010
0100
0001
0100
0010
,
1000
0000
0100
0000
0110
0000
0010
0000
0001
0000
0010
0100
1000
0000
1100
0000
,
0100
0000
0010
0000
0100
0000
0001
0000
0011
0000
0001
0010
0100
0000
1000
0100
,
0010
0001
0010
0100
1000
0000
0100
0000
0110
0000
0010
0000
0001
0000
0010
0000
,
2200
0000
0000
0000
0000
0000
0000
0000
0010
0000
0000
0000
0001
0000
0000
3300
,
0010
0000
1000
0000
0100
0000
0010
0000
0001
0000
0100
0010
1000
0010
0100
0010
,
1000
0000
0010
0000
0100
0000
0001
0000
0010
0000
0100
1000
0100
0010
0001
0010
,
0100
0000
1000
0000
0010
0000
1000
0000
0001
0000
1000
0001
1000
0000
0010
0100
,
0001
0000
1000
0010
0100
0000
0010
0100
0010
0000
0001
0010
0001
0000
0100
1000
,
0100
1000
0100
0010
0001
0100
0010
1000
,
0010
1000
0100
0010
0001
0010
0100
1000
0100
0000
0001
0010
0100
1000
0100
0000
,
1000
0010
0100
0001
0100
0010
1000
0100
0010
0000
1000
0010
0100
0001
0010
0000
,
1100
1000
0110
0100
0101
0001
0011
0010
,
1001
0000
1000
0000
0010
0000
0100
0000
0001
0000
0010
0100
1000
0100
0010
0000
,
1001
0000
0100
0000
0110
0000
1000
0000
0010
0100
0001
0010
0100
1000
0100
0000
,
0011
0000
0100
0000
1000
0010
0100
0001
0010
0100
1000
0000
0100
0000
0011
0000
,
0010
0000
0110
0000
0001
0010
0001
1000
0001
0100
0001
0100
0010
1000
0100
0000
,
1000
0000
0110
0000
0100
0000
0101
0000
0001
0010
0100
1000
0100
0010
0001
0000
,
0010
0000
0110
0000
0100
0000
1100
0000
1000
0100
0010
0001
0010
0100
1000
0000
,
1000
0100
1000
0100
0001
0100
1000
0010
,
2200
0000
0000
0000
0000
0000
0011
0000
3300
0000
1000
0010
0100
0001
0010
0100
,
1000
0000
0100
0000
0010
0000
0100
0000
1000
0000
0010
0000
0100
0010
1000
0010
,
0100
0000
1000
0000
0100
0000
0010
0000
0001
0000
0010
0000
1000
0010
0100
0001
,
0010
0010
0100
1000
0100
0010
0001
1000
,
1000
0010
0100
0001
0010
0100
1000
0100
0010
0001
0010
0001
0100
0001
1000
0001
,
0100
0000
0000
0000
1100
0000
0100
0000
0010
0000
0001
0000
0010
0100
1000
0100
,
0010
0100
2000
0200
0000
0010
3311
0100
,
1000
0010
0100
0001
0010
0100
1000
0100
1000
0010
1000
0001
1000
0010
1000
0000
,
2000
0000
0000
0111
0000
0000
0000
3000
,
1111
0000
0000
0000
1000
0010
0100
0000
0001
0000
0010
0000
0100
1000
0100
0010
,
0001
0001
0010
0100
2020
0000
0100
3030
,
1000
0010
0100
0000
0011
0000
0110
0000
1100
0000
0110
0000
0011
0000
0110
0000
,
2002
0000
0000
3003
1000
0010
0100
0001
0010
0100
1000
0100
0010
0001
0010
0000
,
1100
0000
1000
0010
0100
0000
0001
0010
0100
0000
1000
0010
0100
0001
0010
0100
,
1000
0100
0010
0022
0000
0000
0133
0000
,
1000
0000
0010
0000
0100
0000
0001
0000
0010
0100
1000
0000
1000
0100
0010
0000
,
0011
0000
0010
0100
1000
0100
0010
0001
0010
0100
1000
0010
0100
0001
0100
0010
,
1000
0000
0100
0000
0110
0000
0010
0000
0011
0000
0011
0000
0010
0100
1000
0000
,
1000
0100
0010
0000
0001
0000
0011
0000
0010
0000
0110
0000
1000
0000
1100
0000
,
1100
0000
0010
0100
0001
0010
0100
1000
0100
0010
0001
0000
0010
0000
0110
0000
,
1000
0000
1100
0000
0100
0010
0001
0000
0001
0010
0100
0000
1010
0000
0100
0000
,
0101
0000
0010
0000
0001
0010
0100
1000
0100
0010
0001
0000
1000
0010
0100
0000
,
0001
0010
0100
0000
1010
0000
0100
0000
0110
0000
0010
0000
0011
0000
0001
0000
,
1001
0000
0001
0010
0100
1000
0001
0010
0100
1000
0010
0100
0001
1000
0010
0100
,
0001
1000
0010
0100
0001
0100
0010
1000
0100
0010
0001
1000
0100
0010
0001
0000
,
0011
0000
0010
0000
0110
0000
0100
0000
1100
0000
1000
0001
1000
0010
1000
0001
,
1000
0110
0010
0011
0000
0110
0000
2200
,
0000
3300
0000
0000
0000
0000
0000
0000
;

//---------------dance-single - Devil`ize----------------
#NOTES:
     dance-single:
     Devil`ize:
     Easy:
     1:
     0.126,0.175,0.020,0.000,0.000:
0000
0000
0000
0000
,
0000
0000
0000
0000
,
0000
0000
0000
0000
,
1000
0000
0000
0000
,
0100
0000
0000
0000
,
0010
0000
0000
0000
,
0001
0000
0000
0000
,
0000
0000
1000
0000
,
0100
0000
0010
0000
,
0001
0000
0010
0000
,
0100
0000
1000
0000
,
0000
1000
0000
0000
,
0001
0000
0000
0010
,
0000
0000
0100
0000
,
0000
0001
0000
0000
,
0010
0000
0000
1000
,
0000
0000
0100
0000
,
0000
0010
0000
0100
,
0000
0001
0000
0010
,
0000
0100
0000
1000
,
0000
0010
0000
0100
,
0000
0001
0000
0000
,
1000
0000
0000
0001
,
0000
0000
1000
0000
,
0000
0010
0000
0000
,
0100
0000
0000
0001
,
0000
0000
0010
0000
,
0000
1010
0000
0000
,
0100
0000
0000
0001
,
0000
0000
0010
0000
,
0000
0100
0000
0000
,
1000
0100
0010
0001
,
0010
0100
1000
0000
,
1000
0000
0000
0000
,
0010
0000
0000
0000
,
0100
0000
0000
0000
,
0001
0000
0000
0000
,
0010
0000
0000
0000
,
0100
0000
0000
0000
,
1000
0000
0100
0000
,
0010
0000
0001
0000
,
0001
0000
0010
0000
,
0001
0000
1000
0000
,
0001
0000
0100
0000
,
1000
0000
0100
0000
,
1000
0000
0001
0000
,
1000
0000
0010
0000
,
1000
0000
0010
0000
,
0000
0000
0100
0000
,
0000
0000
0001
0000
,
0000
0000
0010
0000
,
0100
0000
1000
0000
,
0100
0000
0010
0000
,
0001
0000
0000
0010
,
0000
0000
0100
0000
,
0000
1000
0000
0000
,
0100
0000
0000
0000
,
0011
0000
0000
0000
;

//---------------dance-single - Devil`ize----------------
#NOTES:
     dance-single:
     Devil`ize:
     Medium:
     4:
     0.199,0.263,0.061,0.000,0.000:
0000
0000
0000
0000
,
0000
0000
0000
0000
,
0000
0000
0000
0000
,
1000
0010
0000
0000
,
0100
0010
0000
0000
,
0010
0001
0000
0000
,
0001
1000
0100
0010
,
0000
0000
1000
0010
,
0100
0001
0010
0001
,
0010
0100
0010
1000
,
0100
0000
1000
0001
,
1000
0001
0000
0000
,
1001
0000
0000
0010
,
0000
0000
0100
0000
,
0000
0001
0000
0000
,
0010
0000
0000
1000
,
0000
0000
0100
0010
,
0100
0010
0100
0010
,
0000
0001
0010
0001
,
0010
0100
1000
1000
,
0100
0010
0000
0100
,
0000
0001
0000
0000
,
1000
0000
0000
0001
,
0000
0000
1000
0100
,
0010
0001
0010
0100
,
1000
0000
0000
0001
,
0100
0010
1000
0010
,
0100
0001
0000
0000
,
0110
0000
0000
1001
,
0000
0000
0010
0100
,
0010
0100
0000
0000
,
1000
0100
0010
0001
,
0010
0100
1000
0000
,
1010
0000
0000
0000
,
0011
0000
0000
0000
,
0100
0000
0010
0000
,
0001
0000
1000
0000
,
0010
0000
0001
0000
,
0100
0000
0001
0000
,
1000
0000
0100
0000
,
0010
0000
0001
1000
,
0001
0000
0010
0000
,
0001
0000
1000
0000
,
0001
0000
0100
0000
,
1000
0000
0100
0000
,
1000
0001
1000
0001
,
1000
0000
0010
0000
,
1000
0000
0010
0000
,
1000
0000
0100
0000
,
0001
0000
0001
0000
,
1000
0000
0010
0000
,
0100
0000
1000
0010
,
0100
1000
0100
0000
,
0001
0000
0000
0010
,
0000
0000
0100
0000
,
0000
1000
0010
0100
,
0001
0010
0001
0000
,
0011
0000
0000
0000
;

//---------------dance-single - Devil`ize----------------
#NOTES:
     dance-single:
     Devil`ize:
     Hard:
     8:
     0.529,0.505,0.133,0.010,0.010:
0000
0000
0000
0000
,
0000
0000
0000
0000
,
0000
0110
0000
0000
,
0000
0000
0000
0000
,
1000
0100
1000
0000
0001
0010
0001
0000
0010
0000
0100
0000
1000
0000
0100
0000
,
0010
0001
0000
0000
1000
0010
0100
0000
,
0001
0010
0100
0000
1100
0000
0011
0000
,
1000
0100
0010
0001
0010
0100
1000
0000
,
1000
0100
0010
0000
0001
0000
0010
0000
,
0100
0000
1000
0010
0100
0001
0010
0100
,
1000
0010
0100
0001
0010
0100
1000
0000
,
0010
0000
0100
0001
0010
0000
0100
0000
,
1000
0010
0100
0001
0010
0100
1000
0010
,
0100
0001
0010
0100
,
1000
0010
0100
0001
0010
0100
1000
0000
,
0010
0100
0001
0010
0100
1000
0000
0010
,
0100
0001
0010
0000
0100
1000
0010
0100
,
0001
0010
0100
1000
0000
0010
0100
0001
,
0010
0100
1000
0010
,
0100
0001
0010
0100
1000
0010
0100
0010
,
0001
0000
0100
1000
0100
0000
0100
0000
,
0001
0010
0100
1000
0010
0100
0001
0010
,
0100
1000
0010
0100
0001
0010
0100
1000
,
0010
0000
0100
0010
0100
0001
0000
0010
,
0000
0100
1000
0000
0010
0100
0001
0010
,
0100
1000
0100
0010
0001
0010
0100
1000
,
0010
0100
0001
0100
1000
0000
0010
0000
,
0100
0000
1000
0010
0100
0001
0010
0100
,
0000
0010
0100
0000
1000
0000
0010
0000
,
0100
0001
0010
0100
1000
0010
0000
0100
,
0001
1000
1000
0002
0000
0000
0000
0000
,
0003
1000
0010
0100
0001
1000
0100
0001
,
0100
1000
0010
0100
1000
0100
0010
0000
,
0001
0010
0100
0010
1000
0010
0100
1000
,
0001
0100
0010
0100
1000
0100
0010
0000
,
0001
0010
0100
0010
0001
1000
0010
0100
,
0001
0000
1000
0001
0010
0000
0100
0000
,
0010
0100
1000
0000
0001
0010
0100
0000
,
1000
0010
0100
0001
0010
0000
0100
0000
,
1000
0010
0100
0001
0010
0100
0000
0000
,
0010
0100
0001
0010
0100
0000
1000
0000
,
0010
0100
0001
0010
0100
1000
0000
0010
,
0100
0000
0001
0000
0010
0100
1000
0010
,
0100
0001
0010
0100
1000
0010
0000
0100
,
0001
0010
0100
0010
0000
0100
1000
0000
,
0010
0100
0001
0010
0100
1000
0010
0100
,
0001
0000
0010
0100
0000
0000
0010
0100
,
0001
0000
0100
0010
1000
0010
0100
0001
,
0000
0010
0100
0000
1000
0100
0010
0001
,
0010
0100
1000
0010
0100
0001
0000
0010
,
0100
1000
0010
0100
0001
0010
0100
0000
,
1000
0010
0100
0001
0010
0100
0000
1000
,
0010
0100
0001
0010
0000
0100
1000
0010
,
0000
0100
0001
0010
0100
1000
0010
0100
,
0001
0010
0100
1000
0010
0100
0001
0000
,
0011
0000
1100
0000
0100
0010
0001
0010
,
0100
1100
0110
0110
,
0011
0110
1100
0011
,
1100
0000
0000
0000
;
