#TITLE:Sonic Electronic;
#SUBTITLE:;
#ARTIST:Arcade;
#GENRE:Happy Hardcore;
#TITLETRANSLIT:;
#SUBTITLETRANSLIT:;
#ARTISTTRANSLIT:;
#CREDIT:;
#BANNER:sonic.png;
#BACKGROUND:sonic-bg.png;
#LYRICSPATH:;
#CDTITLE:;
#MUSIC:sonic.ogg;
#OFFSET:-0.003;
#SAMPLESTART:22.995;
#SAMPLELENGTH:11.600;
#SELECTABLE:YES;
#BPMS:0.000=167.000,160.000=83.500,162.000=167.000;
#STOPS:;
#BGCHANGES:;

//---------------dance-single - Renard----------------
#NOTES:
     dance-single:
     Renard:
     Hard:
     8:
     0.628,0.572,0.649,0.056,0.000:
0000
0000
0000
0000
,
0000
0000
0000
0000
,
0000
0000
0000
0000
,
0000
0000
0000
0000
0000
0000
1000
0100
,
0010
0000
0010
0000
0010
0000
0010
0001
,
0100
0000
0100
0000
0100
0000
0001
0010
,
0100
0000
0100
0000
0100
0010
0001
1000
,
0100
0010
0001
0010
0100
0000
0000
0000
,
0110
0000
0011
0000
1001
0000
1000
0001
,
0100
0000
0110
0000
1010
0000
1000
0100
,
0010
0010
0001
0010
0100
0100
1000
0010
,
0100
0100
0001
1000
0001
0000
1000
0100
,
1100
0000
0110
0000
0011
0000
0001
0100
,
0101
0000
0110
0000
1010
0000
1000
0100
,
0010
0010
0001
0010
0010
0100
1000
0010
,
0010
0100
0001
0100
0010
0000
1001
0000
,
1100
0000
0011
0000
1001
0000
1000
0010
,
0100
0000
0101
0000
0110
0000
0010
1000
,
1100
0000
0110
0000
0010
0001
1000
0010
,
0010
0100
0100
0001
0001
1000
0100
0010
,
0001
0000
0110
0000
1100
0000
1000
0001
,
0100
0000
0110
0000
1001
0000
1000
0100
,
1100
0000
0010
0001
0011
0000
0001
0100
,
0101
0110
1010
1001
,
2000
0000
0000
3100
0000
0010
0001
0010
,
0200
0000
0000
1300
0000
0010
0100
0001
,
0200
0000
0000
0310
0000
1000
0010
0100
,
0001
1000
1100
0011
,
1001
0000
1000
0010
0000
0010
0100
0001
,
0010
1000
0010
0001
0100
1000
0100
0001
,
0010
0000
0010
0100
0000
0100
1000
0100
,
0001
0100
1000
0010
0001
0010
1000
0010
,
0100
0001
1000
0100
0000
0010
0001
0100
,
0010
1000
0010
0001
0010
1000
0100
0001
,
0100
0010
0001
0010
0000
0010
0001
0010
,
1000
0010
0001
0100
1000
0100
0001
0100
,
0010
1000
0100
1000
0000
1100
0000
0100
,
1000
0010
0100
0001
0000
0101
0000
1000
,
1100
0000
0000
0010
0011
0000
0000
0001
,
0101
1010
1001
1100
,
2002
0000
0000
0000
0000
0000
0000
3003
1000
0000
0000
0000
1000
0000
0000
0000
,
1000
0000
0001
0100
0010
0000
0010
0000
,
0010
0000
1000
0100
0010
0010
0001
0001
,
0100
0100
0010
1000
0100
0010
0001
0000
,
1001
0000
0001
0010
0100
0000
0110
0000
,
0110
0000
0100
1000
0010
0000
0110
0000
,
0110
0000
0001
1000
0100
0010
0001
0010
,
0100
1000
0010
0100
0001
1000
0100
0000
,
0011
0110
1100
1010
,
0101
0000
1000
1000
0100
0000
0010
0000
,
0001
0000
0010
0100
1000
0010
0100
0001
,
0100
1000
0100
0001
0010
1000
0010
0100
,
0001
0000
0100
1000
0010
0000
0101
0000
,
1010
0000
1000
0010
0001
0000
0011
0000
,
0011
0000
0001
0010
1000
0100
0001
0000
,
0101
0000
0100
1000
0010
0000
1010
0000
,
0011
1010
1100
0011
,
0101
0000
0001
1000
0100
0000
0110
0000
,
0011
0000
0001
1000
0010
0000
0101
0000
,
0001
0100
0010
1000
0100
0010
0001
0010
,
0100
0000
0100
1000
0010
0000
0101
0000
,
1010
0000
1000
0100
1100
0000
0011
0000
,
0101
0000
0001
1000
0100
0000
0100
1000
,
0010
0100
0001
0010
0100
0100
1000
1000
,
0010
0100
0001
1000
0100
0000
0100
0000
,
0100
0000
1000
0010
0100
0000
0100
0000
,
0100
0000
0100
0001
0010
0000
0010
0000
,
0010
0100
1000
0010
0100
0001
0010
0100
,
1000
0000
1000
0010
0100
0000
0100
0000
,
0100
0000
0001
0010
0100
0000
0100
0000
,
0100
0000
1000
0010
0100
0000
0100
0000
,
0001
1000
0100
0010
0001
0010
0100
1000
,
0002
0000
0003
0000
;

//---------------dance-single - Renard----------------
#NOTES:
     dance-single:
     Renard:
     Challenge:
     10:
     0.692,0.740,0.306,0.019,0.306:
0000
0000
0000
0000
,
0000
0000
0000
0000
,
0000
0000
0000
0000
,
0000
0000
0000
0000
,
1000
0000
0001
0100
0010
0000
0000
0000
1000
0000
0000
0000
0100
0000
0000
0000
,
0010
0000
0001
1000
0001
0000
0000
0000
1000
0000
0000
0000
0010
0000
0000
0000
,
0100
0000
0001
1000
0100
0000
0000
0000
1000
0000
0000
0000
0010
0000
0000
0000
,
0100
0000
0000
0000
0001
0000
0000
1000
0100
0000
1000
0000
0001
0000
0000
0000
,
1000
0000
0000
0000
0001
0000
0000
0000
0100
0000
0000
0000
0010
1000
0010
0000
,
1000
0000
0100
0000
0010
0000
0001
0000
1000
0000
0000
0000
0001
0100
0001
0000
,
1000
0100
0010
0000
0001
0010
0100
0000
,
1000
0000
0000
1000
0010
0000
0000
0010
0100
0000
0001
0000
0010
0000
0100
0000
,
1000
0000
0000
1000
0001
0000
0000
0001
0100
0010
0100
0000
0010
0000
1000
0000
,
0100
0000
0000
0100
0010
0000
0010
0001
0010
0001
0010
0000
0010
0000
0100
0000
,
1000
1000
0010
0010
0100
0100
0001
0001
,
1000
0000
0001
1000
0001
0000
1000
0000
0010
0000
0000
0000
1001
0000
0000
0000
,
1100
0000
0000
0000
0011
0000
0000
0000
1000
0000
0000
1000
0001
0000
0001
0000
,
0100
0000
0000
0000
0010
0000
0000
0000
1100
0000
0000
0010
0001
0000
0100
0000
,
0010
0000
1001
0000
1000
0100
0010
0010
,
0001
0000
0010
0001
0010
0000
0100
0000
0010
0000
0100
0010
0100
0000
1000
0000
,
0010
0000
0000
0010
1000
0000
0000
1000
0010
0000
0000
0000
0100
0000
0001
0000
,
1000
0000
0000
1000
0100
0000
0000
0100
0010
0000
0000
0000
0001
0000
0010
0000
,
0100
0000
0000
0100
1000
0000
0000
1000
0010
0000
0100
0000
0001
0000
1000
0000
,
0100
0000
1000
0001
1000
0000
0001
0000
0100
0000
0000
0000
0001
0000
0000
0000
,
1000
0000
1000
0100
0000
0100
1000
0010
,
0100
0000
0001
0100
0001
0000
0100
0000
0010
0000
1000
0000
0100
0000
0000
0000
,
1000
0000
1000
0001
0000
0001
0100
0001
,
1000
0000
0100
1000
0100
0000
1000
0000
0001
0000
0010
0000
0100
0000
1000
0000
,
0010
0000
0000
0010
0100
0000
0001
0000
1000
0000
0100
0000
0010
0001
0010
0000
,
0001
0000
0010
0000
0100
0000
1000
0010
0100
0000
0010
0000
0100
0000
0000
0000
,
0001
0000
1000
0000
0100
0000
1000
0001
1000
0000
0001
0000
0100
0000
0001
0000
,
1000
0000
0000
1000
0001
0000
0001
0000
0100
0000
0010
0000
1000
0000
0100
0000
,
0010
0000
0000
0010
0001
0000
0010
0000
0100
0000
1000
0000
0010
0100
0010
0000
,
0100
0000
0001
0000
1000
0000
0100
0000
0010
0000
0001
0000
0010
0001
0010
0000
,
0001
0000
0010
0000
0100
0000
1000
0000
0010
0000
0100
0000
0001
1000
0001
0000
,
1000
0000
0010
0000
0100
0000
0001
0000
1000
0000
0100
1000
0100
1000
0100
1000
,
0010
0100
0001
0100
0001
0100
0001
0100
,
0010
0000
1000
0000
0100
1000
0000
0000
0100
0000
1000
0000
0100
0000
1000
0000
,
0001
0010
0001
0000
0010
0000
0001
0000
0010
0001
0010
0000
0001
0000
0010
0000
,
0100
1000
0100
0000
1000
0000
0010
0000
0100
0000
0001
0000
1000
0000
0001
0000
,
2000
0000
3001
0001
,
0001
0000
0100
0010
1000
0000
1000
0000
,
1000
0000
0010
0100
0001
1000
0010
0001
,
1000
0100
0001
0010
1000
0010
0001
0010
,
0001
0000
0000
0000
0001
0000
0010
0000
1000
0000
0000
0010
1000
0000
0000
0010
,
1000
0000
0000
0000
0010
0000
0001
0000
0010
0000
0000
0010
0001
0000
0000
0010
,
0001
0000
0100
0010
1000
0100
0010
0001
,
1000
0000
1001
0000
1000
0010
0100
0001
,
1000
1001
1100
0011
,
1001
0000
0000
0000
1000
0001
1000
0000
0010
0000
0100
0000
0001
0000
0000
0000
,
0110
0000
0000
0000
1000
0001
1000
0000
0010
0000
0000
0000
0100
0000
0000
0001
,
1000
0000
0100
0000
0010
0000
0000
0000
0001
0000
0000
0000
0010
0000
0000
0100
,
1000
0000
0010
0000
0100
0000
0001
1000
0001
0000
0000
0000
1010
0000
0000
0000
,
0101
0000
0000
0000
1000
0001
1000
0000
0100
0000
0000
0000
0011
0000
0000
0000
,
1100
0000
0000
0000
1000
0001
0000
0000
1001
0000
0000
0000
1010
0000
0000
0000
,
0101
0000
0000
0000
1000
0001
0000
0000
1001
0000
0000
0000
0110
0000
0000
0000
,
1001
0000
0000
0000
1000
0001
0000
0000
1001
0000
0000
0000
1010
0000
0000
0000
,
0101
0000
1000
0100
0010
0000
0001
0000
,
0010
0000
0100
1000
0010
0000
1000
0000
,
0001
0100
0010
1000
0100
0100
0010
0010
,
0001
0000
0010
0100
1100
0000
0110
0000
,
0011
0000
0001
0010
0110
0000
1100
0000
,
0011
0000
0001
1000
1001
0000
1010
0000
,
0100
0001
1000
0010
1000
0100
0010
0001
,
0010
0011
0001
0001
,
1000
0000
0000
0000
0010
0000
0100
0000
0001
0000
1000
0100
1000
0000
0100
0000
,
0010
0001
0010
0000
0100
0000
1000
0000
,
0010
0000
0100
0000
0001
0000
1000
0000
0100
0000
1000
0001
1000
0000
0001
0000
,
0100
0000
0010
0100
0010
0000
0100
0000
0010
0000
1000
0000
0100
0000
0010
0000
,
0001
0000
0000
0000
0001
0000
0010
0000
0100
0000
1000
0010
1000
0000
0010
0000
,
0100
0000
0001
0000
0010
0000
0100
0000
1000
0000
0010
1000
0010
0000
1000
0000
,
0010
0000
0100
0000
0001
0000
0010
0000
0100
1000
0001
0010
0100
0010
0001
1000
,
0200
0000
0300
0000
;

//---------------dance-single - Renard----------------
#NOTES:
     dance-single:
     Renard:
     Medium:
     7:
     0.412,0.468,0.269,0.019,0.000:
0000
0000
0000
0000
,
0000
0000
0000
0000
,
0000
0000
0000
0000
,
0000
0000
0000
0000
,
1000
0000
1000
0000
1000
0000
1000
0001
,
0010
0000
0010
0000
0010
0000
0010
0100
,
1000
0000
1000
0000
0010
0000
1000
0001
,
0100
0000
0001
1000
0100
0000
0000
0000
,
1001
0000
1010
0000
0101
0000
0000
1000
,
0001
0100
0010
0000
,
1100
0000
0011
0000
0101
0000
0000
0001
,
1000
0000
1100
0000
,
0110
0000
0011
0000
1001
0000
0000
0001
,
0100
0010
1000
0000
,
1001
0000
1100
0000
1010
0000
0000
1000
,
0001
0000
0100
0001
1000
0000
0100
0000
,
1001
0000
1001
0000
1001
0000
0000
1000
,
0001
1000
0001
0000
,
0110
0000
0110
0000
0110
0000
0000
0100
,
0010
0100
0010
0000
,
1010
0000
1010
0000
1010
0000
0000
1000
,
0010
1000
0010
0000
,
0101
0000
0101
0000
0101
0000
0000
0100
,
0001
0100
0001
0000
,
1000
0000
0000
0100
0000
0010
0000
0001
,
0100
0000
0000
0010
0000
1000
0000
0100
,
1000
0000
0000
0010
0000
0100
0000
0001
,
1000
0100
0010
0001
,
1000
0000
0000
0001
0000
0100
0000
0010
,
1000
0000
0000
0001
0000
0100
0000
0001
,
1000
0000
0000
0100
0000
0010
0000
0001
,
1000
0001
0100
1001
,
0001
0000
0000
0100
0000
0010
0000
1000
,
0100
0000
0000
0010
0000
0001
0000
1000
,
0001
0000
0000
0100
0000
0010
0000
1000
,
0100
0000
1000
0000
0010
1000
0010
0000
,
0100
0000
0000
0001
0000
1000
0000
0100
,
0010
0000
0000
0001
0000
0100
0000
0010
,
1000
0000
0000
0001
0000
0100
0000
0001
,
1000
0100
0010
0001
,
2002
0000
0000
3003
1000
0000
1000
0000
,
1000
0000
0000
0001
0100
0000
0100
0000
,
0100
0000
0000
0010
1000
0000
1000
0000
,
1000
0000
0000
0100
0010
0000
0010
0000
,
0010
0000
0000
0010
0001
0000
0001
0000
,
0001
0000
0000
1000
0010
0000
0010
0000
,
0010
0000
0000
0010
0100
0000
0000
0100
,
0001
0000
0000
0001
1000
0000
1100
0000
,
1001
0000
1000
1000
,
1000
0000
0001
0010
0100
0000
0100
0000
,
0100
0000
0100
1000
0010
0000
0010
0000
,
0010
0000
0010
0100
0001
0000
0001
1000
,
0100
0000
0100
1000
0001
0000
0001
0000
,
0001
0000
0001
1000
0010
0000
0010
0000
,
0010
0000
0010
1000
0001
0000
0001
0010
,
0001
0000
0001
1000
0010
1000
0001
0010
,
0001
0000
1000
1000
,
1000
0000
0000
0001
0100
0000
0100
0000
,
0100
0000
0000
0010
1000
0000
1000
0000
,
1000
0000
0000
0100
0010
0000
0000
0010
,
0001
0000
0000
0001
0100
0000
0100
0000
,
0100
0000
0000
0010
1000
0000
1000
0000
,
1000
0000
0000
0010
1000
0000
0000
0001
,
0100
0000
0000
0001
0010
0000
0100
1000
,
0001
0000
1000
1000
,
1000
0000
0000
0001
0100
0000
0100
0000
,
0100
0000
0000
0010
1000
0000
1000
0000
,
1000
0000
0000
0100
0010
0000
0000
0001
,
0010
0000
0000
0100
1000
0000
1000
0000
,
1000
0000
0000
0010
0100
0000
0100
0000
,
0100
0000
0000
0001
1000
0000
1000
0000
,
0100
0000
0000
1000
0001
0100
0001
1000
,
0100
0000
0000
0000
;

//---------------dance-single - Renard----------------
#NOTES:
     dance-single:
     Renard:
     Easy:
     3:
     0.306,0.336,0.167,0.121,0.000: // measure 1
0000
0000
0000
0000
,  // measure 2
0000
0000
0000
0000
,  // measure 3
0000
0000
0000
0000
,  // measure 4
0000
0000
0000
0000
,  // measure 5
1000
0000
0000
0000
1000
0000
0000
0001
,  // measure 6
0100
0000
0000
0000
0100
0000
0000
0010
,  // measure 7
1000
1000
0001
1000
,  // measure 8
0100
0000
0000
0010
0001
0000
0000
0000
,  // measure 9
1000
0000
1000
0000
1000
0000
0000
0001
,  // measure 10
0100
0000
0100
0000
0100
0000
0000
0010
,  // measure 11
1000
0000
1000
0000
1000
0000
0000
0100
,  // measure 12
1000
0000
0001
0000
1000
0000
0000
0001
,  // measure 13
0100
0000
0100
0000
0100
0000
0000
0001
,  // measure 14
1000
0000
1000
0000
1000
0000
0000
0100
,  // measure 15
1000
0000
0010
0000
,  // measure 16
0101
0110
1010
0000
,  // measure 17
0100
0000
0100
0000
0100
0000
0000
0001
,  // measure 18
1000
0000
1000
0000
1000
0000
0000
0100
,  // measure 19
0010
0000
0010
0000
0010
0000
0000
0001
,  // measure 20
1000
0000
0000
0001
1000
0000
0000
0001
,  // measure 21
1000
0000
1000
0000
1000
0000
0000
0010
,  // measure 22
0100
0000
0100
0000
0100
0000
0000
0001
,  // measure 23
0010
0000
0000
0001
1000
0000
0000
0100
,  // measure 24
1000
0000
0010
1000
0001
0000
0000
0000
,  // measure 25
1100
0000
0000
0000
,  // measure 26
0011
0000
0000
0000
,  // measure 27
0101
0000
0000
0000
,  // measure 28
1010
0000
0101
0000
,  // measure 29
1000
0000
0000
0100
0000
0010
0000
0000
,  // measure 30
0001
0000
0000
0010
0000
0100
0000
0000
,  // measure 31
1000
0000
0000
0010
0000
0100
0000
0000
,  // measure 32
0001
0000
0000
1000
0000
0001
0000
0000
,  // measure 33
1000
0000
0000
0001
0000
0100
0000
0000
,  // measure 34
0001
0000
0000
1000
0000
0100
0000
0000
,  // measure 35
0010
0000
0000
0001
0000
0100
0000
0000
,  // measure 36
0001
0000
0000
1000
0000
0100
0000
0000
,  // measure 37
1000
0000
0000
0010
0000
0100
0000
0000
,  // measure 38
0001
0000
0000
1000
0000
0100
0000
0000
,  // measure 39
0010
0000
0000
0001
0000
0100
0000
0000
,  // measure 40
0001
1000
0100
0010
,  // measure 41
1001
0000
1000
0000
,  // measure 42
0000
0000
0000
0001
0100
0000
0000
0000
,  // measure 43
0000
0000
0000
0010
1000
0000
0000
0000
,  // measure 44
0000
0000
0000
0100
1000
0000
0010
0000
,  // measure 45
0100
0000
0000
0001
0010
0000
0000
0000
,  // measure 46
0000
0000
0100
1000
0010
0000
0000
0000
,  // measure 47
0000
0000
0100
0001
0010
0000
0000
0000
,  // measure 48
0001
0000
1000
0001
,  // measure 49
1001
0000
1000
1000
,  // measure 50
1000
0000
0000
0001
0100
0000
0100
0000
,  // measure 51
0100
0000
0000
0001
0010
0000
0010
0000
,  // measure 52
0010
0000
0000
0001
1000
0000
0000
0001
,  // measure 53
1000
0000
0000
1000
0100
0000
0100
0000
,  // measure 54
0100
0000
0000
1000
0010
0000
0010
0000
,  // measure 55
0010
0000
0000
1000
0001
0000
0001
0000
,  // measure 56
0001
0000
1000
0001
1000
0000
0000
0001
,  // measure 57
1000
0000
1001
0000
,  // measure 58
1010
0000
0000
0100
0001
0000
0000
0000
,  // measure 59
0000
0000
0011
0000
,  // measure 60
1100
0000
0000
0010
1000
0000
0000
0000
,  // measure 61
0000
0000
0101
0000
,  // measure 62
1010
0000
0000
1000
0100
0000
0000
0000
,  // measure 63
0000
0000
0011
0000
,  // measure 64
0101
0000
0000
0001
1000
0000
0100
0200
,  // measure 65
0000
2000
0300
0000
,  // measure 66
0000
0020
3000
0000
,  // measure 67
0000
0200
0030
0000
,  // measure 68
0000
0000
0000
0002
0300
0000
0000
2000
,  // measure 69
0003
0002
3000
0000
,  // measure 70
0000
0200
0003
0000
,  // measure 71
0000
0000
0000
0020
0300
0000
0000
2000
,  // measure 72
0030
0000
0000
0002
3000
0200
0003
0020
,  // measure 73
0300
0000
0030
0000
;
