#TITLE:Slam;
#SUBTITLE:;
#ARTIST:Pendulum;
#GENRE:Drum N Bass;
#TITLETRANSLIT:;
#SUBTITLETRANSLIT:;
#ARTISTTRANSLIT:;
#GENRE:;
#CREDIT:;
#BANNER:slam.png;
#BACKGROUND:slam-bg.png;
#LYRICSPATH:;
#CDTITLE:;
#MUSIC:slam.ogg;
#OFFSET:0.000;
#SAMPLESTART:42.627;
#SAMPLELENGTH:12.000;
#SELECTABLE:YES;
#BPMS:0.000=90.000,48.000=180.000,176.000=90.000;
#STOPS:176.000=4.000
;
#BGCHANGES:;
#KEYSOUNDS:;

//---------------dance-single - Renard----------------
#NOTES:
     dance-single:
     Renard:
     Hard:
     9:
     0.562,0.000,0.340,0.122,0.310:
0000
0000
0000
0000
,
0000
0000
0000
0000
,
0000
0000
0000
0000
,
0000
0000
0000
0000
,
1000
0000
1000
1000
0001
0000
0000
0001
0100
0010
1000
0000
1001
0000
0000
0000
,
1000
0000
0000
1000
0100
0000
0000
0100
0010
0010
0001
0000
1001
0000
0000
0000
,
0110
0000
0000
0010
1000
0000
0000
1000
0010
0010
0100
0000
1001
0000
0000
0001
,
0010
0000
0010
0010
0100
0000
0010
0000
0001
1000
0001
0000
1001
0000
0000
0000
,
1000
0010
0100
0001
1000
0100
0010
0001
0010
0100
1000
0000
1001
0000
0000
0000
,
1000
0010
0100
0001
0010
0001
0100
0010
1000
0000
0100
0000
1001
0000
0000
0000
,
1000
0100
1000
0010
0100
0001
0010
0001
1000
0100
0010
0000
1001
0000
0000
0000
,
0001
0010
0001
0100
0010
1000
0100
0010
0100
0100
0010
0000
2002
0000
0000
0000
,
0010
3003
0000
0000
,
0100
0000
0000
0000
,
1001
0000
1000
0000
,
0010
0000
0100
0001
,
0100
0000
0010
0000
1000
0100
0010
0000
,
0001
0010
0100
0000
1000
0010
0100
0000
,
0010
0100
0010
0100
0010
0100
0010
0100
,
0001
1000
0001
1000
0001
1000
0001
1000
0001
0000
1000
0000
0001
0000
1000
0000
,
0010
1000
0100
0001
0010
0001
0100
0000
,
1000
0010
1000
0100
0001
0010
0001
0000
,
0100
1000
0010
0000
0100
0001
0010
0000
,
0001
0100
0010
0000
1000
0001
0100
0000
,
0100
0001
0010
1000
0100
1000
0010
0000
,
0001
0100
0001
0010
1000
0100
1000
0000
,
0010
0001
0100
0000
0010
1000
0100
0000
,
1000
0010
0100
0000
0001
0010
0100
0000
,
1000
0000
0000
0000
1010
0000
0000
0010
0100
0000
0100
0000
0001
0000
0010
0000
,
0100
0000
0000
0000
1001
0000
0000
0001
1000
0000
1000
0000
0100
0000
0010
0000
,
0001
0000
0000
0000
0011
0000
0000
0001
0010
0000
0010
0000
0100
0000
1000
0000
,
0010
0000
0000
0000
0101
0000
0000
0001
0100
0000
0010
0000
1000
0000
0010
0000
,
0100
0000
0001
0000
0100
0000
0000
0100
0010
0000
1000
0000
0100
0000
0010
0000
,
0001
0000
0010
0000
0100
0000
0000
0100
1000
0000
0010
0000
0100
0000
0001
0000
,
0100
0000
0100
0000
0010
0000
0000
0010
1000
0000
1000
0000
0100
0000
0000
0100
,
0010
0001
0010
0100
1001
0010
1001
0000
,
0110
0000
1000
0010
0100
0100
0001
0010
,
0100
0100
1000
0010
0100
0100
0001
0010
,
0001
0001
0100
0010
1000
1000
0100
1000
,
0010
0100
0001
0010
0001
0000
1001
0000
,
1000
0100
0001
0100
1000
0010
0100
0001
,
0010
1000
0010
0001
0100
1000
0100
0010
,
1000
0010
0100
0001
0010
0100
1000
0100
,
0001
0100
1000
0010
1001
0100
1001
0000
,
0110
0000
0000
0000
0000
0000
0000
0000
1001
0000
0001
0001
0100
0000
0000
0100
,
0010
1000
0100
0000
1001
0000
1010
0000
1100
0000
0000
0100
1000
0000
0000
1000
,
0010
0100
0001
0000
1001
0000
1010
0000
0101
0000
0000
0001
0100
0000
0000
0100
,
0010
1000
0010
0000
1010
0000
1000
0000
0010
0000
0000
0010
0100
0000
0000
0100
,
0001
1000
0100
0010
0110
0000
0000
0000
0010
0000
0001
0001
0100
0000
0200
0000
,
2000
0000
0000
0000
0001
0000
3300
0000
1000
0100
0001
0000
0100
0000
0010
0000
,
1000
0000
0001
0000
0110
0000
0000
0000
1000
0010
0100
0000
1001
0000
0000
0000
,
1000
0010
0100
0001
0100
0010
0100
0000
0010
1000
0100
0000
1001
0000
0010
1000
,
0010
0100
0001
0000
1000
0000
0000
0000
2200
0000
0001
0001
0010
0000
0001
0000
,
0320
0000
0230
0000
3311
0000
0000
0000
0202
0000
0010
0010
1000
0000
0010
0000
,
2003
0000
3002
0000
1313
0000
0000
0000
0001
0100
0010
1000
0100
0000
0200
0000
,
2000
0000
3300
0000
1001
0000
0000
0000
0001
0100
0010
0000
1000
0000
0100
0010
,
0001
0010
1001
0000
0000
0000
0000
0000
;

//---------------dance-single - Jinxie----------------
#NOTES:
     dance-single:
     Jinxie:
     Easy:
     4:
     0.290,0.000,0.070,0.052,0.000:
0000
0000
0000
0000
,
0000
0000
0000
0000
,
0000
0000
0000
0000
,
0000
0000
0000
0000
,
1000
1000
1000
0000
0010
0010
0010
0000
,
0001
0000
1000
0000
0010
1000
0100
0000
,
0010
0010
0001
0001
,
1000
0000
1000
0000
0010
0100
0100
0000
,
0001
1000
0010
0100
,
0001
0000
1000
0000
0010
1000
0001
0000
,
0100
0010
1000
0001
,
1000
0000
0010
0000
1000
0001
0001
0000
,
1000
0010
1000
1000
,
0001
0010
0001
0001
,
0100
0010
1000
0010
,
0100
0001
0100
1000
,
0010
1000
0001
0001
,
0010
0001
1000
1000
,
0010
0010
1000
1000
,
1000
0010
0100
1010
,
1000
0001
0010
0001
,
0010
0010
1000
1000
,
0100
1000
0010
1000
,
0001
0010
0001
0001
,
0010
1000
0100
0100
,
1000
0010
0001
0001
,
0010
0001
0010
1000
,
0100
0010
0100
0010
,
0001
0010
0110
0000
,
1000
0001
0011
0000
,
0100
1000
1010
0000
,
0100
0001
0011
0000
,
0010
1000
0100
0100
,
1000
0010
1000
1000
,
0001
0001
0010
0010
,
0001
0001
1000
1000
,
0010
1000
1000
1000
,
0001
0001
0001
0001
,
0010
1000
0010
0001
,
1000
0010
0001
0001
,
2000
0010
0000
3010
,
0002
0100
0000
0103
,
2000
0010
0000
0010
,
3020
0100
0000
0130
,
1001
0000
1000
0010
,
0010
1000
0100
0000
0010
0000
0010
0000
,
0010
0001
0100
0000
1010
0000
1000
0000
,
0010
0100
0001
0000
0011
0000
0010
0000
,
0100
0001
0010
0000
1000
0000
0010
0000
,
1000
1000
0001
0000
0010
0000
0100
0000
,
0100
1000
1000
0000
1000
0000
0010
0000
,
0001
0100
0100
0000
1000
0000
0001
0000
,
1000
0010
1000
0000
1000
0000
0001
0000
,
0010
0010
0001
0000
0100
0000
0010
0000
,
1000
1000
0100
0000
1000
0000
0010
0000
,
0100
0010
0001
0000
0100
0000
0010
0000
,
0100
0020
2000
0000
0000
0000
0000
0000
,
0000
0000
0000
0000
,
3030
0000
0000
0000
;

//---------------dance-single - Pyroko + Jinxie----------------
#NOTES:
     dance-single:
     Pyroko + Jinxie:
     Challenge:
     10:
     0.569,0.000,0.375,0.576,0.257:
0000
0000
0000
0000
,
0000
0000
0000
0000
,
0000
0000
0000
0000
,
0000
0000
0000
0000
,
1010
0000
1000
0100
0010
0000
0011
0000
0010
0100
1000
0100
0010
0000
0011
0000
,
1100
0000
0100
1000
0100
0000
1100
0000
0100
0010
0001
0010
0100
0000
0110
0000
,
1001
0000
1000
0100
0010
0000
0011
0000
0010
0100
0010
0001
1000
0000
1001
0000
,
1010
0000
0100
1000
0001
0000
1010
0000
1000
0100
0010
0100
2000
0000
0000
3000
,
1010
0000
0001
0100
0001
0000
0011
0000
0001
0010
0100
0010
1000
0000
1010
0000
,
1010
0000
0010
0001
0100
0000
1001
0000
1000
0100
0010
0100
0010
0000
0011
0000
,
1001
0000
1000
0100
0010
0000
0011
0000
0010
0100
0010
0001
0010
0000
0011
0000
,
1010
0000
0010
0001
0010
0000
0011
0000
0010
0100
0010
0100
2000
0000
0000
0000
,
0002
0010
0100
0010
,
3003
1000
0001
1000
,
0001
1000
0100
0010
,
0100
1000
0001
1000
,
0100
1000
0010
1000
0001
0010
0001
1000
,
0100
1000
0010
0001
0010
1000
0100
1000
,
0100
0000
0100
1000
0100
0010
0001
0010
0100
1000
0001
0010
0100
1000
0100
0010
,
0001
0010
0100
1000
0001
0010
0100
1000
0100
0010
0001
0010
0100
1000
0000
0000
,
2000
0000
0000
0000
0020
3000
0002
0030
,
2000
0000
0000
0003
3200
0000
0320
2000
,
0000
0001
0000
0100
,
0001
3030
0000
0000
0002
0000
0020
0003
,
0200
0000
0000
0030
0002
0300
2000
0003
,
0020
0000
0000
3000
0002
0030
0203
0020
,
0000
1001
0000
1001
,
0000
0000
0001
0000
1000
0000
0001
0330
,
0202
0003
2300
0000
3200
0000
0320
0000
,
0032
0000
0023
0000
2030
3200
0302
0200
,
0000
0003
0320
0000
2030
0000
3002
0000
,
0023
0000
2030
0000
3200
0320
2030
0020
,
3030
0000
1010
0000
1000
0100
1000
0000
,
1000
0000
0010
0000
1000
0001
0100
0000
,
2000
0000
3010
0000
1000
0100
0010
0000
,
0001
0000
1000
0000
0010
1000
0001
0000
,
1001
0000
2000
0000
3100
1000
0100
1000
,
0000
0020
0000
0000
0130
0010
0100
0000
,
0010
0000
1000
0000
1000
0100
0010
0001
,
0000
0001
0000
0100
0010
0100
0010
0000
,
2000
0000
3001
0000
0010
0001
0010
0001
,
0000
0010
0000
0010
0001
1000
0001
0000
,
0010
0000
0100
0000
0001
0010
0001
0010
,
0000
0100
0000
0100
1000
0010
1000
0000
,
2002
0000
0000
0000
3003
0000
0000
0000
1001
0000
1000
0100
1000
0000
0110
0000
,
0001
0000
0010
0000
0001
0000
0100
0000
0001
0000
0000
0000
0110
0000
1000
0100
1000
0000
0000
0000
1000
0000
0100
0000
0010
0000
0000
0000
0011
0000
0000
0000
,
0001
0000
0010
0000
0100
0000
1000
0000
0100
0000
0000
0000
1010
0000
1000
0010
1000
0000
0000
0000
1000
0000
0001
0000
0010
0000
0000
0000
0110
0000
0000
0000
,
0100
0000
1000
0000
0100
0000
0010
0000
0100
0000
0000
0000
0110
0000
0010
0001
0010
0000
0000
0000
0001
0000
0010
0000
0100
0000
0000
0000
1100
0000
0000
0000
,
0100
0010
0100
1000
0100
0000
0000
0000
1100
0000
0020
0000
0032
0000
0023
0000
,
0230
0300
1011
0000
0000
0002
2003
3200
,
0320
0030
1220
0000
0001
0000
0330
1000
,
0001
0000
0000
0000
2200
0000
0000
0000
0011
0000
0000
0000
0000
0000
0001
0010
,
0001
3300
1111
0000
0000
2000
3020
0032
,
2000
0000
0000
0000
0003
3200
0320
2030
,
0002
0000
0110
0000
0010
3003
0000
0010
,
0100
0000
0001
1000
0100
0010
0100
0010
,
0001
1000
0001
1000
0002
0000
0000
0000
0000
0000
0000
0000
0003
0000
0000
0000
;

//---------------dance-single - Jinxie----------------
#NOTES:
     dance-single:
     Jinxie:
     Medium:
     6:
     0.386,0.000,0.235,0.017,0.000: // measure 1
0000
0000
0000
0000
,  // measure 2
0000
0000
0000
0000
,  // measure 3
0000
0000
0000
0000
,  // measure 4
0000
0000
0000
0000
,  // measure 5
1000
0100
0010
0010
0001
0001
0010
0000
,  // measure 6
0100
1000
0010
0010
1000
1000
0100
0000
,  // measure 7
0010
0001
0100
0001
0001
0100
0101
0000
,  // measure 8
1000
0010
0100
0100
0010
1000
1010
0000
,  // measure 9
1000
0100
0010
0001
0010
0100
1000
0000
,  // measure 10
1000
0010
0100
0001
0001
0010
0011
0000
,  // measure 11
0010
0001
0100
0010
1000
0010
0110
0000
,  // measure 12
0100
0010
1000
0001
0010
0100
1100
0000
,  // measure 13
1001
0000
1000
0000
,  // measure 14
0001
0000
1000
0000
,  // measure 15
0010
0000
0100
0000
,  // measure 16
0001
0000
0010
0000
,  // measure 17
0100
1000
0010
1000
,  // measure 18
0001
1000
0001
0010
,  // measure 19
0001
1000
0010
0000
1000
0001
0010
0000
,  // measure 20
0001
1000
0100
0000
1000
0001
1000
0000
,  // measure 21
1000
0000
1000
0010
1000
0000
1000
0000
,  // measure 22
0001
0000
0001
0010
0001
0000
0001
0000
,  // measure 23
0001
0000
0001
0100
0010
0000
0010
0000
,  // measure 24
0010
1000
0100
0000
0100
1000
0010
0000
,  // measure 25
0010
0000
0010
0100
0001
0000
0001
0000
,  // measure 26
0001
0000
0001
0010
0100
0000
0100
0000
,  // measure 27
0100
1000
0010
0000
0010
0000
0010
0000
,  // measure 28
0010
0100
0001
0000
0001
0010
0001
0000
,  // measure 29
0001
0001
0100
0100
,  // measure 30
0010
0000
0010
0000
0010
1000
0010
0000
,  // measure 31
1010
1000
1000
0100
,  // measure 32
0100
0000
0100
0000
0010
0001
0010
0000
,  // measure 33
0011
0001
0001
0010
,  // measure 34
0100
0000
1000
0000
0100
1000
0100
0000
,  // measure 35
1100
0000
1000
0010
1000
0000
1000
0001
,  // measure 36
0100
0000
0001
0100
0001
0000
0001
0000
,  // measure 37
0011
0001
1000
1000
,  // measure 38
0010
0010
1000
1000
,  // measure 39
1001
0001
0010
0001
,  // measure 40
0100
0100
0110
1000
,  // measure 41
1010
1000
0001
0001
,  // measure 42
0010
0100
1000
0010
,  // measure 43
1010
1000
0001
0010
,  // measure 44
0100
1000
1010
0001
,  // measure 45
1001
0000
0000
0000
1000
0100
0010
0001
,  // measure 46
0001
0010
0100
0000
1000
0010
0100
0010
,  // measure 47
0010
1000
1010
0000
1000
0100
0010
0100
,  // measure 48
0100
1000
1100
0000
1000
0001
0100
0010
,  // measure 49
0010
0100
0101
0000
0001
0010
0100
1000
,  // measure 50
0100
0010
0011
0000
0001
0010
0100
1000
,  // measure 51
1000
0010
1010
0000
0010
0100
0100
0010
,  // measure 52
0100
0001
0011
0000
0001
0010
0100
0100
,  // measure 53
1000
0010
1001
0000
1000
0100
1000
0100
,  // measure 54
0100
0010
0110
0000
0001
0010
0100
0100
,  // measure 55
1000
0010
1010
0000
1000
0010
0100
0100
,  // measure 56
0001
0010
0011
0000
0001
1000
0010
0100
,  // measure 57
0001
0010
2002
0000
0000
0000
0000
0000
,  // measure 58
3003
0000
0000
0000
;
