#TITLE:Sic Fic;
#SUBTITLE:;
#ARTIST:MGD-Crew;
#GENRE:Oddcore;
#TITLETRANSLIT:;
#SUBTITLETRANSLIT:;
#ARTISTTRANSLIT:;
#CREDIT:;
#BANNER:sic.png;
#BACKGROUND:sic-bg.png;
#LYRICSPATH:;
#CDTITLE:;
#MUSIC:sic.ogg;
#OFFSET:0.000;
#SAMPLESTART:45.156;
#SAMPLELENGTH:12.000;
#SELECTABLE:YES;
#BPMS:0.000=170.000;
#STOPS:;
#BGCHANGES:;

//---------------dance-single - Ryvard----------------
#NOTES:
     dance-single:
     Ryvard:
     Hard:
     9:
     0.726,0.689,0.718,0.255,0.198:
0000
0000
0000
0000
,
0000
0000
0000
0000
,
0000
0000
0000
0000
,
0000
0000
0000
0000
,
1000
1000
0100
0100
0010
0010
0001
0001
,
0010
0010
0001
0001
1000
1000
0100
0100
,
0010
0001
1000
0100
0001
0100
0010
1000
,
0010
0001
0100
0010
0100
1000
0100
0001
,
0110
0000
1100
0000
0011
0000
0010
0010
,
1010
0000
1001
0000
1010
0000
0010
1000
,
0010
0000
0001
0100
0001
0100
0010
0100
,
0010
1000
0010
0010
0001
1000
0110
0101
,
0011
0000
0100
0001
0100
0001
1000
0000
,
0010
0100
0001
1000
0001
0000
0010
1000
,
0100
0010
0001
0000
0001
0100
0011
0110
,
1100
0000
0001
0100
0010
1000
0001
0100
,
0002
0000
0100
0000
0010
0000
0100
1003
,
0110
0000
0000
0110
0000
0000
0110
0000
1001
0000
0010
0000
0100
0000
0010
0000
,
2000
0010
0000
0100
0000
0001
0000
0010
,
3001
0010
0100
1000
1000
0100
0010
0001
,
0001
0010
0100
0001
0100
1000
0100
0010
,
1001
0000
0000
1010
0000
0000
0101
0000
0000
0000
0000
0000
0110
0000
0000
0000
,
1000
0000
0000
0100
0000
0000
0010
0000
0001
0000
0000
0000
1001
0000
0000
0000
,
0000
0000
1000
0100
1000
0000
0010
0100
0010
0000
0001
0010
0001
0000
0001
0000
,
0001
0100
0010
1000
0100
0010
0001
0100
,
0001
0010
0000
0000
0011
0000
0000
0000
1100
0000
0000
0000
1000
0100
0000
0000
,
0010
1000
0100
0010
0001
0010
0100
1000
,
0001
0001
0100
0100
0010
0010
1000
1000
,
0110
0000
0110
0000
0001
0000
0000
0000
1000
0100
0000
0000
0110
0000
0000
0000
,
0001
0000
0100
0000
1000
0000
0000
0000
1000
0100
0000
0000
0110
0000
0000
0000
,
0001
0010
0000
0000
0010
0000
0100
0000
1000
0100
0000
0000
0100
0010
0000
0000
,
0110
0000
0000
0000
0110
0000
0000
0000
0010
0100
0010
0100
0010
0000
0000
0000
,
0001
0010
0100
1000
0001
0010
0100
1000
,
0100
0010
0001
0100
0010
0100
1000
0100
,
0011
0000
1100
0000
0010
0010
0100
0100
,
1000
1000
0001
0001
0110
0000
0011
0000
,
1100
0110
0011
0110
,
1000
0100
0010
0001
0010
0100
1000
0001
,
1000
0100
0010
0001
0100
0010
1000
0100
,
0010
0001
1000
0100
0010
0001
0100
0010
,
1000
0100
0010
0001
0100
0010
1000
0100
,
0010
0001
0100
0010
1000
0100
0010
0100
,
1000
0100
0000
0000
0011
0000
0000
0000
0001
0010
0000
0000
0110
0000
0000
0000
,
1000
0100
0000
0000
0110
0000
0000
0000
0010
0100
0000
0000
1001
0000
0000
0000
,
0000
0000
0001
0010
0000
0000
0001
0000
0000
0000
0100
0000
0000
0000
0010
0000
,
0000
1000
0000
0100
0000
0010
0000
0001
,
1000
0100
0000
0000
0010
0000
0000
0000
0001
0000
0000
0000
0100
0000
0000
0000
,
1000
0000
1000
0100
0000
0000
0010
0000
0000
0000
0100
0000
0000
0000
0001
0000
,
1000
0000
0100
0000
0001
0000
0000
0000
1000
0100
0000
0000
0110
0000
0000
0000
,
2000
0000
0000
0000
0100
0000
3000
0010
0001
0000
0000
0000
0011
0000
0000
0000
,
0010
1000
0100
0010
0010
0000
0001
1000
,
0110
0000
0011
0110
1100
0000
1100
0000
,
0002
0000
0000
0000
1003
0100
0000
0000
0020
0000
0000
0000
0130
1000
0000
0000
,
0022
0000
0033
2200
0000
3300
0011
0000
,
1000
0100
0010
0000
0001
0010
0100
0000
,
2020
0000
3030
0220
0000
0330
0101
0000
,
0100
0000
0000
0001
1000
0000
0001
1000
0000
1001
0000
1001
0000
0000
0000
0000
,
1000
0000
0000
0000
0110
0000
0101
0000
0011
0000
0000
0000
1000
0100
0000
0000
,
0001
0000
0000
0000
0110
0000
1100
0000
1010
0000
0000
0000
0001
0010
0000
0000
,
1000
0100
0010
0001
0001
0100
0010
1000
,
2200
0000
3300
0022
0000
0033
1100
0000
,
0001
0100
1000
0100
0001
0010
0100
1000
,
0220
0000
0330
2200
0000
3300
0101
0000
,
1000
0000
0010
0000
0100
0000
0001
0000
0001
0010
0000
0000
1100
0000
0000
0000
,
1000
0100
0000
0000
0011
0000
0000
0000
0100
0010
0000
0000
1100
0000
0000
0000
,
0002
0000
0000
0000
1003
0000
0000
0000
1000
0100
0000
0000
0220
0000
0000
0330
,
0002
0000
0000
0000
1003
0000
0000
0000
1000
0100
0000
0000
0010
0100
0000
0000
,
1000
0100
0000
0000
0010
0001
0000
0000
0010
0100
0000
0000
1000
0100
0000
0000
,
0010
0010
0000
0100
0000
1000
0000
0010
,
0000
0001
0000
0010
0000
0100
0000
1000
,
0200
0010
0000
0001
0000
1000
0010
0010
,
0302
0000
1000
0000
0100
0000
0010
0013
,
0110
0000
0000
1010
0000
0000
1010
0000
,
0101
0000
0000
0000
;

//---------------dance-single - Renard----------------
#NOTES:
     dance-single:
     Renard:
     Medium:
     6:
     0.472,0.586,0.557,0.085,0.000:
0000
0000
0000
0000
,
0000
0000
0000
0000
,
0000
0000
0000
0000
,
0000
0000
0000
0000
,
1000
0000
1000
0000
0001
0000
1000
0001
,
1000
0000
1000
0000
0001
1000
0001
0000
,
0100
0010
1000
0100
,
0010
0011
0110
1100
,
1001
0000
1010
0000
1001
0000
0001
1000
,
0001
0101
1010
1001
,
1100
0000
0011
0000
1001
0000
0001
1000
,
0001
1010
0101
1001
,
1000
0100
0010
1001
,
1001
0000
1010
0000
0101
0000
0001
1000
,
0001
0000
1010
0000
0101
0000
0001
1000
,
0001
0000
1000
0001
1000
0001
1000
0000
,
0001
0100
0010
1000
,
0100
0000
1000
0100
1000
0100
1000
0000
,
0010
0001
0100
0010
,
1000
0000
0001
0100
0001
0000
1000
0001
,
1000
0001
0100
0010
,
1000
0000
0100
1000
0001
0000
1000
0001
,
1000
0010
0100
0001
,
0000
1000
0001
0000
1000
0001
0000
1000
,
0001
0000
1000
0000
0001
0000
1000
0001
,
1000
0001
1000
0001
1000
0001
1000
0001
,
1000
0010
0100
0010
,
0100
0010
0100
0010
0100
0010
0100
0010
,
1000
1000
0001
0001
,
0100
0001
1000
0100
,
0010
0010
1001
1001
,
1000
1010
0100
0101
,
1000
1000
0001
0100
,
0010
0000
0000
1000
0100
0000
0000
0010
,
0001
1000
0010
0100
,
0001
0000
0000
1000
0001
0000
1000
0001
,
1000
0000
0001
0000
0100
0000
0000
0010
,
1000
0000
0000
0001
0100
0000
0000
0010
,
1000
0000
0000
0001
0100
0000
0000
0001
,
0010
0000
0100
1000
0001
0000
1000
0000
,
0001
0000
1000
0000
,
0010
1000
1001
1001
,
0001
0000
0100
0000
,
0010
0000
0000
1000
0000
0001
1000
0001
,
0100
0000
0010
0000
,
1000
0000
0000
0100
0000
0010
0001
0010
,
0100
0000
1000
0001
1000
0000
0001
1000
,
0000
0001
0000
1000
0001
1000
0001
0000
,
1000
0000
0001
0000
,
0200
0000
0000
0000
,
0310
0000
1000
0000
,
0002
0000
0000
0000
,
0103
0001
1000
0100
,
2000
0000
0000
0000
0200
0000
0000
3000
,
0310
0001
0010
0000
,
0200
0000
0000
0000
2000
0000
0000
0300
,
0020
0000
0000
0000
0000
0000
0000
3030
,
1000
1001
1000
1001
,
0001
1001
0001
1001
,
0100
0110
0100
0110
,
0010
0110
0100
0110
,
1000
1010
0001
0101
,
0001
0011
0100
1100
,
1000
1010
0100
0101
,
2002
0000
3013
0000
,
1000
1010
0010
0110
,
0100
0101
0001
0011
,
0010
0110
0100
1100
,
1000
1010
0010
0110
,
0100
0101
0001
0011
,
0010
0110
0100
1100
,
1000
1001
0001
1001
,
1000
1001
0001
1001
,
1001
0000
0000
0000
;

//---------------dance-single - Renard----------------
#NOTES:
     dance-single:
     Renard:
     Easy:
     3:
     0.290,0.310,0.179,0.000,0.000:
0000
0000
0000
0000
,
0000
0000
0000
0000
,
0000
0000
0000
0000
,
0000
0000
0000
0000
,
1000
1000
0001
0001
,
1000
0001
1001
0000
,
0010
0010
0100
0010
,
1000
0100
0010
0001
,
1000
0000
0001
0100
,
0010
0000
1000
0100
,
0010
0000
0001
0010
,
0100
0000
1000
0001
,
0100
0000
1000
0001
,
0010
0000
0001
0100
,
1000
0000
0001
0010
,
1000
0000
0100
1000
,
0001
0000
0010
0000
,
1000
0000
0100
0000
,
1000
0000
0010
0000
,
1000
0000
0001
0000
,
0100
0000
0011
0000
,
1000
0000
0101
0000
,
1000
0000
1010
0000
,
0101
0000
0101
0000
,
0001
0000
1000
0001
,
1000
0000
0000
0000
,
1001
0000
0001
1000
,
0001
0000
1000
0001
,
1000
0000
1001
0000
,
0100
0000
0010
0000
,
1000
0000
0010
0000
,
1000
0001
0100
0000
,
0001
0000
0010
0000
,
0100
0000
0001
0000
,
1000
0000
0010
0000
,
0100
0000
1000
0000
,
0001
0000
0100
0000
,
1000
0000
0010
0000
,
1000
0000
0010
0000
,
0100
0000
0001
0000
,
1000
0001
1000
0001
,
1000
0010
0100
0001
,
1000
0001
1000
0001
,
1000
0001
0100
0010
,
1000
0001
1000
0001
,
0010
0100
0001
1000
,
0010
1000
0100
0010
,
0001
1000
0001
1000
,
0001
0000
0001
0000
,
1100
0001
1000
0000
,
0001
0000
1000
0000
,
1100
0001
1000
0000
,
0011
0000
0101
0000
,
0001
1000
0001
0000
,
0011
0000
1001
0000
,
1000
0001
1000
0001
,
1000
0000
0000
0000
,
0001
0001
0100
0100
,
0001
1000
0001
1000
,
0001
0001
0100
0100
,
0001
1000
0100
1000
,
0001
1000
0100
1000
,
0001
1000
0010
1000
,
0001
0100
0001
1000
,
0000
0100
1000
0100
,
1000
0000
0001
0000
,
0100
0001
1000
0000
,
0000
1001
0000
1001
,
1000
0001
0100
0000
,
0001
0000
1000
0100
,
1000
0001
0000
0001
,
1000
0000
0001
0000
,
0000
1001
0000
1001
,
1001
0000
0000
0000
;

//---------------dance-single - BlueChaos----------------
#NOTES:
     dance-single:
     BlueChaos:
     Challenge:
     12:
     1.000,1.000,0.689,0.793,0.756: // measure 1
0000
0000
0000
0000
,  // measure 2
0000
0000
0000
0000
,  // measure 3
0000
0000
0000
0000
,  // measure 4
0000
0000
0000
0000
,  // measure 5
1000
1000
0001
0001
0100
0100
0010
0010
,  // measure 6
1000
1000
0100
0100
0010
0010
0001
0001
,  // measure 7
1001
0000
1010
0100
0101
0000
0011
1001
,  // measure 8
1100
0000
1000
0000
0001
0000
0011
0000
0001
1000
0001
1000
0001
0000
0001
0000
,  // measure 9
1001
1000
1100
0000
0110
0010
0011
0011
,  // measure 10
0011
0000
0001
0000
1001
0000
0000
0001
0100
0000
0010
0000
0110
0000
1000
0000
,  // measure 11
1001
0000
0000
0000
0101
0000
0000
0001
0010
0000
0100
0000
1100
0000
1100
0000
,  // measure 12
1100
0000
0000
0000
1010
0000
0010
0000
0110
0000
0000
0010
0100
0000
0001
0000
,  // measure 13
1001
0000
1100
1000
1010
0000
0010
1010
,  // measure 14
1001
0000
0000
0000
1100
0000
0000
1000
0001
0000
0010
0000
0110
0000
0100
0000
,  // measure 15
1001
1000
1100
0000
1010
0000
0101
0001
,  // measure 16
1001
0000
0000
0000
1100
0000
0000
1000
0010
0000
0100
0000
0110
0000
0010
0000
,  // measure 17
2001
0001
0100
0100
0001
0001
0010
3010
,  // measure 18
1010
0000
0000
0110
0000
0000
0101
0000
1001
0000
0001
1000
0100
0000
0010
0000
,  // measure 19
1002
1000
0100
0100
1000
1000
0010
0013
,  // measure 20
0011
0000
0000
0110
0000
0000
1100
0000
1001
0000
0001
0100
0010
0000
1000
0000
,  // measure 21
0002
0000
0000
0203
0000
0000
0320
0000
2030
0000
0000
0000
3002
0000
0000
0000
,  // measure 22
2003
0000
0000
3200
0000
0000
0320
0000
0032
0000
1000
0000
1003
0000
0000
0000
,  // measure 23
0002
0000
0000
0203
0000
0000
0320
0000
2030
0000
0000
0000
0002
0000
0000
0000
,  // measure 24
3003
0000
0001
1000
0100
0000
1000
0100
0010
0100
0001
0100
1000
0000
0100
0000
,  // measure 25
2100
0000
0010
0001
3200
0000
0010
1000
,  // measure 26
0010
0000
0310
0000
0001
0000
0100
0000
0100
0010
1000
0001
0010
0000
0010
0000
,  // measure 27
0120
0000
0001
0100
0032
0000
0010
1000
,  // measure 28
0100
0000
0103
0000
0010
0000
1000
0000
1000
0001
0100
0010
1000
0100
0010
0000
,  // measure 29
0011
0001
0200
0310
1001
0001
1000
0100
,  // measure 30
2100
0000
0100
0000
0001
0000
3001
0000
1000
0001
1000
0100
0010
0000
0100
0000
,  // measure 31
0110
0010
0002
1003
0110
0010
1000
0001
,  // measure 32
2001
0000
0001
0000
0010
0000
3010
0000
1000
0010
0100
0001
0010
0000
0100
0000
,  // measure 33
1000
0100
0010
0100
1000
0001
0100
0010
1000
0000
0001
0000
0100
0000
0010
0000
,  // measure 34
1000
0010
0100
0001
0010
0100
0010
0001
1000
0000
0001
0000
0010
0000
0100
0000
,  // measure 35
0010
0001
1000
0001
0100
0010
1000
0100
0010
0000
0001
0000
0100
0000
0010
0000
,  // measure 36
1000
0010
0100
0001
1000
0001
0010
0100
0010
0000
0100
0000
1000
0000
0001
0000
,  // measure 37
1000
0001
0100
0001
0010
0100
1000
0001
0100
0000
0001
0000
0010
0000
0100
0000
,  // measure 38
0010
0001
1000
0100
1000
0001
0100
0010
1000
0000
0010
0000
0100
0000
0001
0000
,  // measure 39
0010
0100
0010
0001
1000
0001
0100
0010
1000
0000
0001
0000
0010
0000
0001
0000
,  // measure 40
1000
0001
0100
0010
1000
0100
0010
0001
0010
0000
0001
0000
1000
0000
0001
0000
,  // measure 41
1000
0010
0100
0010
1000
0001
0010
0100
0000
1000
0000
0001
0100
0000
0010
0000
,  // measure 42
1000
0000
0001
0000
0100
0010
1000
0100
0000
0010
0000
0001
0100
0000
0010
0000
,  // measure 43
0100
0010
1000
0001
1000
0100
0010
0001
0000
1000
0000
0001
0100
0000
0010
0000
,  // measure 44
1000
0000
0010
0000
0100
0001
1000
0001
0000
1000
0000
0001
0010
0000
0001
0000
,  // measure 45
0010
0100
1000
0100
0010
0001
1000
0010
0000
0100
0000
0001
1000
0000
0001
0000
,  // measure 46
1000
0000
0100
0000
0010
0001
0010
0100
0000
1000
0010
0000
0100
0000
0001
0000
,  // measure 47
1000
0100
1000
0010
0100
0001
0010
0100
0000
0010
0000
0001
0100
0000
0001
0000
,  // measure 48
0100
0000
0010
0000
1000
0010
0100
0001
0000
1000
0100
0000
1000
0000
0100
0000
,  // measure 49
0020
0032
0023
0032
0203
0320
0230
0320
,  // measure 50
2030
3002
2003
3002
0203
0320
2030
3200
,  // measure 51
2300
3002
0203
0320
2030
3020
0230
0302
,  // measure 52
2003
3200
0302
0203
2300
3200
0320
0031
,  // measure 53
1001
0000
0000
0101
0000
0000
1010
0000
0000
0000
1000
0000
0100
0000
0110
0000
,  // measure 54
0000
0011
0000
1100
1001
0000
0101
0000
,  // measure 55
1010
0000
0000
0000
0000
0000
0000
0000
0000
0110
0000
0000
0000
0000
0000
0000
0000
0000
0101
0000
0000
0000
0000
0000
0000
0000
0000
0000
0000
0000
0001
0000
0100
0000
0001
0000
0100
0000
0000
0000
0000
0000
0000
0000
0000
0000
0000
0000
,  // measure 56
0001
0000
0000
0100
0000
0000
0010
0000
0000
0000
0000
0000
0100
0000
0000
0000
0000
0000
0010
0000
0000
1000
0000
0000
0001
0000
0000
0000
0000
0000
1000
0000
0001
0000
1000
0000
0001
0000
0000
0000
0000
0000
0000
0000
0000
0000
0000
0000
,  // measure 57
0001
0000
0000
0100
0000
0000
0010
0000
0000
1000
0000
0000
0100
0000
0000
0000
1000
0000
0000
0000
0100
0000
0000
0000
0010
0000
0000
0000
0001
0000
0000
0000
0100
0000
0000
0000
0010
0000
0000
1000
0000
0000
0001
0000
0000
0010
0000
0000
,  // measure 58
0200
0000
1000
0010
2300
0000
0100
0001
,  // measure 59
0100
0000
3100
0000
0010
0000
0001
0000
1000
0010
0100
0001
0010
0000
0001
0000
,  // measure 60
0021
0000
0100
0001
0230
0000
1000
0010
,  // measure 61
1300
0100
0010
0001
0100
0010
1000
0010
0100
0001
1000
0001
,  // measure 62
0020
0000
0000
0230
0000
0000
2300
0000
0002
3000
0000
0000
0203
0000
0000
0000
,  // measure 63
0320
0000
0000
2030
0000
0000
3002
0000
2003
0000
0100
0000
3100
0000
0000
0000
,  // measure 64
1010
0000
0000
1100
0000
0000
0110
0000
0011
0000
0000
0000
2002
0000
0000
0000
,  // measure 65
3003
0000
1000
0001
1000
0000
0001
0100
0001
1000
0001
0010
0001
0000
0000
0000
,  // measure 66
0201
0000
0010
0001
0320
0000
1000
0130
,  // measure 67
0001
0010
0100
0010
0001
1000
0010
0100
0001
1000
0010
1000
,  // measure 68
0002
0000
1000
0100
2003
0000
0100
3001
,  // measure 69
1000
0100
0010
0001
1000
0010
0100
0001
0100
0010
1000
0100
,  // measure 70
0020
0000
0000
0032
0000
0000
0203
0000
0020
0300
0000
0000
2030
0000
0000
0000
,  // measure 71
3001
0100
0010
1000
0001
1000
0100
0010
0100
1000
0001
1000
,  // measure 72
0200
0000
0000
2300
0000
0000
3002
0000
0200
0003
0000
0000
0320
0000
0000
0000
,  // measure 73
0030
0000
1000
0010
1000
0000
0010
0100
0001
0100
0010
1000
0001
0000
0100
0000
,  // measure 74
1001
0000
0000
0000
;
