#TITLE:She;
#SUBTITLE:;
#ARTIST:Groove Coverage;
#GENRE:Pop;
#TITLETRANSLIT:;
#SUBTITLETRANSLIT:;
#ARTISTTRANSLIT:;
#CREDIT:;
#BANNER:;
#BACKGROUND:She-bg.png;
#LYRICSPATH:;
#CDTITLE:;
#MUSIC:she.ogg;
#OFFSET:0.000;
#SAMPLESTART:28.235;
#SAMPLELENGTH:12.000;
#SELECTABLE:YES;
#BPMS:0.000=102.000;
#STOPS:;
#BGCHANGES:;

//---------------dance-single - BlueChaos----------------
#NOTES:
     dance-single:
     BlueChaos:
     Easy:
     24:
     0.183,0.207,0.081,0.023,0.000:
0000
0000
0000
0000
,
0000
0000
0000
0000
,
0000
0000
0000
0000
,
0000
0000
0000
0000
,
1000
0000
0001
0000
,
1000
0000
0001
0100
0000
0000
0000
0000
,
0010
0000
1000
0000
,
0001
0000
1000
0100
0000
0000
0000
0000
,
2000
0000
0000
0000
3002
0000
0000
0003
,
0100
0000
0010
1000
0000
0000
0000
0000
,
0001
0000
1000
0000
,
0001
0000
0010
0100
0000
0000
0000
0000
,
1000
1000
1000
1000
,
1000
0000
0001
0100
0000
0000
0000
0000
,
0001
0001
0001
0001
,
0001
0000
1000
0100
0000
0000
0000
0000
,
1000
0001
0100
0001
,
1000
0000
0001
0100
0000
0000
0000
0000
,
1000
1000
0001
0001
,
0010
0000
0100
1000
0000
0000
0000
0000
,
1001
0000
0110
0000
,
1001
0000
0001
0100
0000
0000
0000
0000
,
1000
0001
1000
0010
,
0100
0000
0001
1000
0000
0000
0000
0000
,
1000
1000
1000
1000
,
0001
0000
0001
0100
0000
0000
0000
0000
,
0001
0010
0100
1000
,
0001
0000
1000
0001
0000
0000
0000
0000
,
1000
1000
1000
1000
,
0010
0010
0010
0010
,
0100
0001
1000
0010
,
0100
0001
1000
1001
,
0001
0000
1001
0000
,
1000
0000
1001
0000
,
0001
1000
0010
0100
,
0001
0000
1000
0100
0000
0000
1001
0000
;

//---------------dance-single - BlueChaos----------------
#NOTES:
     dance-single:
     BlueChaos:
     Hard:
     6:
     0.411,0.375,0.127,0.289,0.000:
0000
0000
0000
0000
,
0000
0000
0000
0000
,
0000
0000
0000
0000
,
0000
0000
0000
0000
,
0002
0000
1003
0100
0010
0001
0020
0000
,
0130
1000
0001
0200
0000
0000
0000
0000
,
0320
0000
1030
0001
0010
0100
0020
0000
,
0031
1000
0010
2000
0000
0000
0000
0000
,
3200
0000
1000
1000
1300
0010
0200
0000
,
0001
0302
0010
0013
0000
0001
1001
0000
,
2000
0000
3010
0100
0001
1000
0200
0000
,
0320
0000
0031
0200
0000
0000
0301
1001
,
0001
0100
0001
0010
0001
1000
0001
0100
,
0001
0001
0001
0200
0000
0300
1001
0000
,
1000
0010
1000
0001
1000
0100
1000
0001
,
1000
1000
0010
0010
0000
1000
1001
0000
,
0001
0100
0010
0100
1000
0100
0010
0100
,
0001
2000
0100
3100
0000
1000
1001
0000
,
1000
0010
0100
0001
1000
0010
0100
0001
,
0020
0000
0032
2000
0000
3003
0110
0000
,
0010
1000
0010
0100
0001
0100
0001
0010
,
0001
0010
0001
0010
0100
0010
0100
0100
,
1000
0001
1000
0001
0100
0001
0100
0001
,
1000
0100
1000
0100
0010
0001
0010
0010
,
0200
0000
1000
2300
0010
3010
1010
0000
,
1010
0100
0001
2200
0000
0000
3300
0000
,
1000
0100
0100
0010
0010
0001
0001
0000
,
0020
0000
0031
0202
0000
0303
0000
0000
,
1000
0100
0010
0001
0010
0100
1000
0001
,
0100
0010
0100
0001
1000
0100
1000
0010
,
0100
0010
0100
0001
0010
0001
1000
0100
,
0010
0001
1000
0001
0100
1000
0100
0001
,
0100
0010
1000
0100
0010
0100
1000
0100
,
0001
0100
1000
0100
0010
0100
1000
0001
,
0100
0010
0100
0001
0100
1000
0100
0001
,
0100
0001
0010
0001
0010
0100
1000
0001
,
1001
0000
0000
0000
;

//---------------dance-single - BlueChaos----------------
#NOTES:
     dance-single:
     BlueChaos:
     Medium:
     4:
     0.284,0.291,0.116,0.231,0.000:
0000
0000
0000
0000
,
0000
0000
0000
0000
,
0000
0000
0000
0000
,
0000
0000
0000
0000
,
2000
3200
0320
0032
,
1000
1000
1003
0020
0000
0000
0000
0000
,
0230
0302
2003
3200
,
0010
0010
0310
0002
0000
0000
0000
0000
,
1003
0000
0100
1000
0100
1000
0001
0000
,
0100
0001
0100
0001
0000
0000
0000
0000
,
2000
3020
0230
0302
,
1003
0000
0001
1000
0000
0000
0000
0000
,
0010
0000
1000
0010
1000
0000
0010
0000
,
0100
0001
0100
0001
0000
0000
0000
0000
,
1000
0000
0001
0010
0001
0000
1000
0000
,
0001
0100
0001
0100
0000
0000
0000
0000
,
1010
1000
1001
0001
,
0101
0000
0001
0100
0000
0000
1001
0000
,
0001
0000
1000
0001
1000
0000
0001
0000
,
0101
0000
0001
1000
0000
0000
0000
0000
,
2000
0000
3001
0010
0200
0000
0310
0000
,
0001
1000
0001
1000
0000
0000
0000
0000
,
2000
0000
3010
0100
0002
0000
0013
0000
,
0100
1100
1000
1001
,
0001
0000
0010
0001
0010
0000
0001
0000
,
1000
0001
1000
0001
0000
0000
0000
0000
,
2000
3100
1000
1001
,
0002
0103
1001
0000
,
1000
0000
0001
0100
0010
0000
0100
0000
,
0001
0000
1000
0010
0100
0000
0001
0000
,
1000
0000
0001
0010
0100
0000
1000
0000
,
0100
0000
1000
0100
0010
0000
0100
0000
,
1000
0000
0100
1000
0001
0000
1000
0000
,
0001
0000
0100
0001
1000
0000
0001
0000
,
0010
0000
0100
1000
0010
0000
1000
0000
,
0001
0000
0010
0001
0100
0000
0001
0000
,
1001
0000
0000
0000
;

//---------------dance-single - BlueChaos----------------
#NOTES:
     dance-single:
     BlueChaos:
     Challenge:
     8:
     0.466,0.437,0.324,0.451,0.000: // measure 1
0000
0000
0000
0000
,  // measure 2
0000
0000
0000
0000
,  // measure 3
0000
0000
0000
0000
,  // measure 4
0000
0000
0000
0000
,  // measure 5
0002
0000
1003
0001
0100
1000
0002
0000
,  // measure 6
0013
1000
0100
2200
0000
0010
0001
3300
,  // measure 7
0200
0000
1300
0100
0001
0100
2000
0000
,  // measure 8
3001
1000
0010
0202
0000
0010
1000
0300
,  // measure 9
0203
0000
0310
1000
0100
0001
0201
0000
,  // measure 10
0001
0301
0100
2002
0000
0010
3013
0000
,  // measure 11
2000
0000
3010
0100
0001
0010
0200
0000
,  // measure 12
2000
0000
0002
0020
0000
3333
1100
1000
,  // measure 13
0100
0001
0101
0001
0100
1000
1100
0100
,  // measure 14
1000
0010
0110
2020
0000
0000
0101
3030
,  // measure 15
1000
0010
1001
0100
0001
0010
1100
0100
,  // measure 16
2000
0200
0010
0010
0000
0001
0011
3300
,  // measure 17
0100
1000
0010
0001
1000
0100
0001
1000
,  // measure 18
0002
0200
0010
0010
0000
1000
1010
0303
,  // measure 19
1000
0001
0010
1000
0010
0001
1000
0200
,  // measure 20
2000
0000
0002
0020
0000
3333
1100
0000
,  // measure 21
1000
0100
0110
0010
0001
0100
0101
0001
,  // measure 22
0100
1000
1100
0100
0001
0010
0011
0001
,  // measure 23
1000
0100
1100
1000
0100
0001
0101
0100
,  // measure 24
1000
0010
1010
1000
0010
0001
0011
0010
,  // measure 25
0200
0000
0301
0010
1000
0010
0110
0000
,  // measure 26
1100
0200
2000
0022
0000
3333
0000
0000
,  // measure 27
2000
0000
0200
3000
0002
0300
0020
0003
,  // measure 28
2000
0030
3100
0010
0000
2002
0000
3000
,  // measure 29
1003
0010
0001
0100
1000
0010
0001
0010
,  // measure 30
1000
0100
0001
0010
1000
0010
0001
0100
,  // measure 31
1000
0010
1000
0001
0010
1000
0010
0001
,  // measure 32
0100
1000
0010
0001
0100
1000
0100
0001
,  // measure 33
0100
0010
0001
0100
1000
0010
0001
0100
,  // measure 34
1000
0001
0010
1000
0100
0001
1000
0001
,  // measure 35
0100
0010
1000
0010
0001
0100
1000
0100
,  // measure 36
0001
0010
1000
0100
1000
0010
0001
0100
,  // measure 37
0101
0000
0000
0000
;
