#TITLE:Seven;
#SUBTITLE:;
#ARTIST:DM Ashura;
#GENRE:Light Trance;
#TITLETRANSLIT:;
#SUBTITLETRANSLIT:;
#ARTISTTRANSLIT:;
#CREDIT:;
#BANNER:seven.png;
#BACKGROUND:seven-bg.png;
#LYRICSPATH:;
#CDTITLE:;
#MUSIC:seven.ogg;
#OFFSET:0.000;
#SAMPLESTART:30.000;
#SAMPLELENGTH:12.000;
#SELECTABLE:YES;
#BPMS:0.000=140.000;
#STOPS:;
#BGCHANGES:;

//---------------dance-single - Renard----------------
#NOTES:
     dance-single:
     Renard:
     Hard:
     8:
     0.478,0.515,0.194,0.054,0.005:
0000
0000
0000
0000
,
0000
0000
0000
0000
,
0000
0000
0000
0000
,
0000
0000
1000
0010
,
0100
0001
0010
0100
0000
1000
0000
0010
,
0100
0001
1000
0000
0100
0000
1000
0001
,
0010
0001
0000
1000
0000
0010
0100
0001
,
0010
0000
0100
0000
1000
0010
0100
0001
,
0000
1000
0000
0100
1000
0010
0100
0000
,
0001
0000
0010
0100
1000
0010
0000
1001
,
0000
0010
0000
1001
0010
0000
1000
0010
,
0100
0001
0010
0110
0000
0100
1000
0010
,
0100
0001
0110
0000
0010
1000
0100
0010
,
0001
0110
0000
0010
1000
0100
0010
0100
,
0110
0000
0100
1000
0010
0100
0001
0110
,
0000
0010
1000
0100
1000
0010
0110
0000
,
0010
1000
0001
0010
0100
0110
0000
0100
,
1000
0010
1000
0001
1001
0000
0001
0100
,
0010
1000
0100
1001
0000
0001
1000
0100
,
0010
0001
1001
0000
0001
0010
0100
1000
,
0010
1001
0000
0010
1000
0100
0010
0001
,
1001
0000
0001
0010
0100
1000
0100
1001
,
0000
0100
1000
0010
0100
0010
1001
0000
,
0010
1000
0100
0010
0001
1001
0000
0001
,
0010
0100
1000
0010
0200
0000
0000
0000
,
0000
0000
0001
0302
0000
0100
0000
0103
,
0000
0100
0010
0000
0100
0000
0001
0000
,
1000
0000
0200
0000
0000
0000
0000
0000
0000
0000
0000
0000
0000
0000
0310
0001
,
0010
0000
0000
0001
0000
0000
0010
0000
,
0000
1000
0000
0000
0010
0100
1000
0010
,
0100
0000
0001
0000
0100
0010
0000
0000
,
0000
0000
0000
0000
1000
0010
0000
0010
,
0000
0010
0000
0000
0100
0000
0100
0000
,
0100
0100
0100
0001
0000
0001
0000
0001
,
0000
0010
0010
0010
,
0010
0100
0000
0100
0000
0100
0000
0100
,
1000
0000
1000
0000
1000
1000
1000
0010
,
0000
0010
0000
0010
0000
0000
0001
0000
,
0010
1001
1000
0010
,
0100
0001
0010
0100
0000
0100
1000
0010
,
0100
0001
1000
0000
1000
0100
0010
0001
,
0010
0100
0000
0100
1000
0010
0100
0001
,
1000
0000
1000
0001
0100
0010
1000
0100
,
0000
0100
1000
0010
0100
0001
0010
0000
,
0010
0001
1000
0010
0100
0001
0000
0001
,
1000
0100
0010
0001
0010
0100
1000
0010
,
0100
0001
1000
0100
0000
0100
1000
0010
,
0100
0001
0010
0000
0010
0001
0100
0010
,
1000
0000
1000
0100
0010
0001
0010
0100
,
1000
0000
1000
0010
0100
0001
0010
0100
,
0000
0100
1000
0010
0100
0001
0010
0000
,
0010
0001
0100
0010
1000
0100
0000
0100
,
1000
0010
0200
0002
0000
0000
0000
0000
,
0303
0000
0000
0000
;

//---------------dance-single - Renard----------------
#NOTES:
     dance-single:
     Renard:
     Medium:
     5:
     0.356,0.367,0.076,0.054,0.000:
0000
0000
0000
0000
,
0000
0000
0000
0000
,
0000
0000
0000
0000
,
0000
0000
1000
0010
,
0100
0000
0001
1000
0000
0100
0000
0010
,
0000
0001
1000
0000
0001
0000
0100
0000
,
0010
1000
0000
0101
0000
1010
0000
1000
,
0100
0000
0010
0000
0001
0000
0010
0100
,
0000
1000
0000
0010
0000
0100
0001
0000
,
1100
0000
0011
0000
0001
0100
0000
1010
,
0000
0101
0000
1000
0100
0000
0010
0000
,
0001
1000
0001
1000
0000
0001
0000
0100
,
0010
0100
0010
0000
1000
0000
0001
1000
,
0001
1000
0000
0010
0000
0100
0010
0100
,
0001
0000
1000
0000
0100
1000
0100
1000
,
0000
0001
0000
0010
0001
0010
0001
0000
,
0100
0000
0001
0100
0001
0100
0000
0010
,
0000
1000
0010
1000
0010
0000
0100
0000
,
0001
0000
1000
0100
0000
0010
0000
0001
,
0000
0100
0001
0000
1000
0000
0100
0000
,
0010
0001
0000
1000
0000
0001
0000
1000
,
0010
0000
0100
0000
0001
0000
1000
0100
,
0000
1000
0000
0001
0000
0010
0001
0000
,
0100
0000
0010
0000
1000
0001
0000
0100
,
0000
0010
0000
0010
0200
0000
0000
0000
,
0000
0000
0001
0302
0000
0100
0000
0103
,
0000
0100
0010
0000
0100
0000
0001
0000
,
1000
0200
0000
0000
0000
0000
0000
0310
,
0001
0000
0000
0001
0000
0000
0010
0000
,
0000
0100
0000
0000
1000
0100
0010
0001
,
0100
0000
0001
0000
0100
0010
0000
0000
,
0000
0000
0000
0000
1000
0010
0000
0010
,
0000
0010
0000
0000
0100
0000
0100
0000
,
0100
0100
0100
0001
0000
0001
0000
0001
,
0000
0010
0010
0010
,
0010
0100
0000
0100
0000
0100
0000
0100
,
1000
0000
1000
0000
1000
1000
1000
0010
,
0000
0010
0000
0010
0000
0000
0001
0000
,
0010
1001
1000
0010
,
0100
0000
0001
1000
0000
0100
0000
0010
,
0000
0001
1000
0000
0010
0000
0100
0000
,
0001
1000
0000
0100
0000
1000
0000
0001
,
0010
0000
0001
0000
1000
0000
0010
0100
,
0000
0001
0000
1000
0000
0100
0010
0000
,
0001
0000
1000
0010
0100
0001
0000
1000
,
0000
0100
0010
0001
1000
0000
0001
0000
,
0100
0000
0010
1000
0000
0010
0000
0100
,
0000
0001
1000
0000
0100
0000
0010
0000
,
0001
1000
0000
0000
0000
0000
0000
0001
,
0100
0000
0000
0010
0000
0000
1000
0000
,
0000
0100
0000
0000
0010
0001
0010
0001
,
0010
0000
0100
0000
2000
0020
0000
0000
,
0000
3030
0000
0000
;

//---------------dance-single - Renard----------------
#NOTES:
     dance-single:
     Renard:
     Easy:
     2:
     0.265,0.254,0.022,0.054,0.000: // measure 1
0000
0000
0000
0000
,  // measure 2
0000
0000
0000
0000
,  // measure 3
0000
0000
0000
0000
,  // measure 4
0000
0000
0001
0100
,  // measure 5
0010
1000
0000
0000
,  // measure 6
0000
0001
0010
0100
,  // measure 7
1000
0000
0000
0000
,  // measure 8
0001
0100
0010
1000
,  // measure 9
0000
0000
0000
0001
,  // measure 10
0010
0100
1000
0000
,  // measure 11
0000
0000
0001
0100
,  // measure 12
0010
0000
1000
0001
0000
0000
0000
1000
,  // measure 13
0000
0001
0100
0010
,  // measure 14
1000
0001
0000
0000
0000
1000
0000
0000
,  // measure 15
0001
0000
0010
0000
0100
0000
1000
0001
,  // measure 16
0000
0000
0000
1000
0000
0000
0001
0000
,  // measure 17
0100
0000
0010
0000
1000
0001
0000
0000
,  // measure 18
0000
1001
0000
0000
1000
0000
0010
0000
,  // measure 19
1000
0000
0001
0010
0000
0000
0000
0100
,  // measure 20
0000
1000
0010
1000
,  // measure 21
0001
1000
0000
0000
0000
0010
0000
0000
,  // measure 22
0100
0000
0001
0000
0100
0000
0010
1000
,  // measure 23
0000
0000
0000
0001
0000
0000
1000
0000
,  // measure 24
0010
0000
0100
0000
0001
1000
0000
0000
,  // measure 25
0000
1000
0000
0000
0020
0000
0000
0000
,  // measure 26
0000
0000
1000
2030
0000
0010
0000
3010
,  // measure 27
0000
0010
0100
0000
0010
0000
1000
0000
,  // measure 28
0001
0020
0000
0000
0000
0000
0000
0130
,  // measure 29
1000
0000
0000
1000
0000
0000
0100
0000
,  // measure 30
0000
0010
0000
0000
0001
0010
0100
1000
,  // measure 31
0010
0000
1000
0000
0010
0100
0000
0000
,  // measure 32
0000
0000
0000
0000
0001
0100
0000
0100
,  // measure 33
0000
0100
0000
0000
0010
0000
0010
0000
,  // measure 34
0010
0000
0010
1000
0000
1000
0000
1000
,  // measure 35
0000
0100
0100
0100
,  // measure 36
0100
0010
0000
0010
0000
0010
0000
0010
,  // measure 37
0001
0000
0001
0000
0001
0000
0001
0100
,  // measure 38
0000
0100
0000
0100
0000
0000
1000
0000
,  // measure 39
0100
1001
0001
0100
,  // measure 40
0010
0000
0000
1000
0000
0001
0000
0010
,  // measure 41
0000
0100
1000
0010
,  // measure 42
0000
1000
0000
0001
0000
0010
0000
0000
,  // measure 43
0001
0000
1000
0000
0010
0000
0000
1000
,  // measure 44
0000
0001
0000
1000
0000
0000
0100
0000
,  // measure 45
1000
0000
0001
0000
0000
0100
0000
0010
,  // measure 46
0000
1000
0000
0000
0001
0000
0000
0000
,  // measure 47
0000
0000
1000
0001
0000
0100
0000
0010
,  // measure 48
0000
1000
0001
0000
0010
0000
0100
0000
,  // measure 49
1000
0001
0000
0000
0000
0000
0000
1000
,  // measure 50
0010
0000
0000
0100
0000
0000
0001
0000
,  // measure 51
0000
0010
0000
0000
0100
1000
0100
1000
,  // measure 52
0100
0000
0010
0000
0002
0200
0000
0000
,  // measure 53
0000
0303
0000
0000
;
