#TITLE:Second Wind;
#SUBTITLE:;
#ARTIST:Sonitus Vir feat. Emoticon;
#GENRE:Baroque Bender;
#TITLETRANSLIT:;
#SUBTITLETRANSLIT:;
#ARTISTTRANSLIT:;
#CREDIT:;
#BANNER:wind.png;
#BACKGROUND:wind-bg.png;
#LYRICSPATH:;
#CDTITLE:;
#MUSIC:wind.ogg;
#OFFSET:0.000;
#SAMPLESTART:13.400;
#SAMPLELENGTH:11.000;
#SELECTABLE:YES;
#BPMS:0.000=143.000;
#STOPS:;
#BGCHANGES:;

//---------------dance-single - Renard----------------
#NOTES:
     dance-single:
     Renard:
     Challenge:
     11:
     0.905,0.933,0.333,0.229,0.916:
0000
0000
0000
0000
,
0000
0000
0000
0000
,
1001
0000
0010
1001
0000
0100
1001
1010
,
0001
0000
0000
0000
0000
0000
0100
0000
0000
0000
0000
0000
0010
0000
1000
0000
0010
0000
1000
0000
0010
0000
1000
0000
0001
0000
0000
0100
0000
0000
0001
0000
0000
0200
0000
0000
0002
0000
0000
0000
0000
0000
0300
0000
0000
0003
0000
0000
,
1000
0001
0100
0001
1000
0001
0010
0001
,
1000
0000
1000
0000
0001
0100
0001
0000
1000
0000
1000
0000
0001
0100
0001
0000
,
1010
0001
0100
1001
0100
0010
1100
0011
,
1000
0000
0000
0000
0000
0000
0001
0000
0000
0000
0000
0000
1000
0000
0001
0000
1000
0000
0001
0000
1000
0000
0001
0000
1000
0000
0000
0010
0000
0000
0100
0000
0000
0020
0000
0000
2000
0000
0000
0000
0000
0000
0030
0000
0000
3000
0000
0000
,
0010
0000
0100
0000
0001
0000
1000
0000
0100
0010
0001
0010
0100
0000
1000
0000
,
0001
0000
0000
0100
0000
0000
0010
1000
0010
1000
0010
1000
0010
0000
0000
0000
0000
0000
1001
0000
0000
0000
0000
0000
,
1000
0000
0001
0000
0100
0000
0010
0000
1000
0001
0100
0010
1000
0000
0100
0000
,
0010
0001
0010
0000
0011
0000
1001
0000
0010
1000
0010
0000
1010
0000
1001
0000
,
1001
0000
0010
0000
0100
0000
0001
0000
1000
0001
0100
0010
1000
0000
0100
0000
,
0010
0000
0000
0001
0000
0000
1000
0010
1000
0010
1000
0010
1000
0000
0000
0000
0000
0000
1001
0000
0000
0000
0000
0000
,
0010
0000
0000
0000
0000
0000
1000
0000
0000
0000
0000
0000
0001
0000
0000
0100
0000
0000
0001
0000
0000
1000
0000
0000
0010
0000
0100
0000
0010
0000
0100
0000
0010
0000
0100
0000
0010
0000
0000
0000
0000
0000
1000
0000
0000
0000
0000
0000
,
0010
0000
0000
0100
0000
0000
0001
0000
0000
0200
0000
0000
0020
0000
0000
0300
0000
0000
2000
0000
0000
0030
0000
0000
3100
0000
1000
0000
0100
0000
1000
0000
0100
0000
1000
0000
0100
0000
0000
0000
0000
0000
1000
0000
0000
0000
0000
0000
,
0010
1000
0001
0100
0010
0000
0000
0200
0000
0000
0002
0000
0010
0000
0303
0000
,
0010
0000
0000
1000
0000
0000
0001
0000
0100
0000
0001
0000
1000
0000
0000
0100
0000
0000
0020
0000
0000
0000
0000
0000
0130
0000
0000
1000
0000
0000
0100
0000
0000
0010
0000
0000
0200
0000
0000
0000
0000
0000
0000
0000
0000
0000
0000
0000
,
1300
0100
0010
0001
0010
0000
0000
0002
0000
0000
2000
0000
0010
0000
3003
0000
,
0010
0000
0000
1000
0000
0000
0001
0000
0100
0000
0001
0000
0100
0000
0000
0010
0000
0000
2000
0000
0000
0000
0000
0000
3100
0000
0000
0010
0000
0000
0001
0000
0000
0010
0000
0000
0002
0000
0000
0000
0000
0000
0000
0000
0000
0000
0000
0000
,
0103
0001
1000
0010
0100
0000
0000
0002
0000
0000
2000
0000
0010
0000
3003
0000
,
0100
0000
0000
0001
0000
0000
1000
0000
0010
0000
1000
0000
0001
0000
0000
0010
0000
0000
0200
0000
0000
0000
0000
0000
0310
0000
0000
0001
0000
0000
0010
0000
0000
0100
0000
0000
0020
0000
0000
0000
0000
0000
0000
0000
0000
0000
0000
0000
,
0031
0010
0100
1000
0100
0000
0000
2000
0000
0000
0002
0000
0010
0000
3003
0000
,
0100
0000
0000
0001
0000
0000
1000
0000
0010
0000
1000
0000
0010
0000
0000
0100
0000
0000
0002
0000
0000
0000
0000
0000
0013
0000
0000
0100
0000
0000
1000
0000
0000
0100
0000
0000
1000
0000
0000
0000
0000
0000
0000
0000
0000
0000
0000
0000
,
1001
0000
1100
0000
1000
0100
0000
0010
,
0010
0000
0100
1000
0100
0000
1000
0000
0010
0000
0001
0010
0000
0000
0010
0000
,
0010
0000
0100
0000
0001
0000
1000
0000
1000
0000
0000
0100
0000
0000
0001
0000
,
0100
0000
0000
1000
0100
1000
0100
0000
0000
0010
0001
0010
0001
0000
0000
0010
0000
0000
1001
0000
0000
0000
0000
0000
,
1001
0000
0011
0000
0001
0010
0000
0100
,
0100
0000
0010
0001
0010
0000
0001
0000
0100
0000
1000
0100
0000
0000
0100
0000
,
0100
0000
0010
0000
1000
0000
0001
0000
0001
0000
0000
0010
0000
0000
1000
0000
,
0010
0000
0000
0001
0010
0001
0010
0000
0000
0100
1000
0100
1000
0000
0000
0100
0000
0000
1001
0000
0000
0000
0000
0000
,
0100
0000
0100
0010
0000
0010
1000
0000
0001
0100
0001
0100
0001
0000
0100
0000
,
0010
0000
0010
1000
0000
1000
0100
0000
0010
0001
0010
0001
0010
0000
0001
0000
,
0010
0000
0010
0100
0000
0100
1000
0000
0001
1000
0001
1000
0001
0000
0100
0000
,
0010
0000
0010
1000
0000
1000
0001
0000
0100
0010
0100
0010
1000
0000
1000
0000
,
0010
0000
0010
0100
0000
0100
0001
0000
1000
0010
1000
0010
1000
0000
0010
0000
,
0100
0000
0100
0001
0000
0001
0010
0000
0100
1000
0100
1000
0100
0000
1000
0000
,
0100
0000
0100
0010
0000
0010
0001
0000
1000
0001
1000
0001
1000
0000
0010
0000
,
0100
0000
0100
0001
0000
0001
1000
0000
0010
0100
0010
0100
0001
0000
1000
0000
,
0010
0000
0100
0000
0001
0000
1000
0000
0100
0010
0001
0010
0100
0000
1000
0000
,
0010
0000
0000
0100
0000
0000
0001
0100
0001
0100
0001
0100
0001
0000
0000
0000
0000
0000
1001
0000
0000
0000
0000
0000
,
1000
0000
0000
0000
0000
0000
0100
0000
0000
0000
0000
0000
1000
0000
0000
0100
0000
0000
0010
0000
0000
0001
0000
0000
0010
0000
0100
0000
1000
0000
0100
0000
1000
0000
0100
0000
1000
0000
0000
0000
0000
0000
0100
0000
0000
0000
0000
0000
,
0010
0000
0000
0001
0000
0000
1000
0000
0000
0010
0000
0000
0100
0000
0000
0000
0000
0000
0001
0000
0000
0000
0000
0000
0010
0000
0001
0000
0010
0000
0001
0000
0010
0000
0001
0000
0010
0000
0000
0000
0000
0000
0001
0000
0000
0000
0000
0000
,
0100
0000
0010
0000
1000
0000
0001
0000
0010
0100
1000
0100
0010
0000
0001
0000
,
0100
0000
0000
0010
0000
0000
1000
0010
1000
0010
1000
0010
1000
0000
0000
0000
0000
0000
1001
0000
0000
0000
0000
0000
,
0001
0000
0000
0000
0000
0000
0010
0000
0000
0000
0000
0000
0001
0000
0000
0010
0000
0000
0100
0000
0000
1000
0000
0000
0100
0000
0010
0000
0001
0000
0010
0000
0001
0000
0010
0000
0001
0000
0000
0000
0000
0000
0010
0000
0000
0000
0000
0000
,
0100
0000
0000
1000
0000
0000
0001
0000
0000
0100
0000
0000
0010
0000
0000
0000
0000
0000
1000
0000
0000
0000
0000
0000
0100
0000
1000
0000
0100
0000
1000
0000
0100
0000
1000
0000
0100
0000
0000
0000
0000
0000
1000
0000
0000
0000
0000
0000
,
0010
1000
0001
0100
0010
1000
0100
0010
,
0001
0000
1000
0000
0001
1000
0001
1000
0010
0000
0100
0000
0010
0000
0100
0000
,
1001
0000
0100
1001
0000
0010
1001
0101
,
1000
0000
0000
0000
0000
0000
0010
0000
0000
0000
0000
0000
0100
0000
0001
0000
0100
0000
0001
0000
0100
0000
0001
0000
1000
0000
0000
0010
0000
0000
1000
0000
0000
0010
0000
0000
1000
0000
0000
0000
0000
0000
0000
0000
0000
0000
0000
0000
,
0001
1000
0010
1000
0001
1000
0100
1000
,
0001
0000
0001
0000
1000
0010
1000
0000
0001
0000
0001
0000
1000
0010
1000
0000
,
0101
1000
0010
1001
0010
0100
0011
1100
,
0001
0000
0000
0000
0000
0000
1000
0000
0000
0000
0000
0000
0001
0000
1000
0000
0001
0000
1000
0000
0001
0000
1000
0000
0001
0000
0000
0100
0000
0000
0010
0000
0000
0100
0000
0000
0001
0000
0000
0000
0000
0000
0000
0000
0000
0000
0000
0000
,
1001
0000
0000
0000
;

//---------------dance-single - Renard----------------
#NOTES:
     dance-single:
     Renard:
     Hard:
     9:
     0.660,0.670,0.062,0.000,0.432:
0000
0000
0000
0000
,
0000
0000
0000
0000
,
0000
0000
0000
0000
,
0000
0000
0000
0000
,
1000
0010
0100
0001
0010
0100
1000
0010
,
0000
0000
0100
0000
0001
0100
0001
0000
0100
0000
0010
0000
1000
0000
0100
0000
,
0010
0000
0010
0001
0000
0001
0100
0001
,
1000
0000
0001
0000
1000
0001
1000
0001
1000
0000
0010
0000
0100
0000
0000
0000
,
0001
0000
1000
0000
0100
0000
1000
0000
0001
1000
0001
1000
0001
0000
1000
0000
,
0010
0000
0100
0000
0001
1000
0001
0000
1000
0000
0000
0000
1001
0000
0000
0000
,
1000
0000
0010
0000
0100
0000
0001
0000
0010
0001
0010
0000
0001
0000
0010
0000
,
0100
0000
1000
0000
0100
1000
0100
0000
1000
0000
0010
0000
1000
0010
1000
0000
,
0010
0000
0100
0000
0001
0000
1000
0000
0001
1000
0001
1000
0001
0000
1000
0000
,
0001
0000
0100
0000
0010
1000
0010
0000
1000
0000
0000
0000
1010
0000
0000
0000
,
0010
0000
0100
0000
0001
0000
1000
0000
0100
1000
0100
0000
1000
0000
0100
0000
,
0010
0001
0010
0000
0001
0000
1000
0000
0001
1000
0001
0000
1000
0000
0001
0000
,
0100
0000
0000
0000
0010
0000
0000
1000
0000
0000
0100
0000
0010
0000
0000
0000
,
0001
0010
0100
1000
0010
0100
0001
1000
,
0100
0000
0000
0000
0010
0000
0000
0001
0000
0000
0100
0000
0010
0000
0000
0000
,
1000
0100
0010
0001
0010
0100
1000
0010
,
0100
0000
0001
0000
1000
0000
0000
0001
0000
0000
0100
0000
0010
0000
0000
0000
,
1000
0100
0010
0001
1000
0001
0100
0010
,
1000
0000
0100
0000
0010
0000
0000
0001
0000
0000
0010
0000
0100
0000
0000
0000
,
1000
0000
0010
0000
0100
0000
0001
0000
1000
0000
0001
1000
0001
0000
0000
0000
,
1000
0000
0110
0000
0001
0100
0000
0010
,
1000
0000
0001
1000
0001
0000
1000
0000
0010
0000
0100
0001
0000
0000
1000
0000
,
0100
0000
0010
0001
0010
0000
0001
0000
0010
0000
0000
0100
0000
0000
1000
0000
,
0010
0000
1000
0010
1000
0000
0001
0100
0001
0000
1000
0000
0001
0000
0000
0000
,
1000
0100
0010
0001
1000
0010
0000
0100
,
0001
0000
1000
0001
1000
0000
0001
0000
0100
0000
0010
1000
0000
0000
0100
0000
,
0010
0000
0001
0000
0010
0000
0100
0000
1000
0000
0010
0100
0000
0001
0100
0000
,
0010
0000
1000
0000
0001
0000
0100
0000
0010
1000
0010
0000
1000
0000
0000
0000
,
0001
0000
0001
0100
0000
0100
0010
0000
1000
0000
0100
0000
0010
0000
0001
0000
,
0010
0000
0010
0100
0000
0100
1000
0000
0010
0000
0100
0000
0001
0000
1000
0000
,
0100
0000
0100
0010
0000
0010
0001
0000
0100
0000
0010
0000
1000
0000
0001
0000
,
1000
0000
1000
0100
0000
0100
1000
0000
0010
0000
0100
0000
0001
0000
1000
0000
,
0001
0000
0001
0100
0000
0100
0010
0000
1000
0000
0100
0000
0010
0000
0001
0000
,
1000
0000
1000
0010
0000
0010
0100
0000
0001
0000
0010
0000
0100
0000
1000
0000
,
0001
0000
0001
1000
0000
1000
0001
0000
0100
0000
0010
0000
1000
0000
0100
0000
,
0010
0000
0010
0001
0000
0001
0100
0000
0010
0000
1000
0000
0001
0000
1000
0000
,
0010
0000
0100
0000
0001
0000
1000
0000
0001
1000
0001
1000
0001
0000
1000
0000
,
0010
0000
1000
0000
0001
1000
0001
1000
0001
0000
0000
0000
0101
0000
0000
0000
,
1000
0000
0100
0000
0010
0000
0001
0000
0010
0001
0010
0000
0001
0000
0010
0000
,
0100
0000
1000
0000
0100
1000
0100
0000
1000
0000
0010
0000
1000
0010
1000
0000
,
0010
0000
0100
0000
0001
0000
0010
0000
0001
1000
0001
1000
0001
0000
1000
0000
,
0100
0000
0010
0000
0001
0010
0100
1000
0001
0000
0000
0000
1001
0000
0000
0000
,
1000
0000
0010
0000
0100
0000
0001
0000
1000
0001
1000
0001
1000
0000
0001
0000
,
0010
0001
0010
0001
0010
0000
0001
0000
0010
0100
0010
0100
0010
0000
0100
0000
,
1000
0010
1000
0010
1000
0000
0000
0010
0000
0000
1000
0000
0010
0000
0000
0000
,
0100
0001
0100
0001
0100
0000
0001
0000
0010
0000
0100
0000
1000
0000
0000
0000
,
0010
1000
0010
1000
0010
0000
0000
1000
0000
0000
0001
0000
0100
0000
0000
0000
,
0001
0000
0010
0000
0100
0010
0100
0000
1000
0100
1000
0000
0010
0000
0000
0000
,
1000
0000
0010
0000
0100
0000
0000
0001
0000
0000
0010
0000
0100
0000
0000
0000
,
1000
0000
0010
0000
1000
0010
1000
0000
0001
0100
0001
0100
0001
0000
0000
0000
,
1000
0100
1000
0100
1000
0000
0000
0001
0000
0000
0010
0000
0100
0000
0000
0000
,
1000
0000
0010
0000
1000
0000
0001
0000
0100
0001
1000
0001
1000
0000
0000
0000
,
1001
0000
0000
0000
;

//---------------dance-single - Renard----------------
#NOTES:
     dance-single:
     Renard:
     Medium:
     8:
     0.485,0.495,0.021,0.000,0.146:
0000
0000
0000
0000
,
0000
0000
0000
0000
,
0000
0000
0000
0000
,
0000
0000
0000
0000
,
1000
0100
0010
0001
0010
0100
1000
0010
,
0000
0100
0001
1000
0001
0000
0001
0000
,
1000
0000
1000
0100
0000
0100
0010
0001
,
1000
0000
0000
0000
0001
0000
1000
0000
0001
1000
0001
0000
1000
0000
0000
0000
,
0001
0100
0010
1000
0001
1000
0001
0000
,
1000
0100
0010
0000
0001
0000
1001
0000
,
0001
0000
0100
0000
0010
0000
1000
0000
0001
1000
0001
0000
1000
0000
0000
0000
,
0001
0000
1000
0000
0001
1000
0001
0000
,
1000
0010
0100
0001
0010
0100
1000
0000
,
0001
0000
1000
0000
0001
1000
0001
0000
1000
0000
0000
0000
1001
0000
0000
0000
,
1000
0001
1000
0000
0001
1000
0001
0000
,
1000
0010
1000
0000
0001
0100
0001
0000
,
1000
0000
0100
0000
0010
0000
0000
0001
0000
0000
0010
0000
0100
0000
0000
0000
,
1000
0000
0001
0000
0010
0000
0000
0100
0000
0000
1000
0000
0100
0000
0000
0000
,
0010
0000
0001
0000
1000
0000
0000
0100
0000
0000
0010
0000
0001
0000
0000
0000
,
1000
0000
0100
0000
0010
0000
0000
0001
0000
0000
0010
0000
0100
0000
0000
0000
,
1000
0000
0100
0000
0010
0000
0000
0001
0000
0000
0010
0000
0100
0000
0000
0000
,
0010
0000
0100
0000
0010
0000
0000
0001
0000
0000
0010
0000
0100
0000
0000
0000
,
1000
0000
0100
0000
0010
0000
0000
0100
0000
0000
1000
0000
0100
0000
0000
0000
,
0010
0001
0010
0100
1000
0001
0010
0000
,
0001
0000
1000
0000
0010
0100
0000
0001
,
1000
0000
0001
0000
0100
0000
0010
0000
1000
0000
0010
1000
0000
0000
0010
0000
,
0100
0001
0010
0100
,
1000
0010
0100
0001
,
1000
0000
0100
0000
0010
0001
0000
0100
,
0001
0000
0000
1000
0001
0000
1000
0000
0010
0000
0000
0100
0000
0000
0001
0000
,
0010
0000
0000
0000
0100
0000
0000
0000
1000
0000
0000
0010
0000
0000
0100
0000
,
0001
0000
1000
0000
0010
0100
0001
0000
,
1000
0000
0000
0100
0000
0000
0010
0000
0001
0000
0000
0000
0001
0000
0000
0000
,
0001
0000
0000
0010
0000
0000
0100
0000
1000
0000
0000
0000
1000
0000
0000
0000
,
1000
0000
0000
0100
0000
0000
0010
0000
0001
0000
0000
0000
0001
0000
0000
0000
,
0001
0000
0000
0010
0000
0000
0100
0000
1000
0000
0000
0000
1000
0000
0000
0000
,
1000
0000
0000
0010
0000
0000
0100
0000
0001
0000
0000
0000
0001
0000
0000
0000
,
0001
0000
0000
0100
0000
0000
0010
0000
1000
0000
0000
0000
1000
0000
0000
0000
,
0010
0000
0000
0100
0000
0000
0001
0000
1000
0000
0000
0001
0000
0000
1000
0000
,
0010
0100
0001
1000
0100
0000
1000
0000
,
0001
0010
0001
0010
0001
0010
0001
0010
,
0001
0010
0100
0010
0100
0010
0100
0010
,
0100
1000
0100
1000
0100
1000
0100
1000
,
0010
1000
0010
1000
0010
1000
0010
1000
,
0010
0100
0010
0100
0010
0100
0010
0100
,
0001
0100
0001
0100
0001
0100
0001
0100
,
0001
0010
0001
0010
0100
0010
0100
0010
,
0100
1000
0100
1000
0001
1000
0001
0000
,
1000
0000
0000
0000
0001
0000
0000
0100
0000
0000
0010
0000
1000
0000
0000
0000
,
0001
1000
0001
1000
0001
1000
0001
0000
,
0001
0000
0000
0000
1000
0000
0000
0010
0000
0000
0100
0000
0001
0000
0000
0000
,
1000
0100
1000
0100
0010
0100
0010
0000
,
0001
0000
0000
0000
0010
0000
0000
0100
0000
0000
1000
0000
0100
0000
0000
0000
,
0010
0000
0001
1000
0001
1000
0001
0000
,
1000
0000
0010
0100
0000
0000
0001
0000
,
1000
0000
0000
0000
0100
0000
0010
0000
0001
1000
0001
1000
0001
0000
1000
0001
,
1000
0000
0000
0000
;

//---------------dance-single - Renard----------------
#NOTES:
     dance-single:
     Renard:
     Easy:
     5:
     0.318,0.408,0.021,0.031,0.005: // measure 1
0000
0000
0000
0000
,  // measure 2
0000
0000
0000
0000
,  // measure 3
0000
0000
0000
0000
,  // measure 4
0000
0000
0000
0000
,  // measure 5
1000
0000
0010
0100
0001
0000
1000
0001
,  // measure 6
0000
1000
0001
0000
,  // measure 7
0001
0000
0001
0010
0000
0010
0100
1000
,  // measure 8
0001
1000
0001
1000
0001
1000
0001
0000
,  // measure 9
1000
0000
0001
0000
0100
0001
0100
0000
,  // measure 10
0001
0000
1000
0100
0010
0000
0000
0000
,  // measure 11
0001
0010
0100
1000
,  // measure 12
0010
0000
0100
0001
0100
0000
0000
0000
,  // measure 13
0001
1000
0100
0010
,  // measure 14
0001
0000
0010
0100
1000
0000
0000
0000
,  // measure 15
0001
0000
0000
0000
0100
0000
0010
1000
,  // measure 16
0010
0100
0001
0000
,  // measure 17
1000
1000
1000
1000
,  // measure 18
0001
0000
0001
0000
1000
0001
1000
0000
,  // measure 19
0001
0001
0001
0001
,  // measure 20
1000
0000
1000
0000
1000
0001
1000
0000
,  // measure 21
0010
0010
0010
0010
,  // measure 22
0100
0000
0100
0000
0100
0010
0100
0000
,  // measure 23
0010
0000
0010
0100
0010
0000
0010
0000
,  // measure 24
0010
0100
0010
0100
0010
0000
0010
0000
,  // measure 25
1000
0000
0001
0000
0100
0001
0000
1000
,  // measure 26
0100
0010
0001
0010
,  // measure 27
0100
1000
0100
0010
,  // measure 28
0001
0000
1000
0000
,  // measure 29
0001
0000
0010
0000
0100
1000
0000
0100
,  // measure 30
1000
0010
0100
0001
,  // measure 31
1000
1000
0001
0001
,  // measure 32
0100
0001
1000
0001
,  // measure 33
1000
0000
1000
0000
,  // measure 34
0002
0000
0000
0000
,  // measure 35
0103
0000
0100
0000
,  // measure 36
0020
0000
0000
0000
,  // measure 37
1030
0000
1000
0000
,  // measure 38
0002
0000
0000
0000
,  // measure 39
0103
0000
0100
0000
,  // measure 40
0001
1000
0100
0000
,  // measure 41
1000
0001
1000
0001
,  // measure 42
0100
0000
0001
1000
0001
0000
1001
0000
,  // measure 43
1000
0010
0100
0001
,  // measure 44
0010
0000
0100
0000
1000
0001
1000
0000
,  // measure 45
0001
0100
0001
1000
,  // measure 46
0100
0010
0001
1001
,  // measure 47
0001
0000
0100
0000
0010
0000
1000
0001
,  // measure 48
1000
0000
0001
0000
0100
0001
1000
0000
,  // measure 49
0001
0001
0001
0001
,  // measure 50
1000
1000
1000
1000
,  // measure 51
0010
0000
0010
0100
0000
0100
0010
0100
,  // measure 52
0010
0000
0000
0000
,  // measure 53
1000
1000
1000
1000
,  // measure 54
0001
0001
0001
0001
,  // measure 55
0100
0000
0100
0010
0000
0010
0100
0010
,  // measure 56
0000
0000
0000
0000
1000
0000
0000
0000
0001
0000
1000
0000
0001
0000
1000
0001
,  // measure 57
1000
0000
0000
0000
;
