#TITLE:Satisfaction;
#SUBTITLE:;
#ARTIST:Benny Benassi;
#GENRE:Minimal;
#TITLETRANSLIT:;
#SUBTITLETRANSLIT:;
#ARTISTTRANSLIT:;
#CREDIT:;
#BANNER:sat.png;
#BACKGROUND:sat-bg.png;
#LYRICSPATH:;
#CDTITLE:;
#MUSIC:sat.ogg;
#OFFSET:-0.020;
#SAMPLESTART:44.776;
#SAMPLELENGTH:12.000;
#SELECTABLE:YES;
#BPMS:0.000=133.820;
#STOPS:97.000=0.448
,162.750=0.897
;
#BGCHANGES:;

//---------------dance-single - Renard----------------
#NOTES:
     dance-single:
     Renard:
     Challenge:
     9:
     0.720,0.823,0.558,0.502,0.474:
0000
0000
0000
0000
,
0000
0000
0000
0000
,
2000
0000
0000
3002
0000
0000
0103
0000
0000
0000
0000
0000
0010
0000
1000
0000
,
0002
0000
0000
0203
0000
0000
0310
0000
1000
0000
0001
0000
0100
0000
0010
0000
,
2000
0000
0000
3002
0000
0000
0103
0000
0000
0000
0000
0000
0010
0000
1000
0000
,
0002
0000
0000
0203
0000
0000
0310
0000
1000
0000
0001
0000
0100
0000
0010
0000
,
2000
0000
0000
3200
0000
0000
1300
0000
0010
0000
0000
0010
0100
0000
0000
0100
,
0001
0000
0001
1000
0000
1000
0100
0000
1100
0000
1010
0000
1001
0000
0000
0000
,
1001
0100
1010
0000
0100
0001
0010
0100
,
1001
0100
1001
0000
0010
0100
0001
1000
,
0110
1010
0110
0101
,
0100
0010
1000
0010
0100
0000
1001
0000
,
1001
0010
0101
0000
0010
1000
0100
0010
,
1001
0010
1001
0000
0100
0010
1000
0001
,
0110
0101
0110
1010
,
0010
0100
0001
0100
0010
0000
1001
0000
,
1000
0000
1000
0001
0000
0001
1000
0000
0001
0000
1000
0000
0001
0000
0000
0000
,
0100
0000
0100
0001
0000
0001
0100
0000
0001
0000
0100
0000
0001
0000
0000
0000
,
1000
0000
1000
0100
0000
0100
1000
0000
0100
0000
1000
0000
0100
1000
0100
0000
,
0010
0001
0010
0000
0100
0000
1000
0000
0100
0010
0100
0000
1000
0100
0010
0001
,
0020
0000
0200
0000
0030
2300
0010
3020
,
0100
0000
0130
0000
0000
0010
1000
0100
,
0020
0000
0002
0000
0000
0030
0103
0010
,
1010
0000
1001
0000
0002
1003
2000
3001
,
1001
0000
0000
0000
0110
0000
0000
0000
1000
0001
0100
0001
1000
0000
1000
0100
,
0000
0100
1000
0000
0010
0000
0100
0000
0001
0100
0001
0000
0100
0000
0100
0010
,
0000
0010
2000
0000
0100
0000
3200
0000
1000
0000
2300
0000
3010
0000
0010
0100
,
0000
0100
0001
0000
0100
0000
0010
0000
1000
0100
0010
0000
0100
0000
0100
1000
,
0000
1000
0002
0000
0100
0000
0203
0000
0010
0000
0310
0000
0110
0000
0000
1010
,
0000
0000
1001
0000
0000
0000
0000
0000
0100
0001
0100
0000
0101
0000
0000
0110
,
0000
0000
1020
0000
1000
0000
2030
0000
0010
0000
3010
0000
1000
0000
1000
0001
,
0000
0001
0010
0000
0100
0000
1000
0000
0010
0100
0010
0000
0100
0000
0100
0001
,
0000
0001
2000
0000
0001
0000
3002
0000
1000
0000
1003
0000
1010
0000
0000
0000
,
1001
0000
0000
0101
0011
1100
1010
0000
,
1001
0000
0000
1001
0101
0011
0101
0000
,
1001
0000
0000
0000
1100
1010
1001
0000
,
0101
0000
0000
0000
0001
0100
0001
0000
0100
0001
0100
0001
0100
0001
0100
0000
,
0001
0100
0001
0000
1000
0010
1000
0000
0010
1000
0010
0000
0100
0010
0100
0000
,
0010
0100
0010
0000
0100
0001
0100
0000
0001
0100
0001
0000
0100
0001
1000
0100
,
0010
0001
1000
0001
0010
0100
1000
0001
0100
0010
1000
0100
0010
0001
1000
0100
,
1000
0000
0010
0000
1000
0000
0001
0000
0010
0000
0001
0000
0100
0000
0010
0000
1000
0000
0100
0000
0010
0000
0002
0003
0000
0000
0000
0000
0000
0000
0000
0000
,
1000
0001
1000
0001
2000
0000
0000
0200
0000
0000
0010
0000
3300
0000
0000
0000
,
0100
1000
0001
0000
0200
0000
0000
0002
0000
0000
1000
0000
0010
0000
1000
0000
,
1010
0000
0303
0000
2000
0000
0000
0200
0000
0000
0010
0000
3300
0000
0000
0000
,
0100
1000
0001
0000
0200
0000
0000
0002
0000
0000
1000
0000
0010
0000
1000
0000
,
1010
0000
0303
0000
2000
0000
0000
0002
0000
0000
0010
0000
3003
0000
0000
0000
,
1000
0010
1000
0000
0002
0000
0000
2000
0000
0000
0100
0000
0010
0000
0100
0000
,
0110
0000
3003
0000
0002
0000
0000
2000
0000
0000
0100
0000
3003
0000
0000
0000
,
0001
0100
0001
0000
2000
0000
0000
0002
3000
0000
0203
0000
0310
1000
0010
0100
,
0001
0010
0100
1000
0000
0000
0000
0000
0000
0000
0000
0000
0000
0000
0000
0000
;

//---------------dance-single - Renard----------------
#NOTES:
     dance-single:
     Renard:
     Medium:
     7:
     0.387,0.466,0.033,0.000,0.123:
0000
0000
0000
0000
,
0000
0000
0000
0000
,
0000
0000
0000
0000
,
0000
0000
0000
0000
,
1000
0000
0000
0100
0000
0000
0010
0000
0000
0000
0000
0000
0001
0000
0000
0000
,
0010
0000
0000
0100
0000
0000
1000
0000
0010
0000
1000
0000
0010
0000
0000
0000
,
0100
0000
0000
0001
0000
0000
1000
0000
0000
0000
0000
0000
0100
0000
0010
0000
,
0001
0100
0001
1000
,
0100
0000
0010
0000
0000
0001
0100
0001
,
0100
0000
0010
0000
0000
1000
0100
1000
,
0100
0000
1000
0000
0000
0000
0010
0100
,
0001
0000
1000
0000
0001
0000
0100
0010
,
0100
0000
0010
0000
1000
0000
0100
1000
,
0100
0000
0010
0000
0001
0000
0100
0001
,
0100
0000
0001
0000
1000
0000
0100
1000
,
0100
0010
0001
1000
,
0001
0001
1000
1000
,
0010
0010
0100
0100
,
0001
0001
1000
1000
,
0010
0000
0100
0001
1000
0000
0001
1000
,
0100
0000
0100
0000
0000
0010
0001
0010
,
0001
0000
0010
0000
0000
0100
1000
0100
,
1000
0000
0010
0000
0000
0000
0100
0001
,
0100
0000
0010
0000
1000
0010
1000
0010
,
0100
0000
0000
0000
1001
0000
0000
0000
1000
0000
0010
0000
0100
0000
0000
0001
,
0000
0000
1000
0000
0000
0000
0000
0000
0100
0000
0010
0000
0001
0000
0000
0010
,
0000
0000
0100
0000
1000
0000
0010
0000
1000
0000
0000
0000
0010
0000
0000
0100
,
0000
0000
0001
0000
0000
0000
0000
0000
1000
0000
0100
0000
0010
0000
0000
0001
,
0000
0000
0010
0000
0100
0000
0010
0000
0100
0000
0000
0000
1000
0000
0000
0010
,
0000
0000
0100
0000
0000
0000
0000
0000
0001
0000
0100
0000
0010
0000
0000
1000
,
0000
0000
0100
0000
0010
0000
0100
0000
0010
0000
0000
0000
0100
0000
0000
1000
,
0000
0000
0010
0000
0100
0000
0000
0000
0001
0000
0100
0000
0010
0000
0000
1000
,
0000
0010
0100
0001
0100
0000
0101
0000
,
0110
0000
0000
1000
0010
0000
0100
0000
,
0100
0000
0000
0001
0010
0000
0100
0000
,
0100
0000
0000
0000
1000
0010
1000
0000
,
0010
0000
0100
0001
0100
0001
0100
0010
,
0100
0010
1000
0010
1000
0010
1000
0100
,
1000
0100
0010
0100
0010
0100
0010
0001
,
0010
0001
1000
0001
1000
0001
1000
0001
,
1000
0000
0001
0000
1000
0001
1000
0001
1000
0001
1000
0001
0000
0000
0000
0000
,
0000
0000
0000
0000
1000
0000
0000
0010
0000
0000
0100
0000
0000
0000
0000
0000
,
0001
0000
0100
0000
0010
0000
0000
1000
0000
0000
0100
0000
0010
0000
0001
0000
,
0010
0000
0000
0000
0100
0000
0000
1000
0000
0000
0010
0000
0000
0000
0000
0000
,
0100
0000
0001
0000
0100
0000
0000
0010
0000
0000
1000
0000
0100
0000
0000
0000
,
0010
0000
0000
0000
0001
0000
0000
0010
0000
0000
0100
0000
0000
0000
0000
0000
,
1000
0000
0010
0000
0100
0000
0000
0001
0000
0000
1000
0000
0100
0000
0000
0000
,
0010
0000
0000
0000
0001
0000
0000
1000
0000
0000
0010
0000
0000
0000
0000
0000
,
0100
0001
1000
0000
0100
0000
0010
0001
,
1000
0001
0000
0000
0000
0000
0000
0000
;

//---------------dance-single - Renard----------------
#NOTES:
     dance-single:
     Renard:
     Easy:
     3:
     0.363,0.382,0.546,0.000,0.000:
1000
0000
0000
0000
,
0000
0000
0000
0000
,
0000
0000
0000
0000
,
0000
0000
0000
0000
,
0001
0010
0100
1000
,
0100
0010
0101
0101
,
0010
1000
0001
0010
,
1100
0010
1000
0001
,
0010
0100
0000
1010
,
1010
0100
0000
0011
,
0011
0001
0000
0100
,
1010
0001
1000
0010
,
0110
0100
0001
0010
,
0011
0100
1000
0010
,
1010
1000
0001
0010
,
0011
0100
1000
0001
,
1000
1000
0001
0001
,
0100
0100
0010
0010
,
1000
1000
0001
0000
,
0001
0100
0010
1001
,
1000
0011
0010
0000
,
1100
1100
0100
0000
,
0011
0011
0100
0000
,
0010
1010
0100
0001
,
0101
0110
1001
0110
,
1000
0001
0010
1100
,
0100
0011
0101
0100
,
0010
1000
0001
0110
,
1000
0110
0110
0001
,
0100
0010
1000
0110
,
0001
0110
0110
0010
,
0001
0110
1000
0110
,
0001
0110
1010
1010
,
0110
0000
0101
0010
,
0010
0000
1100
0010
,
0010
0000
0001
0101
,
0010
0000
1000
0010
1000
0000
0010
0000
,
0010
0100
0100
0001
,
0001
0000
0010
0000
0010
0000
0100
1000
,
0100
1000
0100
1000
0100
1000
0001
1000
,
0001
1000
0001
1000
0001
1000
0000
0000
,
0000
0001
0100
0010
,
1000
0110
0001
0110
,
1100
0010
0001
0100
,
0010
1010
0100
0011
,
0100
1000
0100
0010
,
0001
0110
1000
0011
,
0100
1000
0001
0100
,
0010
0000
1001
0000
0010
0000
0100
1000
;

//---------------dance-single - BlueChaos----------------
#NOTES:
     dance-single:
     BlueChaos:
     Hard:
     8:
     0.636,0.631,0.446,0.502,0.256: // measure 1
0000
0000
0000
0000
,  // measure 2
0000
0000
0000
0000
,  // measure 3
2000
0000
0000
0100
0000
0000
3001
0000
0000
0000
0000
0000
1000
0000
0100
0000
,  // measure 4
0020
0000
0000
0001
0000
0000
0130
0000
0000
0000
0000
0000
1000
0000
0010
0000
,  // measure 5
0200
0000
0000
0010
0000
0000
0301
0000
0000
0000
0000
0000
0001
0000
0100
0000
,  // measure 6
0020
0000
0000
1000
0000
0000
0130
0000
0000
0000
0010
0000
1000
0000
1000
0000
,  // measure 7
0200
0010
0001
0010
,  // measure 8
2000
0000
0000
3300
,  // measure 9
2100
0000
3002
0203
0000
0310
1000
0100
,  // measure 10
0200
0000
0000
0320
0000
0000
0032
0000
0000
0000
1003
0000
0001
0000
0010
0000
,  // measure 11
0200
0000
0000
2300
0000
0000
3020
0000
0000
0000
0130
0000
0100
0001
0100
0000
,  // measure 12
0101
0000
0000
1001
0000
0000
1100
0000
0000
0000
1000
0000
0100
0000
0001
0000
,  // measure 13
0200
0000
0000
2300
0000
0000
0002
0000
3000
0000
0003
0000
0100
0010
0100
0000
,  // measure 14
0110
0000
0000
0101
0000
0000
1001
0000
0000
0000
1000
0000
0010
0000
0001
0000
,  // measure 15
0020
0000
0000
0230
0000
0000
0302
0000
0000
0000
1003
0000
1000
0100
1000
0000
,  // measure 16
0200
0000
0000
0000
2300
0000
0002
3000
0000
0000
0103
0000
1000
0000
0100
0000
,  // measure 17
0101
0000
0000
0000
0001
0000
0000
0000
1001
0000
0000
0000
1000
0100
1000
0000
,  // measure 18
1100
0000
1000
0000
1001
0000
0001
0100
,  // measure 19
0110
0000
0000
0000
0010
0000
0000
0000
1010
0000
0000
0000
1000
0100
0010
0000
,  // measure 20
0010
0100
1000
0000
0001
0000
0100
0000
0001
0100
0010
0000
0010
0100
0001
0000
,  // measure 21
1001
0000
0000
0000
0001
0000
0010
0000
0000
0000
0010
0000
0100
1000
0001
0000
,  // measure 22
0100
0000
0010
1000
0000
1000
0100
0010
,  // measure 23
0002
0000
0000
2003
0000
0000
3020
0000
0000
0000
0130
0000
0001
0100
0010
0000
,  // measure 24
2000
0000
0000
3200
0000
0000
0320
0000
0000
0000
0031
0000
1000
0000
0010
0000
,  // measure 25
1010
0000
0000
0000
0000
0000
0000
0000
0202
0303
0000
0000
0000
0000
0000
0000
0001
0000
0010
0000
0001
0000
0010
0000
0001
0000
0000
0000
0010
0000
0000
0000
,  // measure 26
0100
0000
1100
0000
0000
0000
1001
0000
0001
1000
0001
0000
1000
0000
0100
0000
,  // measure 27
0010
0110
0000
1100
1000
0002
0100
0000
,  // measure 28
0103
0000
0020
0000
0030
0000
1010
0000
1000
0010
1000
0000
0010
0000
0100
0000
,  // measure 29
0001
0101
0000
1001
1000
0010
0100
0000
,  // measure 30
0001
0000
0011
0000
0000
0000
0101
0000
0100
0001
0100
0000
0001
0000
1000
0000
,  // measure 31
0010
0110
0000
0101
0001
1000
0200
0000
,  // measure 32
1300
0000
1100
0000
0000
0000
1001
0000
1000
0001
1000
0000
0002
0000
0000
0000
,  // measure 33
0013
0011
0000
0110
0100
1000
1001
0000
,  // measure 34
0110
0000
0000
0010
0010
1000
1000
0000
,  // measure 35
1100
0000
0000
0100
0100
1000
0001
0000
,  // measure 36
0101
0000
0000
0000
0001
1000
0001
0000
,  // measure 37
1001
0000
0000
0000
1000
0010
1000
0000
0001
1000
0001
1000
0001
0000
1000
0000
,  // measure 38
0001
0100
0001
0000
0100
0000
0010
0000
1000
0010
1000
0000
0100
0000
0010
0000
,  // measure 39
0100
0010
0100
0000
0010
0000
0001
0000
0010
0001
0010
0000
0001
0000
0100
0000
,  // measure 40
1000
0100
0001
0100
0010
1000
0010
0001
,  // measure 41
0010
0000
1000
0000
0010
0000
0100
0000
0001
1000
0001
0100
0000
0000
0000
0000
,  // measure 42
0001
1000
0001
0000
1001
0000
0000
0000
0001
0000
0100
0000
0000
0000
0101
0000
,  // measure 43
0001
1000
0001
0000
1000
0000
0100
0000
1000
0000
0002
0000
0000
0000
0103
0000
,  // measure 44
0010
1000
0200
0000
1300
0020
0000
0130
,  // measure 45
0001
1000
0001
0000
2000
0000
0000
0000
3100
0000
0110
0000
0000
0000
0011
0000
,  // measure 46
0001
1000
0002
0000
1003
0020
0000
0130
,  // measure 47
0001
0010
0001
0000
0020
0000
0000
0000
0100
0000
0130
0000
0000
0000
0010
0000
,  // measure 48
0100
1000
0002
0000
0100
0103
0000
0001
,  // measure 49
0100
0010
0100
0000
0020
0000
0000
0000
1030
0000
0100
0000
1000
0100
0010
0001
,  // measure 50
0010
0100
1000
0001
0000
0000
0000
0000
0000
0000
0000
0000
0000
0000
0000
0000
;
