#TITLE:Sanction;
#SUBTITLE:;
#ARTIST:Sonitus Vir;
#GENRE:Electronica;
#TITLETRANSLIT:;
#SUBTITLETRANSLIT:;
#ARTISTTRANSLIT:;
#CREDIT:;
#BANNER:sanction.png;
#BACKGROUND:sanction-bg.png;
#LYRICSPATH:;
#CDTITLE:;
#MUSIC:sanction.ogg;
#OFFSET:0.000;
#SAMPLESTART:21.333;
#SAMPLELENGTH:12.000;
#SELECTABLE:YES;
#BPMS:0.000=180.000,251.000=1000.009,260.000=180.000;
#DISPLAYBPM:180;
#STOPS:56.000=1.333
,124.000=0.667
,214.000=1.000
,260.000=0.500
;
#BGCHANGES:;

//---------------dance-single - Alezay----------------
#NOTES:
     dance-single:
     Alezay:
     Challenge:
     12:
     0.977,1.000,0.662,0.121,0.673:
0000
0000
0000
0000
,
0000
0000
0000
0000
,
0000
0000
0000
0000
,
0000
0000
0000
0000
,
0001
0100
0001
0100
0001
1000
0001
1000
0001
1000
0100
1000
0100
1000
0001
0100
,
0001
0010
0001
1000
0001
1000
0100
1000
0010
1000
0001
1000
0100
0010
0001
1000
,
0001
0010
0100
1000
0001
0010
0001
1000
0100
1000
0010
0100
0010
1000
0100
0010
,
0001
0010
0100
1000
0100
0010
0100
1000
0100
0010
0001
0010
0100
0010
0001
0100
,
0110
0100
0001
1000
1001
1001
1001
0000
,
1000
0100
0010
0001
0101
0101
0101
0000
,
0010
0010
1000
0100
0110
0110
0110
0000
,
0010
0001
0100
0010
1010
1010
1010
0000
,
0001
0000
1000
0000
0100
0000
0010
0001
0100
0000
0010
0000
0010
0000
0000
0000
,
0100
0000
0001
0000
1000
0000
0001
0100
0001
0000
1000
0000
0100
0000
0000
0000
,
2002
0000
0000
0000
0000
0000
3003
0000
0001
0100
0010
1000
0100
0010
0001
1000
,
1001
0000
0001
0000
0100
0000
0010
1000
0100
0000
0010
0000
0010
0000
0000
0000
,
0010
0000
0001
0000
0100
0000
0010
1000
0001
0000
1000
0000
1001
0000
0000
0000
,
1000
0000
0100
0000
1000
0000
1000
0010
1000
0000
0100
0000
0100
0000
0000
0000
,
0010
0000
0001
0000
0100
0000
0010
1000
0100
1000
0001
0100
0010
1000
0100
0010
,
0100
0000
1000
0000
0001
0000
0100
0010
0100
0000
0001
0000
0001
0000
0000
0000
,
0101
0000
0001
0000
0001
0000
1000
0001
1000
0000
0001
0000
0101
0000
0000
0000
,
0001
0000
0100
0000
0010
0000
0100
0001
0100
0000
0001
0000
1000
0000
0000
0000
,
1000
0000
0100
0000
0010
0000
0100
1000
0001
0000
0100
0000
0010
0000
1000
0000
,
0001
1000
0001
1000
0001
0000
1000
0000
0100
0000
0100
0000
0100
0000
0000
0000
,
0010
0001
0010
0001
0010
0000
0001
0000
0100
0000
0100
0000
0100
0000
0000
0000
,
0010
1000
0010
1000
0010
0000
0100
0000
0001
0000
0101
0000
1001
0000
0000
0000
,
1000
0001
0100
0010
1000
0000
0001
0000
1000
0000
0100
0000
0110
0000
0000
0000
,
0010
0001
0100
0010
0100
0000
0001
0000
1000
0000
1000
0000
1001
0000
0000
0000
,
1000
0100
1000
0100
1000
0000
0100
0000
0010
0000
0010
0000
0011
0000
0000
0000
,
0001
1000
0001
1000
0001
0000
0100
0000
0010
0000
1010
0000
1001
0000
0000
0000
,
1000
0001
0100
0010
1000
0000
1001
0000
1000
0100
0010
0001
1000
0001
0010
0100
,
2200
0000
0000
0000
0000
0000
3300
0000
1001
0000
0001
0000
0100
0000
0010
1000
,
0100
1000
0001
0100
0010
1000
0100
0000
0010
0000
0001
0000
0100
0000
0010
1000
,
0100
1000
0001
0100
0010
1000
0001
0000
1000
0000
1000
0000
0010
0000
0100
0001
,
0100
0010
1000
0100
0010
0100
1000
0000
0001
0000
0100
0000
0020
0000
0000
0000
,
0002
0030
0000
0000
0020
0003
0000
0000
1030
0000
0010
0000
0100
0000
0001
0000
,
1000
0001
0100
0010
1000
0000
0001
0000
1000
0000
0100
0000
0010
0000
1000
0000
,
0010
0100
1000
0001
0100
0000
0010
0000
0001
0000
0010
0000
1000
0000
0001
0000
,
1000
0100
0001
0100
1000
0000
0001
0000
0100
0000
0010
0000
0001
0000
0010
0000
,
1000
0010
0100
0001
1000
0000
0100
0000
0010
0000
1000
0000
0010
0000
0100
0000
,
1000
0001
0100
0010
1000
0000
0100
0000
0100
0000
0010
0000
0001
0000
0100
0000
,
0010
1000
0100
1000
0001
0000
0100
0000
0010
0000
1000
0000
0100
0000
0010
0000
,
0001
0010
0100
1000
0001
0000
0100
0000
0010
0000
1000
0000
0010
0000
0001
0000
,
0010
1000
0100
0001
0100
0000
1000
0000
0001
0000
0100
0000
0010
0000
0010
0000
,
0100
0001
0100
0010
1000
0000
0001
0000
1000
0000
0100
0000
1000
0000
0001
0000
,
1000
0001
0100
0010
0100
0000
0001
0000
0100
0000
0010
0000
0010
0000
1000
0000
,
0001
0100
0010
0100
0010
0000
0100
0000
0110
0000
0000
0000
0101
0000
0000
0000
,
1001
0000
1100
0000
0010
1000
0100
0010
,
0110
1100
0110
0000
0010
0001
0100
0010
,
0110
0101
0110
0000
0010
1000
0001
1000
,
1001
1100
1001
0000
0001
0100
0010
0100
,
0101
1001
1010
0000
1000
0100
0010
0001
,
1001
0110
0101
0000
0001
1000
0100
0010
,
0110
1100
1100
0000
2002
0000
0000
0000
,
0000
0000
0000
0000
3000
1003
1001
0001
,
0100
0000
0010
0000
1000
0001
1000
0001
1000
0000
0000
0000
0001
0000
0100
0000
,
0010
0000
0010
0000
1000
0010
0100
0001
1000
0000
0001
0000
1001
0000
1000
0000
,
0100
0000
0010
0000
0100
1000
0001
0100
0010
0000
0100
0000
0101
0000
0001
0000
,
1000
0000
0100
0000
0010
0100
0010
0100
0010
0000
0100
0000
0011
0000
0001
0000
,
0100
0000
0010
0000
1000
0001
1000
0001
1000
0000
0100
0000
1010
0000
0100
0000
,
0001
0000
1000
0000
0100
0010
0001
0010
0100
0000
1000
0000
1001
0000
0001
0000
,
0100
0000
0010
0000
0100
0001
1000
0100
0010
0000
0100
0000
1100
0000
1000
0000
,
0100
0000
0100
0000
0010
0001
0010
0001
0100
0001
1000
0001
2002
0000
0000
0000
,
0000
0000
0000
0000
,
0000
0000
0000
0000
,
3003
1111
0000
0000
;

//---------------dance-single - Alezay----------------
#NOTES:
     dance-single:
     Alezay:
     Hard:
     9:
     0.725,0.867,0.287,0.077,0.006:
0000
0000
0000
0000
,
0000
0000
0000
0000
,
0000
0000
0000
0000
,
0000
0000
0000
0000
,
1001
1000
0100
0010
1000
0010
0100
0000
,
1100
1000
0001
0100
0010
0001
0010
0000
,
1010
0010
0100
0101
0001
0010
0011
0001
,
0101
0001
1001
1000
1001
0001
1001
0000
,
0101
0100
0010
1000
0100
0010
0001
0000
,
0011
0001
1000
0001
0100
0001
0010
0000
,
0110
0100
1000
0001
0100
0010
0010
0000
,
1010
0010
0100
0001
0100
0010
1000
0000
,
1001
0001
1000
0001
1000
0001
0100
0000
,
0110
0100
0001
0100
0010
1000
0001
1000
,
0020
0000
0000
0000
0000
0000
0030
0000
1000
0000
0001
0000
1000
0001
1000
0000
,
1001
0001
0100
0010
1000
0001
0001
0000
,
1000
0100
0010
1000
0010
0100
1000
0000
,
0001
0100
0010
0001
0010
1000
0100
0000
,
0010
0001
0100
1000
0100
0001
1000
0000
,
0001
0010
0100
0001
0100
0010
0001
0000
,
1000
0001
0100
0010
1000
0010
0001
0000
,
0001
0010
1000
0100
0001
0100
1000
0000
,
0001
0100
0010
0001
0010
1000
1000
0000
,
0001
1000
0100
1000
0001
1000
0010
0000
,
0100
0001
1000
0100
0010
0100
1000
0000
,
0001
0100
0010
0100
0001
1000
0010
0000
,
0100
0010
1000
0010
0100
0010
0100
0000
,
0001
1000
1000
0001
1000
0001
0100
0010
,
1000
0100
0001
0100
1000
0001
0100
1000
,
0100
0001
1000
0100
0010
1000
0010
0100
,
1000
0001
0010
0100
0001
0100
0010
0001
,
2002
0000
0000
3003
1001
0001
0100
0010
,
1000
0010
0100
0001
1000
0100
0001
1000
,
0010
0001
0100
0010
0001
0010
1000
0100
,
0001
0100
1000
0001
0100
1000
0100
0001
,
1000
0100
0010
1000
0010
0100
1000
0001
,
0010
0100
0001
0100
0010
0001
0100
0010
,
0001
0010
1000
0100
0010
0001
1000
0001
,
0010
0100
0001
0100
0010
0001
0100
0010
,
0001
0010
1000
0010
0001
0010
1000
0100
,
0001
0100
1000
0001
0100
1000
0100
0001
,
0100
1000
0100
0001
1000
0100
1000
0001
,
0010
0001
1000
0100
1100
0000
1001
0000
,
0101
0000
1010
0000
0001
0100
1000
0100
,
0001
1000
0100
0010
0100
0001
0100
1000
,
0001
0100
0010
0001
0010
1000
0010
0100
,
0001
0100
0010
1000
0100
0001
0100
0010
,
1000
0010
0100
0001
0100
1000
0001
0100
,
0010
0001
0010
0000
1000
0001
1000
0100
,
0010
0100
0010
0000
0001
0100
0010
0100
,
0001
0100
0001
0000
1000
0001
1000
0100
,
0010
0100
1000
0000
0001
0100
0010
0001
,
0010
1000
0010
0000
0100
0001
1000
0100
,
0010
0001
1000
0001
0202
0000
0000
0000
,
0000
0000
0000
0000
0300
0103
1001
1000
,
0100
0010
1000
0010
0100
0000
1000
0001
,
0100
0010
0001
0010
1000
0000
0001
0100
,
0010
1000
0100
1000
0001
0000
0100
0001
,
0100
0010
1000
0100
0010
0001
1000
0001
,
0010
0100
1000
0001
0010
0001
1000
0100
,
1000
0010
0100
0010
1000
0100
0010
1000
,
0010
0100
1000
0001
0100
0010
0001
0010
,
1000
0100
0001
0100
1000
0001
2002
0000
,
0000
0000
0000
0000
,
0000
0000
0000
0000
,
0000
0110
3003
0000
;

//---------------dance-single - Alezay----------------
#NOTES:
     dance-single:
     Alezay:
     Medium:
     7:
     0.493,0.612,0.397,0.088,0.000:
0000
0000
0000
0000
,
0000
0000
0000
0000
,
0000
0000
0000
0000
,
0000
0000
0000
0000
,
1001
0000
1010
0000
0010
1000
0001
0000
,
0101
0000
0011
0000
1001
1000
0010
0000
,
1001
0000
0000
1100
0000
0000
0101
0000
,
1010
1100
0011
0101
,
0010
1000
0001
0100
,
0010
0000
1000
0000
0100
1000
0100
0000
,
0100
0000
0001
0000
0010
0001
0100
0000
,
0010
0000
1000
0000
0001
1000
0001
0000
,
0100
0000
0010
0000
1000
0010
1000
0000
,
0001
0000
0100
0000
0010
0100
0010
0000
,
2002
0000
0000
3003
,
0001
0000
1000
0000
0010
1000
0010
0000
,
1000
0001
0100
0010
,
1000
0000
0100
0000
0010
0001
0010
0000
,
0001
0100
0010
1000
,
0001
0000
1000
0000
1000
0001
1000
0000
,
0001
0000
1000
0000
0010
0100
0010
0000
,
1000
0000
0001
0000
1000
0010
0100
0000
,
0001
0000
0010
0000
0100
0001
1000
0000
,
0010
0000
0100
0000
0001
1000
0100
0000
,
0010
0000
0001
0000
0100
0010
0100
0000
,
0001
0000
1000
0000
0100
1000
0001
0000
,
0100
0000
0010
0000
1000
0010
1000
0000
,
0001
0100
0100
0010
,
0010
1000
1001
1001
,
1001
0001
1000
0010
,
1000
0100
0010
0001
,
0202
0000
0000
0003
0301
0000
1000
0000
,
0010
1000
0001
1000
,
0100
1000
1010
0001
,
1000
0100
1000
0001
,
0100
0010
0101
1000
,
0100
0010
0110
0001
,
0100
0010
0110
0100
,
0001
1000
1001
1100
,
1001
0101
0001
1000
,
0010
1000
0100
0010
,
0100
1000
0001
0100
,
0010
0100
0010
0000
0101
0000
1001
0000
,
1100
1001
0001
0100
,
0010
1000
0010
0000
1000
0000
0100
0000
,
0010
0100
0010
0100
0010
0000
0001
0000
,
0100
0010
0100
0010
0100
0000
0001
0000
,
1000
0001
1000
0001
1000
0000
0001
0000
,
1000
0010
1000
0100
,
0010
0001
0100
0010
,
1000
0001
0100
0100
,
0100
0100
0001
1000
,
0100
0010
0011
1001
,
1010
0110
2002
0000
,
0000
0000
3003
0001
,
1000
0010
1000
0100
,
1000
0000
0010
0100
0010
0000
1000
0000
,
0001
0000
1000
0100
1000
0000
0001
0100
,
0001
0000
1000
0010
1000
0000
0001
0010
,
0001
0000
0100
0010
0100
0000
0010
1000
,
0100
0000
0010
0001
0100
0000
0010
1000
,
0100
0010
0001
0100
0010
1000
0001
1000
,
0001
0100
0010
1000
0001
0000
2002
0000
,
0000
0000
0000
0000
,
0000
0000
0000
0000
,
3003
1011
0000
0000
;

//---------------dance-single - Alezay----------------
#NOTES:
     dance-single:
     Alezay:
     Easy:
     5:
     0.392,0.396,0.143,0.044,0.000:
0000
0000
0000
0000
,
0000
0000
0000
0000
,
0000
0000
0000
0000
,
0000
0000
0000
0000
,
0001
0100
0010
1000
,
0100
0010
0001
1000
,
0001
0100
0010
1000
,
1000
0001
0100
0010
,
1000
0100
0010
0001
,
1000
0001
0010
0100
,
1000
0001
0010
0001
,
1000
0100
1000
0010
,
0100
0010
1000
0100
,
0010
0001
1000
0001
,
0101
0000
0000
0000
,
1001
0001
0100
0010
,
0010
0010
1000
0100
,
1000
0001
0010
0001
,
0100
0010
0100
0001
,
0010
0100
0100
0010
,
0001
0100
0010
1000
,
0100
1000
0001
0100
,
0010
1000
0100
0010
,
0001
1000
0001
0010
,
0100
1000
0001
0010
,
0001
1000
0100
1000
,
0010
0100
0010
0010
,
0010
0010
0100
0001
,
1000
0001
1000
0100
,
0010
0001
0001
0010
,
0100
1000
0001
0100
,
0202
0303
0001
0100
,
0010
0010
1000
0001
,
1000
1000
0100
0010
,
0001
0001
1000
1000
,
0001
0100
0010
1000
,
0100
1000
0100
0010
,
0100
1000
0100
0010
,
0001
0010
0100
0010
,
0001
0100
0010
1000
,
0001
0100
0010
1000
,
0100
1000
0001
0010
,
0001
0100
0010
0100
,
0001
0010
0100
1000
,
0001
0010
0001
1000
,
0100
0010
1000
0010
,
0100
1000
0001
0010
,
0100
0001
0100
0010
,
0001
0100
0010
0100
,
0001
0010
0100
1000
,
0001
0100
0010
1000
,
0001
0100
0010
1000
,
0100
0010
0001
0100
,
0010
1000
1001
0000
,
0000
0000
0001
0101
,
0100
0010
1000
1001
,
1000
0100
0010
0110
,
0100
1000
0001
0101
,
0100
0010
1010
1000
,
0001
1000
1100
0100
,
0010
0001
0101
0100
,
0010
1000
0100
0010
,
1000
0001
0100
2002
,
0000
0000
0000
0000
,
0000
0000
0000
0000
,
3003
1111
0000
0000
;
