#TITLE:San Francisco;
#SUBTITLE:;
#ARTIST:MGD Assault Force;
#GENRE:Mixture;
#TITLETRANSLIT:;
#SUBTITLETRANSLIT:;
#ARTISTTRANSLIT:;
#CREDIT:;
#BANNER:u.png;
#BACKGROUND:u-bg.png;
#LYRICSPATH:;
#CDTITLE:;
#MUSIC:u.ogg;
#OFFSET:0.000;
#SAMPLESTART:14.505;
#SAMPLELENGTH:12.000;
#SELECTABLE:YES;
#BPMS:0.000=132.000,164.000=264.000,232.000=132.000;
#STOPS:;
#BGCHANGES:;

//---------------dance-single - Renard----------------
#NOTES:
     dance-single:
     Renard:
     Challenge:
     10:
     0.906,0.903,0.236,0.000,1.000:
0000
0000
0000
0000
,
0000
0000
0000
0000
,
0000
0000
0000
0000
,
0000
0000
0000
0000
,
1001
0000
1010
0000
0101
0000
0001
0100
0000
0100
0010
0000
1000
0000
0100
0000
,
0011
0000
1100
0000
1010
0000
1000
0001
0000
0001
0100
0001
1000
0000
0001
0000
,
1010
0000
0101
0000
1001
0000
1000
0001
0000
0001
1000
0000
0100
0000
0010
0000
,
0001
0010
0100
1000
0001
0100
0010
1000
0100
0010
0001
1000
0001
1000
0000
0000
,
1001
0000
0100
0000
0010
0000
1000
0001
0000
1000
0100
0000
0010
0001
0000
1000
,
0100
0000
0010
0000
0001
0000
1000
0001
0000
0100
0010
0000
1000
0001
0000
1000
,
0100
0000
0010
0000
0001
0000
1000
0100
0000
0010
0001
0000
1000
0010
0000
0100
,
0001
0000
1000
0000
0001
0000
1000
0100
0000
0010
0001
0000
1000
0001
0000
0000
,
1001
0000
1000
0000
0010
0000
0100
0001
0000
0001
1000
0000
0100
1000
0000
0001
,
0010
0000
0100
0000
1000
0000
0010
0100
0000
0100
0001
0000
1000
0100
0000
0010
,
0001
0000
0100
0000
0010
0000
1000
0001
0000
0001
1000
0000
0100
0010
0000
0001
,
0010
0000
0100
0000
1000
0000
0010
0100
0001
0100
0001
0000
1000
0010
1000
0000
,
0001
0000
0100
0000
0001
0000
0100
0000
0001
0000
0100
0000
0001
0000
0000
0000
0000
0000
0100
0000
0000
0000
0000
0000
0100
0000
0000
0000
0000
0000
0010
0000
0000
0010
0000
0000
1000
0000
0000
0000
0000
0000
0100
0000
0000
0000
0000
0000
,
0010
0000
0000
0000
0000
0000
0001
0000
0010
0000
0001
0000
0010
0000
0000
0000
0000
0000
0001
0000
0000
0100
0000
0000
0001
0000
0000
0001
0000
0000
1000
0000
0000
1000
0000
0000
0100
0000
0000
0000
0000
0000
0010
0000
0000
0000
0000
0000
,
0001
0000
0100
0000
0001
0000
0100
0000
0001
0000
0100
0000
0010
0000
0000
0000
0000
0000
1000
0000
0000
0000
0000
0000
0100
0000
0000
0000
0000
0000
1000
0000
0000
1000
0000
0000
0010
0000
0000
0000
0000
0000
0100
0000
0000
0000
0000
0000
,
0001
0000
0000
0000
0000
0000
1000
0000
0100
0000
1000
0000
0100
0000
0000
0000
0000
0000
1000
0000
0000
1000
0000
0000
0100
0000
0000
0010
0000
0000
0001
0000
0000
0001
0000
0000
0100
0000
0000
0000
0000
0000
0010
0000
0000
0000
0000
0000
,
1000
0000
0010
0000
1000
0000
0010
0000
1000
0000
0010
0000
1000
0000
0000
0000
0000
0000
0010
0000
0000
0000
0000
0000
0010
0000
0000
0000
0000
0000
0100
0000
0000
0100
0000
0000
0001
0000
0000
0000
0000
0000
0010
0000
0000
0000
0000
0000
,
0100
0000
0000
0000
0000
0000
1000
0000
0100
0000
1000
0000
0100
0000
0000
0000
0000
0000
1000
0000
0000
0010
0000
0000
1000
0000
0000
1000
0000
0000
0001
0000
0000
0001
0000
0000
0010
0000
0000
0000
0000
0000
0100
0000
0000
0000
0000
0000
,
1000
0000
0010
0000
1000
0000
0010
0000
1000
0000
0010
0000
0100
0000
0000
0000
0000
0000
0001
0000
0000
0000
0000
0000
0010
0000
0000
0000
0000
0000
0001
0000
0000
0001
0000
0000
0100
0000
0000
0000
0000
0000
0010
0000
0000
0000
0000
0000
,
1000
0000
0000
0000
0000
0000
0001
0000
0010
0000
0001
0000
0010
0000
0000
0000
0000
0000
0001
0000
0000
0010
0000
0000
0100
0000
0000
1000
0000
0000
0100
0000
0000
0010
0000
0000
0001
0000
0000
0010
0000
0000
0100
0000
0000
1000
0000
0000
,
0001
0100
0000
0100
0001
0000
0001
1000
0000
1000
0100
0000
0011
0000
1100
0000
,
1000
0010
0000
0010
0100
0000
0100
0001
0010
0100
0000
1100
0000
0011
0000
1000
,
0001
0100
0000
0100
1000
0000
1000
0010
0000
0010
0001
0000
0100
0000
0010
0000
,
1000
0100
0000
0010
0001
0000
1000
0100
1000
0010
0000
0101
0000
1010
0000
0001
,
0100
0000
0001
0100
0001
0000
1000
0100
1000
0100
0010
0001
0010
0100
1000
0010
,
0100
0001
0000
0100
0010
0000
1000
0010
0100
0001
0100
0010
1000
0000
0100
0000
,
0010
0000
0001
0010
0100
0000
1000
0010
0100
0001
0100
0001
1000
0100
1000
0001
,
0010
0100
0000
0100
1000
0000
0010
0100
0001
0100
0000
0100
0001
1000
0001
1000
,
0001
1000
0000
1000
0001
0000
0001
1000
0000
1000
0001
0000
1000
0100
0010
0001
,
1000
0001
0000
0001
1000
0000
1000
0001
0000
0001
1000
0000
0001
0010
0100
1000
,
0001
1000
0000
1000
0001
0000
0001
1000
0000
1000
0001
0000
1000
0010
0100
0001
,
1000
0001
0000
0001
1000
0000
1000
0001
0000
0001
1000
0000
0001
0100
0010
1000
,
0001
0100
0000
0100
0001
0000
0001
1000
0000
1000
0100
0010
0001
0010
0100
1000
,
0001
1000
0000
1000
0100
0000
0100
1000
0000
1000
0001
0010
0100
1000
0100
0010
,
0001
0100
0000
0100
0001
0000
0001
1000
0000
1000
0100
1000
0010
0100
0001
0010
,
0100
1000
0000
1000
0010
0000
0010
0100
0000
0100
0001
0100
0010
1000
0100
0010
,
0001
0000
0000
0000
0000
0000
0000
0000
0000
0000
0000
0000
0001
0000
0000
0000
0000
0000
1000
0000
0001
0000
1000
0000
0001
0000
0000
0100
0000
0000
0100
0000
0000
0010
0000
0000
1000
0000
0000
0001
0000
0000
1001
0000
0000
0000
0000
0000
,
1000
0100
0010
0001
1000
0100
1000
0100
,
0010
0001
1000
0100
0010
0001
0010
0001
,
1000
0010
0100
0001
1000
0010
1000
0010
,
0100
0001
1000
0010
0100
0001
0100
0001
,
1000
0100
1000
0001
0010
0001
1000
0100
,
0010
0001
0010
0100
1000
0100
0010
0001
,
0100
0010
1000
0010
0100
0001
0100
0001
,
1000
0100
0010
0001
0010
0100
1000
0001
,
0100
0010
1000
0001
0100
0001
1000
0100
,
1000
0001
0010
0100
1000
0001
0100
0010
,
1000
0010
0100
0001
0100
0010
1000
0100
,
1000
1001
0100
1010
,
0101
0000
0001
0100
0010
1000
0100
1000
,
0001
0010
0001
0100
0010
1000
0100
0010
,
0001
0010
0100
1000
0010
0100
0001
0100
,
0001
0000
1000
0000
0100
0000
1000
0000
0001
0010
0001
0000
0010
0000
0100
0000
,
1000
0000
0001
0000
1000
0000
0001
0000
1000
0001
1000
0001
1000
0000
0000
0000
,
1001
0000
0000
0000
;

//---------------dance-single - Renard----------------
#NOTES:
     dance-single:
     Renard:
     Hard:
     9:
     0.558,0.654,0.000,0.000,0.247:
0000
0000
0000
0000
,
0000
0000
0000
0000
,
0000
0000
0000
0000
,
0000
0000
0000
0000
,
1000
0000
0100
0000
0010
0000
0001
0010
0000
0000
0100
0000
1000
0000
0010
0000
,
0100
0000
0001
0000
0100
0000
0010
1000
0000
0000
0001
0000
1000
0000
0100
0000
,
0010
0000
0001
0000
1000
0000
0001
0100
0000
0001
1000
0000
0010
0000
1000
0000
,
0001
0000
1000
0000
0100
0000
0010
0000
0001
0000
1000
0000
0001
1000
0000
0000
,
1000
0000
0010
0000
0100
0000
0001
0100
0000
0100
0010
0000
1000
0000
0100
0000
,
0010
0001
0010
0100
1000
0010
0100
0001
,
1000
0000
0100
0000
0010
0000
0001
1000
0000
1000
0001
0000
0010
0000
0100
0000
,
1000
0000
0010
0000
0100
0001
0000
0100
0000
0010
0000
1000
0010
0000
1000
0000
,
0010
0000
0100
0000
0001
0000
0010
0001
0000
0001
0010
0000
0100
0000
1000
0000
,
0010
0100
0001
1000
0100
1000
0001
0010
,
0001
0000
1000
0000
0010
0000
0100
0001
0000
0001
0100
0000
0010
0000
1000
0000
,
0100
0000
0010
0000
0001
1000
0000
0001
0000
1000
0000
0010
0100
0000
0001
0000
,
0100
0000
0010
0000
1000
0000
0000
0000
0000
0000
0100
0010
0001
0000
0010
0000
,
0100
1000
0010
0100
0001
1000
0100
0010
,
0001
0000
1000
0000
0010
0000
0000
0000
0000
0000
0100
0001
0100
0000
0010
0000
,
1000
0001
0100
0010
1000
0100
0010
0001
,
1000
0010
1000
0000
0010
0000
1000
0010
1000
0000
0010
0000
1000
0010
1000
0000
,
0010
0000
1000
0000
0010
1000
0000
0010
1000
0000
0010
1000
0000
0000
0010
0000
,
0100
0001
0100
0000
0001
0000
0100
0001
0100
0000
0001
0000
0100
0001
0100
0000
,
0001
0000
0100
0000
0001
0100
0000
0001
0100
0000
0001
0100
0000
0000
0001
0000
,
0100
0100
0010
0010
,
0100
0000
0001
0000
1000
0100
0010
0001
,
1000
1000
0010
0010
,
0100
0000
0001
0000
1000
0000
0100
0000
0010
0000
0001
1000
0001
0000
1000
0000
,
0010
0100
0000
0001
0100
0000
0010
0100
0000
0001
1000
0000
0100
0000
0010
0000
,
0001
0010
0100
1000
0010
0100
0001
1000
,
0100
0010
0000
0001
0010
0000
0100
1000
0000
0010
0100
0000
0001
0000
0100
0000
,
0010
1000
0100
0010
0001
1000
0001
0100
,
0100
0000
0100
0000
0100
0000
0100
0100
,
0100
0000
0100
0000
0100
0000
0100
0100
,
0100
0000
0100
0000
0100
0000
0100
0100
,
0100
0000
0100
0000
0100
0000
0100
0100
,
0010
0000
0010
0000
0010
0000
0010
0010
,
0010
0000
0010
0000
0010
0000
0010
0010
,
1000
0000
1000
0000
1000
0000
1000
1000
,
0001
0000
1000
0000
0001
1000
0001
1000
,
0001
0000
0000
0000
0001
0000
0000
0000
1000
0000
0001
1000
0000
0001
1000
0000
,
0010
0000
1000
0000
0001
0100
0001
0000
,
1000
0100
0010
0001
,
1000
0000
0010
0000
0100
0000
0001
1000
,
0001
0000
1000
0000
0010
0000
0100
0001
,
0100
0000
0001
0000
1000
0000
0010
1000
,
0010
1000
0001
1000
,
0100
1000
0100
0000
1000
0100
1000
0000
,
0001
0010
0001
0000
0010
0001
0010
0000
,
0001
0000
0100
0000
0001
0000
0100
0010
,
0000
0010
1000
0000
0010
0000
0100
0000
,
0001
0000
0010
0000
0100
0000
1000
0001
,
0000
0001
1000
0000
0010
0000
0100
0000
,
0001
0000
0010
0000
0100
0000
1000
0001
,
0000
0001
1000
0000
0010
0000
0100
0000
,
0001
0010
0100
1000
,
0010
0100
0001
1000
,
0001
1000
0001
1000
0001
1000
0001
1000
,
0001
0000
0000
0000
;

//---------------dance-single - Renard----------------
#NOTES:
     dance-single:
     Renard:
     Medium:
     6:
     0.419,0.436,0.107,0.021,0.000:
0000
0000
0000
0000
,
0000
0000
0000
0000
,
0000
0000
0000
0000
,
0000
0000
0000
0000
,
1000
0010
0100
0000
0100
0000
0100
0000
,
0001
0010
0100
0000
0100
0000
0100
0000
,
1000
0010
0100
0000
0100
0000
0100
0000
,
0001
0010
0100
0000
0010
0001
1000
0001
,
1000
0010
0100
0001
0100
0001
0100
0001
,
1000
1000
0001
0001
,
0001
0010
0100
1000
0010
0100
0010
0100
,
0010
1000
0001
0100
,
0001
1000
0100
1000
0100
1000
0100
0010
,
0001
0001
0100
0100
,
0010
1000
0100
1000
0001
0010
0001
0000
,
0100
0001
1000
1100
,
0010
0000
0101
0000
0000
0010
1100
0000
,
0010
0000
0101
0000
0000
0010
1100
0000
,
0010
0000
0101
0000
0000
0010
1100
0000
,
0010
0101
0010
1100
,
0001
0100
0001
0000
0100
0001
0100
0010
,
1000
1000
1000
2000
,
3010
0100
0001
0000
1000
0100
1000
0000
,
0010
0010
0100
0002
,
1003
0000
1000
0000
0100
0000
0010
0001
,
0010
0010
0100
1000
,
0010
0000
0100
0000
0001
0100
0001
0000
,
0100
0000
0100
0000
0010
0000
1000
1000
,
0001
0000
0100
0000
0001
0000
1000
0100
,
1000
0001
0010
0001
,
0100
0000
0010
0000
1000
0100
1000
0000
,
0001
0010
0001
0100
1000
0100
0001
0010
,
0001
0001
0001
0001
,
1000
1000
0010
0010
,
0001
0001
0001
0001
,
1000
1000
0010
0010
,
0001
0001
0001
0001
,
1000
1000
0010
0010
,
0001
0001
0001
0001
,
1000
1000
0010
0010
,
0001
1000
0001
1000
0010
1000
0010
1000
,
0001
1000
0010
1000
,
0001
1000
0100
1000
,
0001
0010
0001
1000
,
0100
0000
0010
0000
0001
0000
1000
0001
,
1000
0001
1000
0010
,
1000
0100
0010
0001
,
1000
0001
1000
0010
,
0100
0000
0001
0000
1000
0000
0001
1000
,
0001
1000
0010
0100
,
0001
1000
0100
0010
,
0001
0000
1000
0001
1000
0000
0001
1000
,
0001
1000
0001
0000
,
1000
0010
0100
0001
,
0010
0100
1000
0001
,
1000
0000
0001
0000
1000
0001
0000
1000
,
0001
0000
1000
0001
0000
1000
0001
0000
,
1000
0010
0100
0001
,
1001
0000
0000
0000
;

//---------------dance-single - Renard----------------
#NOTES:
     dance-single:
     Renard:
     Easy:
     3:
     0.248,0.311,0.011,0.129,0.000: // measure 1
0000
0000
0000
0000
,  // measure 2
0000
0000
0000
0000
,  // measure 3
0000
0000
0000
0000
,  // measure 4
0000
0000
0000
0000
,  // measure 5
1000
0001
0100
0001
,  // measure 6
1000
0001
0100
0000
,  // measure 7
0001
1000
0100
1000
,  // measure 8
0001
1000
0100
0100
,  // measure 9
0010
0000
0001
0000
1000
0000
0001
1000
,  // measure 10
0001
0001
0100
0100
,  // measure 11
0010
1000
0100
0000
,  // measure 12
0010
0010
0001
0001
,  // measure 13
0100
0100
0001
0000
,  // measure 14
1000
1000
0100
0010
,  // measure 15
0001
0001
0001
0000
,  // measure 16
1000
1000
0010
0100
,  // measure 17
0001
1000
0001
0000
0000
0000
0001
0000
,  // measure 18
1000
0001
1000
0000
,  // measure 19
0010
0100
0010
0000
0000
0000
0010
0000
,  // measure 20
0100
0000
0100
0000
,  // measure 21
0010
0000
0010
1000
,  // measure 22
0001
0000
0001
0100
,  // measure 23
0010
0000
0010
1000
,  // measure 24
0100
0000
0100
0010
,  // measure 25
0001
0000
0000
0000
,  // measure 26
1000
0000
0010
0000
,  // measure 27
0100
0000
0000
0000
,  // measure 28
0001
0000
1000
0100
,  // measure 29
1000
1000
0001
0001
,  // measure 30
0100
0000
0100
0000
,  // measure 31
0001
0001
1000
1000
,  // measure 32
0010
0000
0010
0000
,  // measure 33
2000
0000
0000
0000
,  // measure 34
3200
0000
0320
0000
,  // measure 35
0032
0000
0000
0000
,  // measure 36
0203
0000
0320
0000
,  // measure 37
2030
0000
0000
0000
,  // measure 38
3200
0000
0320
0000
,  // measure 39
0032
0000
0000
0000
,  // measure 40
0203
0000
0320
0000
,  // measure 41
1030
0000
1000
0000
0001
1000
0001
0000
,  // measure 42
1000
0001
1000
0000
,  // measure 43
0001
0000
1000
0000
,  // measure 44
0010
0000
0100
0000
,  // measure 45
0001
1000
0001
1000
,  // measure 46
0001
0000
1000
0000
,  // measure 47
0010
0000
0100
0000
,  // measure 48
0001
0000
1000
0001
,  // measure 49
1000
0000
0001
1000
,  // measure 50
0001
0000
1000
0000
,  // measure 51
0010
0000
0100
0000
,  // measure 52
0001
0000
1000
0001
,  // measure 53
1000
0000
0001
1000
,  // measure 54
0100
0000
1000
0000
,  // measure 55
0001
0000
0010
0000
,  // measure 56
0001
0000
1000
0001
,  // measure 57
1000
0000
0001
0000
,  // measure 58
1000
0000
0010
0000
,  // measure 59
1001
0000
0000
0000
;
