#TITLE:Run With Us;
#SUBTITLE:;
#ARTIST:Spray;
#GENRE:Dance;
#TITLETRANSLIT:;
#SUBTITLETRANSLIT:;
#ARTISTTRANSLIT:;
#CREDIT:;
#BANNER:run.png;
#BACKGROUND:run-bg.png;
#LYRICSPATH:;
#CDTITLE:;
#MUSIC:run.ogg;
#OFFSET:0.000;
#SAMPLESTART:28.324;
#SAMPLELENGTH:12.000;
#SELECTABLE:YES;
#BPMS:0.000=139.810;
#STOPS:;
#BGCHANGES:;

//---------------dance-single - Renard----------------
#NOTES:
     dance-single:
     Renard:
     Challenge:
     10:
     0.683,0.929,0.055,0.000,0.578:
0000
0000
0000
0000
,
0000
0000
0000
0000
,
0000
0000
0000
0000
,
0000
0000
0000
0000
,
0000
0000
0000
0000
,
1000
0000
0000
0001
0000
0000
0100
0000
0010
0000
0000
0100
0000
0000
0001
0000
,
1000
0000
0000
0100
0000
0000
0010
0000
0001
0000
0000
0010
0000
0000
0100
0000
,
1000
0000
0000
0010
0000
0000
0100
0000
0001
0000
0000
0100
0000
0000
0010
0000
,
1000
0000
0000
0001
0000
0000
0010
0000
0001
0000
1000
0000
0010
0000
1000
0000
,
0001
0100
0000
0010
0000
1000
0000
0100
,
0010
0001
0000
0010
0000
0100
0000
1000
,
0010
0100
0000
0001
0000
1000
0000
0100
,
1000
0001
0000
0010
0000
0100
0000
1000
,
0010
0100
0000
0001
1000
0100
0000
0010
,
0100
1000
0000
0001
0100
0010
0000
1000
,
0001
0100
0000
0001
1000
0100
0000
0100
,
1000
0001
1000
0000
0110
0000
1001
0000
,
1000
0100
0010
0001
1000
0000
0010
0000
0100
0000
0001
0000
1000
0000
0000
0000
,
0001
0100
0010
1000
0001
0000
0010
0000
0100
0000
1000
0000
0001
0000
0000
0000
,
1000
0000
0100
0010
0001
0000
0010
0100
1000
0000
0010
0000
0100
0000
0001
0000
,
1000
0000
0010
0100
0001
0000
0100
0010
1000
0000
0010
0000
0100
0000
0001
0000
,
1000
0100
1000
0100
1000
0100
1000
0000
0001
0000
0010
0000
0100
0000
1000
0000
,
0001
0010
0001
0010
0001
0010
0001
0000
0010
0000
0000
0000
1001
0000
0000
0000
,
0100
0000
0010
1000
0010
0000
0100
0001
0100
0000
0001
0000
1000
0000
0100
0000
,
0000
0010
0001
0000
0000
1000
0100
0000
0000
1000
0010
0000
0000
0100
0001
0100
,
0001
0010
0100
1000
0001
0000
0100
0000
0010
0000
1000
0000
0001
0000
0000
0000
,
1000
0010
0100
0001
1000
0000
0100
0000
0010
0000
0001
0000
1000
0000
0000
0000
,
0001
0000
0010
0100
1000
0000
0100
0010
0001
0000
0100
0000
0010
0000
1000
0000
,
0001
0000
0100
0010
1000
0000
0010
0100
0001
0000
0100
0000
0010
0000
1000
0000
,
0001
0010
0001
0010
0001
0010
0001
0000
1000
0000
0100
0000
0010
0000
0001
0000
,
1000
0100
1000
0100
1000
0100
1000
0000
0100
0000
0000
0000
1001
0000
0000
0000
,
0010
0000
0100
0001
0100
0000
0010
1000
0010
0000
1000
0100
1000
0000
0001
0010
,
0001
0000
1000
0010
1000
0000
0001
0100
0001
0000
1000
0001
1000
0001
1000
0000
,
0001
0100
1000
0100
0010
0001
0010
0000
,
1000
0010
0100
0001
0100
0000
1100
0000
,
0100
0001
0010
1000
0010
0001
0010
0000
,
0100
1000
0100
0001
0100
0000
1100
0000
,
0100
1000
0100
1000
0001
0010
0001
0000
,
1000
0000
0010
0000
1000
0000
0010
0000
0100
0000
0001
0100
0001
0000
0100
0000
,
0001
0000
0000
0001
1000
0000
0000
0100
1000
0000
0010
0000
0100
0000
0001
0000
,
1000
0000
0000
1000
0100
0000
0000
1000
0001
0000
0100
0010
0100
0000
0010
0000
,
1000
0010
0100
0001
1000
0000
0001
0000
0100
0000
0001
0000
1000
0000
0001
0000
,
0100
0001
0100
0001
0100
0000
0001
0000
0100
0000
0010
0000
1000
0000
0100
0000
,
1000
0100
0010
0001
1000
0000
0001
0000
0100
0000
0010
0000
1000
0000
0100
0000
,
0010
0001
0010
0001
0010
0000
0100
0000
1000
0000
0010
0000
0100
0000
0001
0000
,
1000
0100
1000
0100
1000
0000
0100
0000
0010
0001
0010
0001
0010
0000
0001
0000
,
0100
0001
0100
0001
0100
0000
0001
0000
1000
0010
1000
0010
1000
0000
0010
0000
,
1000
0000
0010
1000
0010
0000
0100
0001
0100
0000
0001
0000
1000
0000
0100
0000
,
0010
0000
0001
0010
0000
0000
0100
1000
0010
0000
0100
0001
0000
0000
1000
0100
,
0010
0000
0001
0010
0001
0000
0010
0000
0100
0000
1000
0000
0010
0000
0100
0000
,
0001
0000
1000
0100
1000
0000
0010
0000
0100
0000
0001
0000
1000
0000
0100
0000
,
1000
0000
0010
1000
0010
0000
0100
0001
0100
0000
0001
0000
0010
0000
0100
0000
,
1000
0000
0100
1000
0100
0000
1000
0010
1000
0000
0010
0000
0100
0000
0001
0000
,
1000
0000
0100
1000
0100
0000
1000
0010
1000
0000
0001
0100
0001
0000
1000
0000
,
0100
0000
0010
0001
0010
0000
0100
1000
0100
0000
1000
0010
1000
0000
0010
0000
,
0100
0000
0001
0100
0001
0000
1000
0100
1000
0000
0001
0010
0001
0000
1000
0010
,
1000
0000
0001
0100
0001
0000
1000
0100
1000
0000
0001
0010
0001
0000
1000
0000
,
0001
0010
0100
1000
0001
0010
0001
1000
0001
0010
0100
1000
0001
0010
0001
1000
,
0001
0100
0010
1000
0001
0100
0001
1000
0001
0100
0010
1000
0001
0100
0001
1000
,
0100
0010
0001
1000
0100
1000
0010
1000
0100
0010
0001
1000
0100
1000
0010
0100
,
0001
0000
0001
0100
0000
0100
0001
0000
1000
0000
1000
0100
0000
0100
1000
0000
;

//---------------dance-single - Renard----------------
#NOTES:
     dance-single:
     Renard:
     Hard:
     8:
     0.518,0.507,0.018,0.000,0.287:
0000
0000
0000
0000
,
0000
0000
0000
0000
,
0000
0000
0000
0000
,
0000
0000
0000
0000
,
0000
0000
0000
0000
,
1000
0000
0000
1000
0000
0000
1000
0000
0001
0000
0000
0001
0000
0000
0001
0000
,
0100
0000
0000
0100
0000
0000
0100
0000
0010
0000
0000
0010
0000
0000
0010
0000
,
1000
0000
0000
1000
0000
0000
1000
0000
0001
0000
0000
0001
0000
0000
0001
0000
,
1000
0000
1000
0000
0001
0100
0001
1000
,
0100
0000
0000
0100
1000
0000
0010
0000
0100
0000
0001
0000
0010
0000
0000
0000
,
0100
0000
0000
0100
1000
0000
0010
0000
0100
0000
0000
0000
0001
0000
0000
0000
,
1000
0000
0000
1000
0001
0000
0010
0000
0100
0000
1000
0000
0010
0000
1000
0000
,
0001
0000
0000
0001
0100
0000
0010
0000
1000
0000
0000
0000
0001
0000
0000
0000
,
1000
0000
0000
0100
0000
0000
1000
0000
0010
0000
0100
0000
0001
0000
0010
0000
,
0100
0000
0000
1000
0000
0000
0010
0000
0100
0000
0001
0000
1000
0000
0000
0000
,
0001
0001
1000
1000
,
0001
1000
1001
0110
,
0001
0000
0000
0001
1000
0000
0100
0000
0010
0000
0001
0000
1000
0000
0000
0000
,
0001
0000
0000
0001
0010
0000
0100
0000
1000
0000
0000
0000
0001
0000
0000
0000
,
1000
0000
1000
0000
0100
0000
0010
0001
,
1000
0000
1000
0000
0001
0000
0100
0010
,
1000
0000
0000
1000
0001
0000
1000
0000
0100
0000
0000
0100
1000
0000
0000
0000
,
0010
0000
0000
0010
0100
0000
0001
0000
0010
0000
0000
0010
0001
0000
0000
0000
,
1000
0000
0001
1000
0001
0000
1000
0000
,
0001
0000
0100
0010
0100
0010
1000
0010
,
1000
0000
0000
1000
0001
0000
0000
0001
1000
0000
0000
1000
0010
0000
0100
0000
,
0001
0000
0000
0001
0010
0000
0000
0010
0100
0000
0000
0100
1000
0000
0001
0000
,
0100
0000
0001
1000
0100
0000
0100
1000
,
0001
0000
0000
0001
1000
0000
0000
1000
0001
0000
1000
0001
1000
0000
0001
0000
,
0100
0000
0000
0100
0010
0000
1000
0000
0100
0000
0010
0000
0001
0000
0000
0000
,
1000
0000
0000
1000
0001
0000
0010
0000
0100
0000
1000
0000
0001
0000
0000
0000
,
1000
0000
0001
0100
0001
0000
1000
0100
,
1000
0001
0010
0100
1000
0000
0001
0000
,
1000
0000
0000
1000
0001
0000
0100
0000
0010
0000
0000
0000
1000
0000
0000
0000
,
0100
0000
0000
0100
0010
0000
0001
0000
0010
0000
0100
0000
1000
0000
0000
0000
,
0010
0000
0000
0010
0100
0000
0001
0000
1000
0000
0000
0000
0100
0000
0000
0000
,
1000
0000
0000
1000
0001
0000
0010
0000
0100
0000
1000
0000
0010
0000
0000
0000
,
0100
0000
0000
0100
0001
0000
1000
0000
0100
0000
0000
0000
1000
0000
0000
0000
,
0001
0000
0000
0001
0010
0000
0100
0000
1000
0000
0010
0000
0100
0000
0001
0000
,
1000
0000
0000
1000
0001
0000
0000
0001
0100
0000
0000
0100
0010
0000
0000
0000
,
1000
0000
0010
1000
0010
0000
1000
0000
0001
0000
0100
0000
0001
0000
0000
0000
,
1000
0000
0000
1000
0100
0000
0010
0000
0001
0000
1000
0000
0001
0000
0010
0000
,
0100
1000
0010
0100
0001
1000
0001
0100
,
0001
0000
0000
0001
1000
0000
0100
0000
1000
0000
0001
0000
0010
0000
0100
0000
,
1000
0010
0100
0001
1000
0100
1000
0001
,
0010
0000
0000
0010
0001
0000
1000
0000
0010
0000
0000
0010
1000
0000
0001
0000
,
0100
0000
0010
0000
1000
0000
0001
0000
1000
0000
0001
1000
0001
0000
1000
0000
,
0010
0000
0000
0010
0100
0000
0001
0000
1000
0000
0000
1000
0100
0000
1000
0000
,
0001
0000
0000
0001
0010
0000
0100
0000
1000
0000
0000
1000
0010
0000
0100
0000
,
0001
0000
1000
0001
1000
0000
0001
0000
0100
0000
0010
0000
1000
0000
0100
0000
,
0010
0001
0010
0100
1000
0010
0100
0000
,
0001
0000
1000
0001
1000
0000
0001
0000
0100
0000
0010
0000
1000
0000
0100
0000
,
0010
0000
0001
0000
1000
0000
0000
1000
0001
0000
0000
0001
1000
0000
0000
1000
,
0010
0000
0100
0001
0100
0000
0001
0000
0100
0000
0010
0000
1000
0000
0100
0000
,
0010
0001
0010
0100
1000
0010
0100
0001
,
1000
0000
0000
1000
0001
0000
0000
0001
0100
0000
0000
0100
0010
0000
0000
0010
,
1000
0000
0001
1000
0001
0000
1000
0000
0001
0000
0100
0000
0010
0000
1000
0000
,
0100
0000
0100
1000
0000
1000
0010
0100
,
0001
0000
0000
0000
0001
0000
0010
0000
0000
0000
0010
0000
0100
0000
1000
0100
,
1000
0000
0010
0100
0000
0100
0001
1000
,
0100
0000
0000
1000
0000
0000
0010
0000
0001
0000
0000
0100
0000
0000
1000
0000
;

//---------------dance-single - Renard----------------
#NOTES:
     dance-single:
     Renard:
     Medium:
     6:
     0.358,0.394,0.046,0.000,0.079:
0000
0000
0000
0000
,
0000
0000
0000
0000
,
0000
0000
0000
0000
,
0000
0000
0000
0000
,
0000
0000
0000
0000
,
1000
0000
0000
0001
0000
0000
0100
0000
0010
0000
0000
0000
0000
0000
0000
0000
,
1000
0000
0000
0100
0000
0000
0010
0000
0001
0000
0000
0000
0000
0000
0000
0000
,
1000
0000
0000
0010
0000
0000
0000
0100
0001
0000
0000
0000
0000
0000
0000
0000
,
1000
0000
0000
0001
0000
0000
1000
0000
0001
0000
0000
0000
0001
0000
0000
0000
,
0000
1000
0000
1000
0000
1000
0000
1000
,
0000
0001
0000
0001
0000
0001
0000
0001
,
0100
0100
0000
0100
0000
0100
0000
0100
,
0000
0010
0000
0010
0000
0010
0000
0010
,
1000
1000
0000
1000
0000
1000
0000
1000
,
0000
0001
0000
0001
0000
0001
0000
0001
,
0100
0100
0000
0100
0000
0010
0000
1000
,
0000
0001
0000
0100
0000
0000
1001
0000
,
0110
0000
1000
0010
0100
0000
0001
0000
,
0100
0000
0010
0000
1000
0100
1000
0000
,
0001
0010
0001
0000
1000
0001
1000
0000
,
0001
1000
0001
0000
,
0101
0000
0010
1000
0000
0000
0100
0000
,
0010
0001
1000
0001
,
0100
0000
0000
0100
0001
0000
0000
0001
,
1000
0000
0000
0100
0000
0000
1000
0000
0010
0000
0000
0100
0000
0000
0001
0000
,
1000
0000
0001
0100
0000
0000
0001
0000
,
1000
0000
0000
0001
1000
0000
0001
0000
,
0100
0000
0100
0000
0010
1000
0000
0010
,
1000
0001
0100
0001
,
1000
0000
0100
0000
0010
0000
0001
1000
,
0001
0000
1000
0000
0010
1000
0000
0010
,
1000
0001
0100
0001
,
1000
0000
0001
0000
1000
0001
1000
0000
,
0001
0000
0000
1000
0000
0000
0001
0000
1000
0000
0000
0000
0001
0000
0000
0000
,
1000
0000
0000
0001
0000
0000
1000
0000
0001
0000
0000
0000
1000
0000
0000
0000
,
0010
0000
0000
0100
0000
0000
0010
0000
0100
0000
0000
0000
0010
0000
0000
0000
,
0100
0000
0000
0010
0000
0000
0100
0000
0010
0000
0000
0000
0100
0000
0000
0000
,
0001
0000
0000
0100
0000
0000
0001
0000
0100
0000
0000
0000
0001
0000
0000
0000
,
0100
0000
0000
0001
0000
0000
0100
0000
0001
0000
0000
0000
0100
0000
0000
0000
,
0010
0000
0000
1000
0000
0000
0010
0000
1000
0000
0000
0000
0010
0000
0000
0000
,
1000
0000
0000
0010
0000
0000
1000
0000
0010
0000
0000
0000
1000
0000
0000
0000
,
0001
0000
0001
0100
0000
0100
0010
0000
,
1000
0010
1000
0010
1000
0010
1000
0010
,
1000
1000
0100
0100
,
0010
0010
0001
0001
,
0010
0000
0010
0100
0000
0100
1000
0000
,
0100
1000
0100
1000
0100
1000
0100
0000
,
1000
0010
0100
0001
,
1000
1001
0001
1001
,
0001
0000
0001
0100
0000
0000
0100
0000
,
0010
1000
0010
1000
,
0001
0100
0001
0100
0001
0000
0100
0000
,
0001
0100
0001
0100
0001
0000
0100
0000
,
0010
0000
0010
1000
0000
1000
0010
0000
,
1000
0010
1000
0010
1000
0010
1000
0010
,
1000
0000
0001
0100
0001
0000
1000
0000
,
0100
1000
0001
1000
,
0001
0000
0001
1000
0000
1000
0001
0000
,
1000
0000
0001
0100
,
0010
0000
0010
1000
0000
1000
0001
0000
,
0100
0000
0000
0001
0000
0000
1000
0000
0100
0000
0000
0010
0000
0000
0001
0000
;

//---------------dance-single - Renard----------------
#NOTES:
     dance-single:
     Renard:
     Easy:
     4:
     0.276,0.338,0.222,0.000,0.000: // measure 1
0000
0000
0000
0000
,  // measure 2
0000
0000
0000
0000
,  // measure 3
0000
0000
0000
0000
,  // measure 4
0000
0000
0000
0000
,  // measure 5
0000
0000
0000
0000
,  // measure 6
0001
0000
0000
1000
0001
0000
0000
0000
,  // measure 7
1000
0000
0000
0001
1000
0000
0000
0000
,  // measure 8
0001
0000
0000
1000
0001
0000
0000
0000
,  // measure 9
1000
0000
0000
0001
1000
0000
0001
0000
,  // measure 10
0000
1000
0000
1000
0000
1000
0000
1000
,  // measure 11
0000
0001
0000
0001
0000
0001
0000
0001
,  // measure 12
0000
1000
0000
1000
0000
1000
0000
1000
,  // measure 13
0000
0001
0000
0001
0000
0001
0000
0001
,  // measure 14
0000
0100
0000
0100
0000
0100
0000
0100
,  // measure 15
0000
0010
0000
0010
0000
0010
0000
0010
,  // measure 16
0000
0100
0000
0100
0000
0100
0000
0100
,  // measure 17
0000
0100
0000
0000
1001
0000
1001
0000
,  // measure 18
1000
0000
0001
1000
0000
0000
0001
0000
,  // measure 19
1000
0000
0010
0000
,  // measure 20
0100
0000
0001
0000
1000
0000
0100
1000
,  // measure 21
0001
0000
1000
0000
,  // measure 22
0001
0000
0100
0001
0000
0000
1000
0000
,  // measure 23
0100
0000
1000
0001
,  // measure 24
1000
0000
0001
0100
,  // measure 25
0001
0000
0000
1000
0100
0000
0000
1000
,  // measure 26
0001
0000
0100
0001
0000
0000
1000
0000
,  // measure 27
0100
0100
1000
1000
,  // measure 28
0010
0000
0100
0000
0001
0000
0100
0010
,  // measure 29
0000
1000
0100
0000
1000
0000
0001
0000
,  // measure 30
0100
0001
1000
0000
,  // measure 31
0001
0000
0110
0000
,  // measure 32
1000
0000
0101
0000
,  // measure 33
1000
0000
0001
0000
1000
0000
0001
1000
,  // measure 34
0001
1000
0001
0000
,  // measure 35
1010
0000
0101
0000
,  // measure 36
1000
0100
0010
0000
,  // measure 37
0011
0000
0110
0000
,  // measure 38
1100
0000
0000
1000
0001
0000
0000
0000
,  // measure 39
0101
0000
0000
0001
1000
0000
0100
0000
,  // measure 40
1000
0001
1000
0001
,  // measure 41
0100
0001
1000
0100
,  // measure 42
1000
0000
0001
1000
0000
0000
0001
0000
,  // measure 43
0100
0000
1001
0000
,  // measure 44
1000
0100
1000
0001
,  // measure 45
0100
0001
1000
0100
,  // measure 46
1001
0000
0000
1001
0000
0000
1000
0000
,  // measure 47
0001
0100
0010
0000
,  // measure 48
1000
0000
0010
0000
,  // measure 49
0101
0000
1100
0101
,  // measure 50
1001
0000
0000
1001
0000
0000
1000
0000
,  // measure 51
0010
0100
0001
0000
,  // measure 52
1000
0001
1000
0001
,  // measure 53
0010
0100
1000
0000
,  // measure 54
1001
0000
0000
0110
0000
0000
1001
0000
,  // measure 55
1000
0000
0000
0001
0100
0000
0000
0000
,  // measure 56
0001
1000
0100
0000
,  // measure 57
1100
0000
0101
0000
,  // measure 58
1001
0000
1000
0000
,  // measure 59
0001
0000
0001
0000
,  // measure 60
0100
0000
0100
0000
,  // measure 61
0010
0000
0000
1000
0010
0000
0100
0001
;
