#TITLE:Rockin';
#SUBTITLE:;
#ARTIST:Lollipop;
#TITLETRANSLIT:;
#SUBTITLETRANSLIT:;
#ARTISTTRANSLIT:;
#CREDIT:;
#BANNER:rockin.png;
#BACKGROUND:rockin-bg.png;
#LYRICSPATH:;
#CDTITLE:;
#MUSIC:rockin.ogg;
#OFFSET:0.000;
#SAMPLESTART:41.017;
#SAMPLELENGTH:12.000;
#SELECTABLE:YES;
#BPMS:0.000=140.088;
#STOPS:;
#BGCHANGES:;

//---------------dance-single - Renard----------------
#NOTES:
     dance-single:
     Renard:
     Hard:
     7:
     0.544,0.493,0.042,0.052,0.000:
0000
0000
0000
0000
,
0000
0000
0000
0000
,
0000
0000
0000
0000
,
0000
0000
0000
0000
,
1000
0001
0100
0001
0010
0000
0100
0000
,
2000
3010
0101
0010
,
0001
0010
0100
1000
0010
0000
0100
0000
,
0001
0100
0010
0000
1010
0000
0000
0000
,
2000
0000
3200
0000
2300
0000
3010
0100
,
0001
0010
0000
0010
0001
0100
0010
1000
,
0100
0010
0000
0010
0001
0010
0001
0100
,
0010
1000
0000
1000
0100
0010
0001
0100
,
0001
0010
0000
0010
0001
0100
0010
1000
,
0100
0010
0000
0010
0001
0010
0001
0100
,
0010
1000
0000
1000
0100
0010
0001
0100
,
0010
0100
0010
0100
0010
0000
0110
0000
,
1000
0010
0100
0010
1000
0010
0100
0010
,
1000
0010
0100
0010
1000
0010
0100
0000
,
0100
0001
0010
0001
0100
0001
0010
0001
,
0200
0010
0310
0110
,
1000
0010
0100
0001
0100
0010
1000
0100
,
0001
0100
1000
0010
0100
0010
0100
0000
,
0010
1000
0010
0000
0010
0100
0010
0000
,
0010
0001
0010
0100
0010
1000
0010
0000
,
1000
0100
1000
0010
1000
0100
1000
0010
,
0100
0001
0100
0010
0100
0001
0100
0000
,
0010
0001
0010
1000
0010
0001
0010
1000
,
0010
0100
0010
0001
0100
0010
1000
0000
,
0001
0010
0001
0100
0001
0010
0001
0100
,
0010
1000
0010
0100
0010
1000
0010
0000
,
0100
1000
0100
0001
0100
1000
0100
0001
,
0100
0010
0100
1000
0010
0100
0001
0000
,
1000
0000
0100
0000
0010
0000
0001
0001
,
1000
0100
0000
0100
0000
0100
0000
0100
,
0010
0001
0000
0001
0000
0001
0000
0001
,
0100
0001
0000
0001
0100
0001
0100
0001
,
0100
0010
1000
0000
0100
0010
0001
0000
,
0100
0010
1000
0010
0100
0000
0100
0000
,
0001
0010
0001
0100
0010
0000
1000
0000
,
1000
0100
0010
0001
0100
0010
1000
0000
,
0001
1000
0001
0100
0010
1000
0010
0100
,
1000
0100
1000
0010
0100
0001
0010
0001
,
0100
0010
0100
0001
1000
0001
1000
0010
,
1000
0100
1000
0010
0100
0001
0100
0010
,
0100
0001
0010
0001
0100
0010
1000
0100
,
0010
0001
0000
0001
0100
0010
1000
0100
,
0010
0001
0000
0001
0100
0010
1000
0100
,
0010
0001
0001
0001
0001
0000
0001
0000
,
1000
0001
0100
0001
1000
0100
0010
0100
,
1000
0001
0100
0001
1000
0100
0010
0100
,
1000
0001
0010
0001
0010
0100
1000
0100
,
1000
0001
0010
0001
0010
0100
1000
0010
,
0100
0001
0100
0010
1000
0100
0010
0100
,
1000
0001
0010
0001
0100
0010
1000
0100
,
0010
0100
1000
0010
0100
0001
0010
0001
,
0100
0010
1000
0000
0010
0000
0000
0000
;

//---------------dance-single - Renard----------------
#NOTES:
     dance-single:
     Renard:
     Medium:
     5:
     0.412,0.406,0.209,0.021,0.000:
1000
0000
0001
0000
0100
0001
1000
0000
,
0001
0100
1001
1000
,
0000
0000
0000
0000
,
0000
0000
0000
0000
,
1000
0000
0001
0100
0001
0000
1000
0000
,
0100
1000
1100
1000
,
0001
0000
0100
0001
1000
0000
0001
0000
,
1000
0010
1000
0000
1010
0000
0000
0000
,
0100
0001
0010
0100
,
1000
0000
0001
0000
0100
0001
0100
0000
,
0001
1000
0100
0010
,
0001
0000
1000
0000
0010
1000
1010
0000
,
0100
0001
0010
0100
,
1000
0000
0001
0000
0100
0001
0100
0000
,
0001
0000
1000
0100
1000
0000
0001
0100
,
0001
0000
1000
0000
0001
1000
1001
0000
,
1000
0010
0100
0001
,
1000
0000
0100
0000
0010
0010
0010
0000
,
0001
0100
0010
1000
,
0100
0000
1000
0000
0001
0001
0001
0000
,
1000
0010
0100
0001
,
0010
0000
0100
0000
1000
1000
1000
0000
,
0010
0010
0010
0010
,
0010
0100
0001
0100
0010
0100
0001
0000
,
1000
0100
1000
0010
,
0100
0101
1010
1100
,
0010
0001
0100
0001
,
1000
0100
1000
0100
1000
0100
1000
0000
,
0001
0100
0001
1000
,
1010
0101
0011
0101
,
0001
1000
0100
0000
0100
1000
0001
0000
,
0100
0001
0100
0001
0100
0001
0100
0000
,
0001
1000
0100
0010
,
0001
0010
0000
0100
0000
1000
0000
0010
,
0100
0001
0000
1000
0000
0100
0000
0010
,
0001
0010
0000
0100
1000
0001
1000
0001
,
1000
0100
1000
0001
,
0100
0001
0000
1000
0000
0001
1000
0000
,
0001
0100
0001
1000
,
1100
0000
1010
0101
,
1000
0001
0100
0001
,
1000
0100
1000
0000
0001
0000
0100
0000
,
0001
0010
0001
0000
1000
0000
0010
0000
,
1000
0010
1000
0000
1000
0100
1000
0000
,
0001
0100
0001
0000
0010
0000
0001
0000
,
0010
0001
0010
0000
0001
0000
1000
0000
,
0010
1000
0010
0000
1000
0000
0100
0000
,
1000
0001
0100
0001
1000
0000
1001
0000
,
1000
0000
0010
0000
0100
0000
0001
0010
,
0001
1100
0011
0000
,
1000
0010
0100
0001
,
1000
0100
1000
0001
0100
0000
0001
0000
,
0100
0100
0001
1000
,
0100
1000
0001
0001
,
0100
0001
0100
0000
0001
0000
0001
0000
,
0202
0000
1313
0000
;

//---------------dance-single - Renard----------------
#NOTES:
     dance-single:
     Renard:
     Easy:
     3:
     0.335,0.435,0.157,0.031,0.000:
0000
0000
0000
0000
,
0000
0000
0000
0000
,
0000
0000
0000
0000
,
0000
0000
0000
0000
,
1000
1000
0001
0001
,
0100
0001
1001
0000
,
0001
0001
1000
1000
,
0100
1000
1001
0000
,
1000
0010
0100
0001
,
0010
0100
1000
1001
,
1000
0010
0100
0001
,
0010
0100
1000
1001
,
1000
0100
0010
0001
,
0010
0100
1000
1001
,
0001
1001
1000
1001
,
1001
1001
1001
1001
,
1000
1000
0001
0001
,
1000
1000
1000
1000
,
0001
0001
1000
1000
,
0001
0001
0001
0001
,
1000
0000
1000
1000
0001
0000
0001
0001
,
1000
0001
1000
0001
,
1000
0001
1000
0000
0001
1000
0001
0000
,
1000
0001
1000
0001
,
0100
0001
1000
0100
,
0010
0010
0001
1000
,
0010
0010
0100
0001
,
1000
0100
1100
0000
,
1000
0010
0100
0001
,
0010
0010
0001
0100
,
0010
0010
0100
0001
,
1000
0100
1100
0000
,
1000
0001
0100
0001
,
1000
0100
0000
0000
1000
0000
0010
0000
,
0100
0001
0000
0000
0100
0000
0001
0000
,
1000
0100
0000
0000
1000
0000
0001
0000
,
0100
0001
0010
0001
,
1000
0100
1000
0010
,
0100
0001
1000
0100
,
0010
0001
1000
0001
,
1000
1000
0001
0000
1000
1000
0001
0000
,
1000
0001
1000
0001
,
0100
0001
1000
0100
,
1000
0001
1000
1000
,
0001
0001
1000
0000
0001
0001
1000
0000
,
0001
1000
0100
0010
,
0001
1000
0010
0100
,
0002
0000
0000
1003
,
1000
0001
0100
0001
,
1000
1000
0100
0011
,
0100
1000
0010
0100
,
0001
0010
1100
0010
,
0001
0100
0010
1000
,
0001
0001
1000
0000
,
0100
0001
0200
0000
,
0002
0000
0313
0000
;

//---------------dance-single - BlueChaos----------------
#NOTES:
     dance-single:
     BlueChaos:
     Challenge:
     9:
     0.730,0.670,0.481,0.460,0.272: // measure 1
0000
0000
0000
0000
,  // measure 2
0000
0000
0000
0000
,  // measure 3
0000
0000
0000
0000
,  // measure 4
0000
0000
0000
0000
,  // measure 5
1000
0100
0001
0010
1000
0000
1100
0000
,  // measure 6
0001
0000
0100
0000
1000
0000
0010
0000
0001
0000
0000
1000
0001
0000
0100
0000
,  // measure 7
0010
1000
0100
0010
0001
0000
1100
0000
,  // measure 8
0100
0000
1000
0000
0010
0000
0001
0000
0100
0000
0000
0010
0100
0000
0001
0000
,  // measure 9
1000
0000
0100
0000
0100
0000
1000
0100
0010
0001
0100
0000
0010
0000
0010
0000
,  // measure 10
1000
0000
0100
0000
0100
0000
0010
0001
0010
0100
1000
0000
0001
0000
0001
0000
,  // measure 11
0100
0000
0010
0000
0100
0000
0001
1000
0010
1000
0100
0000
1000
0000
1000
0000
,  // measure 12
0100
0000
1000
0000
0010
0000
0100
0010
1000
0001
0010
0000
0001
0000
0001
0000
,  // measure 13
1001
0000
1000
0000
0100
0000
1000
0100
0001
0100
1000
0000
0100
0000
0100
0000
,  // measure 14
0010
0000
0001
0000
0100
0000
0001
0100
1000
0100
0001
0000
0100
0000
0100
0000
,  // measure 15
0101
0000
0001
0000
0010
0000
0001
0010
1000
0010
0001
0000
0010
0000
0010
0000
,  // measure 16
0001
0000
0100
0000
0010
0000
1000
0010
0001
0010
1000
0000
0010
0000
0010
0000
,  // measure 17
1000
0000
0100
0000
0010
0000
0001
0000
0010
0001
0100
0000
0101
0000
1010
0000
,  // measure 18
1000
0000
0010
0000
0100
0000
0001
0000
0100
0001
0010
0000
0011
0000
1100
0000
,  // measure 19
0100
0000
0010
0000
0001
0000
0100
0000
0010
1000
0001
0000
1001
0000
0110
0000
,  // measure 20
0010
0000
1000
0000
0010
0000
0100
0000
0001
0100
0010
0000
0110
0000
1001
0000
,  // measure 21
0001
0000
1000
0000
0100
0000
1000
0000
0010
0100
0001
0000
0101
0000
0011
0000
,  // measure 22
0010
0000
0100
0000
0010
0000
0001
0000
0100
0010
1000
0000
1010
0000
1100
0000
,  // measure 23
0100
0000
0010
0000
0001
0000
1000
0000
0001
0100
0010
0000
0101
0000
1100
0000
,  // measure 24
1000
0000
0100
0000
1000
0000
0001
0000
0100
0001
0010
0000
0011
0000
1010
0000
,  // measure 25
2000
0100
0001
0001
0010
0000
3001
0000
,  // measure 26
2002
0000
0000
3003
0220
0000
0000
0330
2002
3000
0003
1000
0010
0000
0100
0000
,  // measure 27
0020
1000
0100
0100
1000
0000
0130
0000
,  // measure 28
0220
0000
0000
0330
2002
0000
0000
3003
0220
0300
0000
0130
0001
0000
1000
0000
,  // measure 29
0002
0010
1000
1000
0100
0000
0013
0000
,  // measure 30
0022
0000
0000
0033
2200
0000
0000
3300
0022
0030
0000
1003
0010
0000
1000
0000
,  // measure 31
0200
0010
1000
1000
0010
0000
1300
0000
,  // measure 32
2200
0000
0000
3300
0220
0000
0000
0330
0022
0003
0000
0031
0100
0000
0010
0000
,  // measure 33
1000
0000
1000
0000
0001
0000
0010
0001
0200
0000
0010
0000
0310
0000
0000
0000
,  // measure 34
1000
0000
0010
0000
0010
0000
0100
0001
0020
0000
0100
0000
0130
0000
0000
0000
,  // measure 35
0010
0000
0001
0000
1000
0000
0001
1000
0200
0000
0010
0000
0310
0000
0100
0000
,  // measure 36
1000
0100
M000
0010
0001
0010
010M
0100
,  // measure 37
2000
0000
0000
3010
0100
0000
0000
0010
0100
0000
0001
0000
0010
0000
0100
0000
,  // measure 38
1000
0100
0001
0100
000M
0100
1000
0010
,  // measure 39
0100
0000
0000
0001
0010
0000
0000
0001
0100
0000
0000
0010
1000
0000
0000
0001
,  // measure 40
0010
0100
0100
0100
0100
1000
0010
0100
,  // measure 41
0001
0100
1000
0100
0010
0100
0001
0010
,  // measure 42
0100
0010
1000
0010
0001
0100
1000
0100
,  // measure 43
0001
0010
0001
0010
1000
0010
0001
0100
,  // measure 44
0100
0100
M00M
0010
0010
0010
1000
0001
,  // measure 45
100M
0100
0000
1000
0010
0000
0100
0001
0000
0100
0010
0000
1000
0001
1000
0000
,  // measure 46
0001
0010
0000
0001
0100
0000
0010
1000
0000
0100
0010
0000
0100
1000
0100
0000
,  // measure 47
1000
0200
M000
0320
0M00
0032
00M0
1003
,  // measure 48
1001
0000
0100
0010
0100
0000
1001
0000
,  // measure 49
1001
1000
0100
1100
1000
0000
1001
0000
,  // measure 50
0002
0000
0000
0000
0200
0000
0000
0000
0313
0000
0000
0001
1000
0000
0001
0000
,  // measure 51
0101
0100
0010
0110
0100
0000
0101
0000
,  // measure 52
2000
0000
0000
0000
0200
0000
0000
0000
3301
0000
0000
1000
0100
0000
0010
0000
,  // measure 53
0110
0100
1000
1001
0001
0000
1001
0000
,  // measure 54
2000
0000
0000
0000
0002
0000
0000
0000
3013
0000
0000
1000
0010
0000
1000
0000
,  // measure 55
1100
0100
0010
0011
0001
0000
1100
0000
,  // measure 56
0200
2000
0020
3330
;
