#TITLE:Rocket Punch!!;
#SUBTITLE:;
#ARTIST:Neko;
#GENRE:Silly NRG;
#TITLETRANSLIT:;
#SUBTITLETRANSLIT:;
#ARTISTTRANSLIT:;
#CREDIT:;
#BANNER:;
#BACKGROUND:;
#LYRICSPATH:;
#CDTITLE:;
#MUSIC:rocket.ogg;
#OFFSET:0.000;
#SAMPLESTART:40.258;
#SAMPLELENGTH:12.000;
#SELECTABLE:YES;
#BPMS:0.000=155.000,68.000=310.000,80.000=77.500,82.000=310.000,94.000=155.000;
#STOPS:68.000=0.581
,69.000=0.581
,70.000=0.581
,71.000=0.581
,72.000=0.194
,73.000=0.194
,74.000=0.194
,75.000=0.194
,76.000=0.097
,76.500=0.097
,77.000=0.097
,77.500=0.097
,78.000=0.048
,78.250=0.048
,78.500=0.048
,78.750=0.048
,79.000=0.048
,79.250=0.048
,79.500=0.048
,79.750=0.048
,82.000=0.097
,82.500=0.048
,82.750=0.048
,83.000=0.097
,83.500=0.048
,83.750=0.048
,84.000=0.097
,84.500=0.048
,84.750=0.048
,85.000=0.097
,85.500=0.048
,85.750=0.048
,86.000=0.048
,86.250=0.048
,86.500=0.097
,87.000=0.048
,87.250=0.048
,87.500=0.097
,88.000=0.048
,88.250=0.048
,88.500=0.097
,89.000=0.048
,89.250=0.048
,89.500=0.097
,90.000=0.097
,90.500=0.048
,90.750=0.097
,91.250=0.048
,91.500=0.097
,92.000=0.048
,92.250=0.097
,92.750=0.048
,93.000=0.032
,93.167=0.032
,93.333=0.032
,93.500=0.032
,93.667=0.032
,93.833=0.032
,94.000=1.161
;
#BGCHANGES:;

//---------------dance-single - Renard----------------
#NOTES:
     dance-single:
     Renard:
     Challenge:
     10:
     0.801,0.837,0.758,0.096,0.753:
0000
0000
0000
0000
,
0000
0000
0000
0000
,
0000
0000
0000
0000
,
0000
0000
0000
0000
,
0000
0000
0000
0000
,
1000
0000
0001
0000
0100
0010
0000
1000
0000
0100
0010
0001
0010
0100
1000
0010
,
0100
0000
0001
0000
1000
0100
0000
1000
0000
0001
0100
0001
1000
0100
0010
0001
,
0010
0000
0100
0000
1000
0010
0000
0100
0000
0001
1000
0100
1000
0001
0100
0001
,
1000
0000
0100
0000
1000
0001
0000
0100
0000
0001
0000
1000
0001
0000
1000
0000
,
0010
0000
0100
0000
0001
0010
0000
0100
0000
1000
0010
0100
0001
0000
1000
0000
,
0001
0000
0100
0000
0010
1000
0000
0100
0000
0010
0001
0010
0100
0000
1000
0000
,
0010
0000
0100
0000
0001
1000
0000
0010
0000
0100
0001
1000
0100
0000
1000
0000
,
0001
0000
0100
0000
0010
1000
0000
0100
0000
0010
0001
0010
0001
0000
0010
0000
,
0100
0000
1000
0000
0010
0100
0000
0001
0000
1000
0100
1000
0001
0000
0100
0000
,
0001
0000
0010
0000
0100
1000
0000
0001
0000
1000
0010
1000
0001
0000
0100
0000
,
0001
0000
1000
0000
0100
1000
0000
0001
0000
0010
0001
0010
0001
0000
1000
0000
,
0010
0000
0100
0001
1000
0000
0100
1000
0001
0000
1000
0000
1001
0000
0000
0000
,
1001
1010
0101
0011
,
1100
1010
0101
0011
,
1001
0000
1001
0000
0110
0000
0110
0000
1000
0010
0100
0001
1000
0100
0010
0001
,
2002
0000
0000
0000
0000
0000
3003
0000
1000
0000
0001
0100
0001
0000
1000
0100
,
1000
0000
0001
0010
0001
0000
1000
0010
1000
0100
0010
0000
0001
0010
0100
0000
,
1000
0100
0010
0000
0001
0010
0100
0000
1000
0000
1000
0010
0000
0010
0100
0000
,
0100
0000
0000
0001
0000
0000
0000
0000
0000
0001
0000
0000
1000
0000
0001
0000
1000
0000
0001
0000
1000
0000
0001
0000
1000
0000
0000
0000
0000
0000
0000
0000
0000
0000
0000
0000
1000
0000
0000
0000
0000
0000
0001
0000
0000
0000
0000
0000
,
0100
0010
1000
1000
0100
0100
0000
0010
,
0001
0010
0100
1000
1010
0000
1010
0000
,
1001
0000
0100
0001
0010
0110
0000
1100
,
0000
1000
0001
0100
0010
1000
0100
0010
,
0011
0000
0110
0010
0100
1100
0000
1010
,
0000
0100
0001
0100
0010
1000
1100
0010
,
0011
0000
0101
0100
1010
1010
0000
1100
,
0000
0010
0001
0100
0010
0000
1001
1000
,
1100
0000
0110
0010
0011
0101
0000
0110
,
0000
1010
1000
1100
0110
0000
0011
0000
,
0110
0000
1100
1000
1010
0110
0000
0101
,
0000
0011
0010
0110
0100
1100
1010
0000
,
0101
0000
1001
1000
1100
0110
0000
0011
,
0000
0110
0000
1100
1000
1010
0110
0000
,
0101
0000
0101
0001
1001
1100
0000
0110
,
0000
0000
0011
0000
0000
0000
1001
0000
1010
0000
0000
0000
1000
0001
1000
0001
,
2000
0000
0001
0000
3010
0000
0001
1000
,
0100
1000
0001
0100
0001
0000
1000
0000
1001
0000
0000
0000
0100
0010
0100
0010
,
0200
0000
0010
0000
1300
0000
0010
0100
,
0001
0100
0010
0001
0010
0000
0100
0000
0110
0000
0000
0000
0001
1000
0001
1000
,
0002
0000
1000
0000
0103
0000
1000
0001
,
0010
0001
1000
0010
1000
0000
0001
0000
1001
0000
0000
0000
0010
0100
0010
0000
,
1000
0000
0000
0001
0000
0000
1000
0000
0000
0000
0000
0000
0010
0000
0000
0100
0000
0000
0010
0000
0000
0000
0000
0000
1000
0000
0000
0001
0000
0000
1000
0000
0000
0000
0000
0000
0001
0000
0000
0000
0010
0000
0000
0000
0100
0000
0000
0000
,
1000
0000
0100
0000
0010
0000
0001
0000
0010
0000
0100
0000
1001
0000
0000
0000
0000
0000
1000
0000
0000
0010
0000
0000
,
0100
0001
0000
1000
0000
0100
0010
0001
0010
0100
1000
0010
0100
0000
0001
0000
,
1000
0100
0000
1000
0000
0001
0010
0100
1000
0010
0100
0001
1000
0000
0100
0000
,
1000
0001
0000
0010
0000
0100
1000
0010
0100
0001
1000
0100
0010
0000
0001
0000
,
0010
0100
0000
1000
0000
0010
0100
0001
1000
0100
0010
0001
0010
0000
0100
0000
,
1000
0010
0000
0100
0000
0001
1000
0100
1000
0001
0010
0100
1000
0000
0010
0000
,
0100
0001
0000
0010
0000
0100
0010
0001
0100
0001
0100
0000
0010
0000
1000
0000
,
0001
0000
0000
0100
0000
0000
0000
0000
0000
0010
0000
0000
0000
0000
0000
1000
0000
0000
0100
0000
0000
0010
0000
0000
0001
0000
0000
0010
0000
0000
0100
0000
0000
1000
0000
0000
0010
0000
0000
0000
0010
0000
0000
0000
0010
0000
0000
0000
,
0100
0000
0100
0000
0100
0000
0001
0000
1000
0000
0001
0000
1002
0000
0000
0200
0000
0000
2020
0000
0000
0000
0000
0000
,
3333
0000
0000
0000
;

//---------------dance-single - Renard----------------
#NOTES:
     dance-single:
     Renard:
     Hard:
     9:
     0.612,0.598,0.224,0.021,0.213:
0000
0000
0000
0000
,
0000
0000
0000
0000
,
0000
0000
0000
0000
,
0000
0000
0000
0000
,
0000
0000
0000
0000
0000
0000
0000
0001
,
1000
0000
0000
0000
0010
0000
0000
0010
1000
0000
0010
0000
0100
0000
0001
0000
,
1000
0000
0000
0000
0100
0000
0000
0100
1000
0000
0010
0000
0100
0000
0001
0000
,
1000
1000
0100
0100
0010
0010
0001
1000
,
0001
1010
0101
1001
,
1000
0100
0010
0001
0010
0100
1000
0010
,
0001
0010
1000
0100
0001
0100
1000
0100
,
0010
0001
0010
1000
0010
0001
0010
0001
,
0010
0100
1000
0010
0001
0010
1000
0010
,
0100
0001
0100
1000
0100
0001
0010
0100
,
0001
0100
1000
0010
0100
0001
0100
0010
,
1000
0100
0010
0100
1000
0010
0100
0001
,
0010
0100
0010
0001
0100
0010
1000
0000
,
1001
1010
0101
1010
,
0101
1001
1100
0011
,
1000
0000
1000
0000
0001
0000
0001
0000
0100
0000
0010
0000
1000
0001
1000
0001
,
0100
0000
0000
0000
0000
0000
0000
0000
1000
0000
0000
1000
0001
0000
0000
0001
,
0100
0000
0000
0100
0010
0000
1000
0010
1000
0000
0010
0000
0100
0001
0100
0000
,
0010
0000
1000
0000
0100
1000
0100
0000
1000
0000
0001
0100
0000
0001
1000
0000
,
0100
1000
0000
0001
1000
0000
0001
0000
1001
0000
0000
0000
1000
0000
0010
0000
,
0100
0001
0010
0100
0010
0001
0000
0001
,
1000
0010
0100
0001
0101
0000
0001
0100
,
0010
1000
0100
0010
0001
0010
0000
0011
,
0000
0110
0000
0100
1000
0010
0100
0001
,
1000
0000
0100
1000
0001
0010
0000
1001
,
0000
0000
0010
1000
0010
0000
1000
0000
0010
0000
0100
0000
0001
0000
0010
0000
,
0100
0000
0000
0100
1000
0000
0010
0000
0100
0000
0001
0000
1000
0000
0000
0000
,
1001
0000
0000
0000
1010
0000
0000
0000
1000
0010
1000
0000
0010
0000
0100
0000
,
0001
0000
0000
0001
0010
0000
0100
0000
1000
0000
0010
0000
0100
0000
0001
0000
,
1000
0000
0000
1000
0001
0000
0100
0000
0010
0000
1000
0000
0100
0000
0010
0000
,
0001
0000
0000
0001
1000
0000
0010
0000
0100
0000
0001
0000
1000
0000
0100
0000
,
1000
0000
0001
0010
0001
0000
1000
0000
0010
0000
1000
0000
0010
0000
0100
0000
,
0001
0000
0000
0001
1000
0000
0100
0000
0010
0000
0001
0000
1000
0000
0010
0000
,
0100
0000
0000
0100
0001
0000
1000
0000
0100
0000
0010
0000
0001
0000
0000
0001
,
0010
0000
0000
0010
0100
0000
0010
0000
0100
0000
1000
0000
0010
0000
0100
0000
,
0001
0000
0100
0000
0010
1000
0010
0000
1000
0000
0010
0000
0100
0000
0000
0000
,
0001
0000
0100
0000
0010
0000
1000
0100
,
0010
0001
0010
0001
0010
0000
0100
0000
1000
0000
0000
0000
0010
0100
0010
0100
,
0010
0000
0100
0000
0010
0000
1000
0100
,
0010
0001
1000
0000
1001
0000
1000
0010
,
0100
0000
0001
0000
1000
0000
0100
1000
,
0001
1000
0001
1000
0001
0000
1000
0000
0010
0000
0000
0000
0100
0000
0001
0000
,
1000
0000
0000
0100
0000
0000
0010
0000
0000
0001
0010
0100
,
1000
0000
0100
0000
0010
0000
0001
0000
0000
0000
0000
0000
1001
0000
0000
0000
0000
0000
1000
0000
0000
0001
0000
0000
,
0100
0010
1000
0100
0010
0010
0001
0100
,
0010
1000
0100
0010
0001
0001
0100
0010
,
1000
0100
0010
0001
0010
0010
0100
1000
,
0010
0100
0001
0100
0010
0010
0100
0001
,
1000
0100
0010
0001
1000
1000
0001
0010
,
0100
1000
0010
0100
0100
0100
0001
1000
,
0100
0000
0000
0010
0000
0000
0001
0000
0000
1000
0000
0000
1000
0000
0000
1000
0000
0000
0010
0000
1000
0000
0001
0000
,
0010
0001
1000
0010
0000
0000
2002
0000
0000
0010
0000
0000
,
3003
0000
0000
0000
;

//---------------dance-single - Renard----------------
#NOTES:
     dance-single:
     Renard:
     Medium:
     6:
     0.462,0.506,0.566,0.000,0.000:
0000
0000
0000
0000
,
0000
0000
0000
0000
,
0000
0000
0000
0000
,
0000
0000
0000
0000
,
0000
0000
0000
0000
,
1001
0000
0000
0100
0001
0000
0000
0010
,
0100
0100
1000
0010
0100
0001
1000
0000
,
1001
0000
0000
0010
1000
0000
0000
0001
,
0100
0100
0001
0001
1000
0100
0010
0001
,
1000
0000
0001
0100
0010
0000
1000
0010
,
0100
0000
0001
0100
0010
0000
1000
0010
,
0100
0000
0001
0010
0100
0000
1000
0100
,
0010
0001
0010
0100
1000
0000
1001
0000
,
1000
0000
0100
0010
0001
0000
0010
0100
,
1000
0000
0001
0100
0010
0000
1000
0010
,
0100
0000
0001
1000
0100
0000
0100
1000
,
0001
0000
0001
0100
0001
1000
0100
0000
,
1001
1010
0101
1100
,
0011
0101
1010
1001
,
1000
0001
0100
0010
1000
0100
0010
0001
,
1000
0000
1001
1010
,
0101
0011
0110
1100
,
1010
0000
0101
0000
1000
0001
0000
0100
,
0010
0000
1000
0100
0010
0000
0001
0000
,
0001
0000
1000
0010
0100
0001
0000
0001
,
0000
0001
0000
1000
0100
0000
1000
0000
,
0001
0000
0010
0100
1000
0001
0000
0100
,
0000
0001
1000
0000
0001
0000
1000
0000
,
0001
0000
0100
0001
0100
0001
0000
1000
,
0000
0100
0000
0010
0001
0000
1000
0000
,
0010
0000
1000
0010
1000
0010
0000
1000
,
0000
0001
0010
0000
0001
0000
1000
0000
,
1000
0000
0001
1000
0001
1000
0000
1001
,
0000
1001
0000
0000
1000
0000
0010
0000
,
0100
0000
0010
0100
0010
0100
0000
0110
,
0000
0110
0000
0100
0010
0000
1000
0000
,
1000
0000
0001
1000
0001
1000
0000
1001
,
0000
1010
0000
0101
0000
1000
0100
0000
,
0010
0000
0001
0010
0100
1000
0000
1001
,
0000
0110
0000
1000
0001
0000
1001
0000
,
1000
0000
0010
0000
0000
0000
0000
0101
,
0000
0011
0010
0000
0010
0000
0110
0000
,
1010
0000
1001
0000
0000
0000
0000
1010
,
0000
0110
0010
0000
0101
0000
1001
0000
,
1100
0000
0110
0000
0000
0000
0000
0011
,
0000
0110
0010
0000
0110
0000
1100
0000
,
1010
0101
1001
1000
,
1000
0100
1001
0001
,
0001
0100
0100
0010
,
1000
0000
0001
0000
0100
0001
0100
0000
,
0001
1000
0100
0010
,
0001
0000
1000
0000
0010
0100
0010
0000
,
1000
0001
0100
0000
0001
1000
0100
0000
,
0010
0001
0010
0000
0100
1000
0010
0000
,
0100
0001
1000
0101
,
1010
1100
0110
1001
;

//---------------dance-single - Renard----------------
#NOTES:
     dance-single:
     Renard:
     Easy:
     3:
     0.296,0.268,0.011,0.000,0.000: // measure 1
0000
0000
0000
0000
,  // measure 2
0000
0000
0000
0000
,  // measure 3
0000
0000
0000
0000
,  // measure 4
0000
0000
0000
0000
,  // measure 5
0000
0000
0000
0000
,  // measure 6
0100
0000
0100
0000
,  // measure 7
0001
1000
0001
0100
,  // measure 8
0100
0000
0001
0000
,  // measure 9
0100
0100
0100
0001
,  // measure 10
0100
0100
0001
0010
,  // measure 11
0001
0100
0001
0010
,  // measure 12
0001
0100
0001
0010
,  // measure 13
0001
0100
1000
0100
,  // measure 14
0010
1000
0100
0001
,  // measure 15
1000
0100
0001
0010
,  // measure 16
0001
0100
1000
1000
,  // measure 17
0100
0100
0100
1000
,  // measure 18
0100
0001
0100
1000
,  // measure 19
0100
0100
0001
0100
,  // measure 20
0010
0100
0001
0001
,  // measure 21
0100
0000
0100
0001
,  // measure 22
0100
0100
0001
1000
,  // measure 23
0001
0100
0010
0100
,  // measure 24
0001
0010
0001
0100
,  // measure 25
0100
0010
0001
0100
,  // measure 26
0100
0100
1000
0010
,  // measure 27
0100
0001
1000
0100
,  // measure 28
1000
0100
0100
0010
,  // measure 29
0100
1000
0100
0100
,  // measure 30
0010
1000
0100
0010
,  // measure 31
0001
0010
0001
0001
,  // measure 32
0010
0100
0100
0010
,  // measure 33
0010
0100
0100
0010
,  // measure 34
0100
0100
0010
0001
,  // measure 35
1000
0001
0001
1000
,  // measure 36
0001
0001
0001
0010
,  // measure 37
0010
0100
0100
0010
,  // measure 38
0100
0001
0100
1000
,  // measure 39
0001
0100
0001
0010
,  // measure 40
0100
0001
0100
0100
,  // measure 41
0010
0001
0000
0000
,  // measure 42
0100
0100
0001
0001
,  // measure 43
0001
0100
0000
0000
,  // measure 44
0001
0001
0100
0100
,  // measure 45
1000
0001
0000
0000
,  // measure 46
0100
0001
0001
1000
,  // measure 47
0001
0100
0100
0010
,  // measure 48
0010
1000
0100
0100
,  // measure 49
0100
1000
1000
0001
,  // measure 50
0010
0100
1000
0100
,  // measure 51
0100
0010
1000
0001
,  // measure 52
0100
0010
0001
0001
,  // measure 53
0010
0100
0100
1000
,  // measure 54
0001
0100
1000
0001
,  // measure 55
1000
0100
0010
0100
,  // measure 56
0001
1000
0001
0110
;
