#TITLE:Rhythm Bandits;
#SUBTITLE:;
#ARTIST:Junior Senior;
#GENRE:Retro;
#TITLETRANSLIT:;
#SUBTITLETRANSLIT:;
#ARTISTTRANSLIT:;
#CREDIT:;
#BANNER:bandits.png;
#BACKGROUND:bandits-bg.png;
#LYRICSPATH:;
#CDTITLE:;
#MUSIC:bandits.ogg;
#OFFSET:-0.000;
#SAMPLESTART:10.027;
#SAMPLELENGTH:14.000;
#SELECTABLE:YES;
#BPMS:0.000=180.000;
#STOPS:;
#BGCHANGES:;

//---------------dance-single - BlueChaos----------------
#NOTES:
     dance-single:
     BlueChaos:
     Challenge:
     10:
     0.793,0.992,0.507,0.060,0.263:
0000
0000
0000
0000
,
0000
0000
0000
0000
,
0000
0000
0000
0000
,
0000
0000
0000
0000
,
1000
0100
1100
0000
,
0001
0100
0101
0000
,
1000
0010
1010
0000
,
0001
0010
0011
0000
,
1001
0000
0110
0000
1001
0000
0001
0100
,
0010
1000
0100
0010
0001
0100
0010
1000
,
1010
0000
0011
0000
1010
0000
0010
1000
,
0100
1000
0001
0100
0010
1000
0001
0100
,
0101
0000
1010
0000
0101
0000
0001
1000
,
0001
0100
0010
1000
0100
0010
0100
0010
,
0001
1000
0001
0000
1000
0000
0001
0000
0100
0001
0100
0000
0010
0000
1000
0000
,
0001
1000
0001
0000
1000
0000
0100
0000
0010
0001
0010
0000
0001
0000
0100
0000
,
1001
0000
0001
0100
0000
0010
1000
0100
,
0010
0000
0010
0001
0000
0001
0100
1000
,
0100
0000
0100
0010
0000
0010
1000
0100
,
0001
0000
0001
0100
0000
0100
1000
0010
,
0100
0000
0001
0001
0000
1000
1001
0000
,
0001
0010
0100
1000
0000
1000
0100
0000
,
0100
1000
0001
0101
0000
1100
0000
0100
,
1000
0010
1000
0010
1000
0000
0010
0000
0100
0010
0100
0010
0100
0000
0010
0000
,
1000
0100
1000
0010
0000
0010
0110
0000
,
0100
0001
0010
0001
0000
1000
1001
0000
,
0001
0100
0010
1010
0000
1100
0000
1000
,
0001
1000
0001
1000
0001
0000
0010
0000
0001
1000
0001
1000
0001
0000
1000
0000
,
0010
0000
0010
0100
0000
0010
1000
0000
,
0001
0100
0001
0100
0001
0000
1000
0000
0001
0100
0001
0100
0001
0000
1000
0000
,
1001
0000
1100
0000
1010
0010
1000
0100
,
0001
0100
1000
0010
0100
0001
1000
0010
,
0110
0000
0101
0000
1100
0000
1000
0100
,
0010
0001
0100
1000
0100
0010
1000
0100
,
1100
0000
0011
0000
0101
0100
0010
1000
,
0100
0001
0100
0010
0001
0100
1000
0100
,
0110
0000
1010
0000
0101
0001
1000
0100
,
0001
0100
1000
0010
0100
1000
0100
0001
,
0101
0000
1010
0000
1100
0000
1000
0010
,
0001
0010
1000
0100
0010
0001
0100
0001
,
0101
0000
1100
0000
0011
0000
0001
0010
,
1000
0010
0100
1000
0001
0010
1000
0010
,
0011
0000
1001
0000
1010
0000
1000
0010
,
0001
0010
0100
0001
0010
0000
0000
0000
,
0001
1000
0001
0000
1000
0000
0001
0000
0100
0001
0100
0000
0001
0000
0100
0000
,
0010
0100
0010
0000
0100
0000
0010
0000
1000
0010
1000
0000
0100
0000
0010
0000
,
0011
0000
0001
0100
0000
0100
1000
0100
,
0010
0000
0010
1000
0000
1000
0100
0001
,
0100
0000
0100
0010
0000
0010
0001
0100
,
1000
0000
1000
0100
0000
0100
0001
0010
,
1000
0000
0000
0011
0000
0000
0101
0000
,
0001
0100
0001
1000
0000
1000
0010
0000
,
0010
0100
0001
0101
0000
1100
0000
0011
,
0001
0010
0001
0010
0001
0000
0100
0000
0010
1000
0010
1000
0010
0000
1000
0000
,
0100
0000
0100
0010
0000
0010
0001
1000
,
0100
0000
0100
0010
0000
0010
0001
0100
,
0010
0000
0010
1000
0000
1000
0001
0010
,
0100
1000
0100
1000
0100
0000
1000
0000
0001
1000
0001
1000
0001
0000
1000
0000
,
0001
0100
0001
0101
0000
1010
0000
0010
,
0100
0001
0100
0001
0100
0000
0001
0000
1000
0100
1000
0100
1000
0000
0000
0000
,
0100
0000
1000
0020
0000
0031
0010
1000
,
0100
0000
0100
0020
0000
0031
0100
0010
,
0001
0000
0001
0020
0000
1030
0100
0001
,
0100
0000
0100
0020
0000
0031
1000
0100
,
0001
0000
0001
0200
0000
1300
0010
0001
,
0010
0000
0010
2000
0000
3001
0010
1000
,
0010
0001
0010
0000
0001
0000
0100
0000
0001
0100
0001
0000
0100
0000
0010
0000
,
1000
0010
1000
0000
0100
0000
0010
0000
0001
0010
0001
0000
0100
0000
0010
0000
,
1000
0001
1000
0000
0001
0000
0010
0000
0001
0100
0001
0000
0100
0000
0010
0000
,
0100
0010
0100
0000
0001
0000
1000
0000
0100
1000
0100
0000
1000
0000
0001
0000
,
0100
0001
0100
0000
0001
0000
1000
0000
0100
1000
0100
0000
0010
0000
0001
0000
,
0010
0100
1000
0000
0100
0000
0010
0000
0100
0010
0001
0000
0100
0000
0010
0000
,
0100
0010
1000
0000
0010
0000
0100
0000
0001
0010
0100
0000
1000
0000
0010
0000
,
1000
0010
1000
0010
0100
0010
0100
0001
0100
0001
0100
0010
0100
0010
1000
0000
,
1001
0000
0000
0000
;

//---------------dance-single - BlueChaos----------------
#NOTES:
     dance-single:
     BlueChaos:
     Hard:
     7:
     0.630,0.662,0.318,0.368,0.000:
0000
0000
0000
0000
,
0000
0000
0000
0000
,
0000
0000
0000
0000
,
0000
0000
0000
0000
,
1000
0001
0001
0000
,
0000
0000
0000
0000
,
0001
1000
1000
0000
,
0000
0000
0000
0000
0000
0000
0001
1000
,
1001
0000
1001
0000
1001
0000
0001
1000
,
0001
1000
0001
0010
0100
0000
1000
0100
,
1100
0000
1100
0000
1100
0000
1000
0100
,
0010
0001
0100
0010
1000
0000
1000
0001
,
0101
0000
0101
0000
0101
0000
0001
1000
,
0010
1000
0100
1000
0001
0000
1000
0010
,
2000
0010
0000
3010
0200
0001
0000
0301
,
0020
0001
0000
0031
1000
0020
1000
0000
,
1030
0000
1000
0010
0000
0010
1000
0010
,
1000
0000
1000
0001
0000
0001
0010
0001
,
0010
0000
0010
0001
0000
0001
1000
0001
,
1000
0000
0001
0100
0000
0000
0000
0000
,
0000
0000
0002
2000
0000
3003
1001
0000
,
0000
0000
2000
0020
0000
3030
1010
0000
,
0000
0000
2000
0100
0000
0100
0000
3100
,
1000
0010
0100
0010
1000
0001
0010
0001
,
1000
0000
0002
2000
0000
3003
0101
0000
,
0000
0000
2000
0002
0000
3003
1100
0000
,
0000
0000
2000
0010
0000
0010
0000
3010
,
0100
0001
0010
0100
1000
0001
0100
0001
,
1000
0000
0002
0100
0000
0100
0000
0103
,
0001
1000
0100
0010
0001
1000
0010
0100
,
0110
0000
0110
0000
0110
0000
0010
0100
,
0001
1000
0100
0010
0001
0000
1000
0001
,
0101
0000
0101
0000
0101
0000
0001
0100
,
0010
1000
0100
1000
0010
0000
1000
0010
,
1010
0000
1010
0000
1010
0000
1000
0100
,
0010
0100
1000
0001
1000
0000
0001
1000
,
1001
0000
1001
0000
1001
0000
0001
1000
,
0100
1000
0010
0100
0001
0000
0100
0001
,
0101
0000
0101
0000
0101
0000
0001
0100
,
0010
1000
0000
1000
0100
0000
0100
1000
,
0020
0000
1000
0000
0130
0000
0100
0001
,
0010
0001
0000
0001
0100
0000
0001
0100
,
0002
0000
1000
0000
0103
0000
0001
1000
,
0100
0010
0000
0100
1000
0000
0000
0000
,
2000
0100
0000
3100
0020
0001
0000
0031
,
2000
0010
0000
3010
0200
0001
0000
0000
,
0301
0000
0001
0100
0000
0010
0000
1000
,
0100
0000
1000
0010
0000
0100
0000
0001
,
0010
0000
0001
0100
0000
0001
0000
0100
,
0010
0000
1000
0100
0000
0000
0000
0000
,
1001
0000
0000
0101
0000
0000
1001
0000
,
0000
0000
0001
1000
0000
0000
1000
0000
,
0000
0100
2000
0100
0000
0010
0000
3001
,
0100
0001
1000
0100
0010
0100
1000
0001
,
0100
0000
0001
0100
0000
0000
0010
0000
,
0000
0000
1000
0100
0000
0000
0010
0000
,
0000
0000
0001
0200
0000
0010
0000
0310
,
1000
0100
0010
0100
1000
0001
0100
0001
,
0100
0000
0001
0010
0000
0100
0000
1000
,
0001
0100
0001
0010
0100
1000
0001
0100
,
0001
0000
0001
0100
0000
0001
0100
0001
,
0100
0000
0001
2000
0000
3001
1000
0001
,
1000
0000
0001
1000
0000
1000
0001
1000
,
0001
0000
0001
2000
0000
3100
1000
0100
,
1000
0000
1000
0100
0000
0100
1000
0100
,
1000
0000
1000
0100
0000
0100
1000
0100
,
0020
0001
0000
0031
0200
0010
0000
0310
,
0200
0001
0000
0301
2000
0100
0000
3100
,
0020
0100
0000
0130
2000
0001
0000
3001
,
0200
0010
0000
0310
2000
0100
0000
3100
,
0020
0001
0000
0031
0200
0001
0000
0301
,
0020
0100
0000
0130
2000
0001
0000
3001
,
0100
0010
1000
0100
0010
0001
0010
0100
,
1000
0001
1000
0010
0100
0001
0010
0100
,
1001
0000
0000
0000
;

//---------------dance-single - BlueChaos----------------
#NOTES:
     dance-single:
     BlueChaos:
     Easy:
     3:
     0.281,0.331,0.268,0.288,0.000:
0000
0000
0000
0000
,
0000
0000
0000
0000
,
0000
0000
0000
0000
,
0000
0000
0000
0000
,
2000
0000
0000
0000
,
0000
0000
0000
0000
,
3002
0000
0000
0000
,
0000
0000
0000
0000
,
0103
0100
0100
0000
,
0001
0000
1000
0000
,
0010
0010
0010
0000
,
0100
0000
0001
0000
,
0010
0010
0010
0000
,
0100
0000
1000
0000
,
0002
0000
2003
0000
,
3002
0000
2003
0000
,
3001
0000
1000
0000
,
0001
0000
0100
0000
,
1001
0000
0000
0000
,
1001
0000
0000
0000
,
0000
1000
0000
1100
,
0000
0001
0000
0101
,
0000
2002
0000
0000
,
3003
0110
0000
1001
,
0000
1000
0000
1010
,
0000
0001
0000
0011
,
0000
2002
0000
0000
,
3003
0110
0000
1001
,
0000
2002
0000
0000
,
3003
0100
0001
1000
,
0100
0100
0100
0000
,
0010
0000
0001
0000
,
1000
1000
1000
0000
,
0010
0000
0100
0000
,
0010
0010
0010
0000
,
1000
0000
0100
0000
,
1000
1000
1000
0000
,
0010
0000
0100
0000
,
0001
0001
0001
0000
,
1000
0000
0010
0000
,
0100
0100
0100
0000
,
0010
0000
1000
0000
,
0001
0001
0001
0000
,
1000
0000
0001
0000
,
0020
0000
0032
0000
,
2003
0000
3020
0000
,
0130
0101
0000
0001
,
1000
0000
0001
0011
,
0000
1000
0010
0000
,
2002
0000
3003
0000
,
0110
0000
0000
1001
,
0000
2000
3000
1100
,
0000
0002
0000
0003
,
0101
0110
0000
1001
,
0000
2000
3000
1100
,
0000
0002
0003
0101
,
0000
0001
0000
0100
,
2002
0000
0000
3003
,
0000
0010
0000
0100
,
2002
0000
0000
3003
,
2000
0000
0001
0000
,
0001
0000
3001
0000
,
0002
0000
0100
0000
,
0100
0000
0103
0000
,
0020
0000
1000
0000
,
1000
0000
1030
0000
,
1000
0000
1000
0000
,
1000
0000
1000
0000
,
0010
0000
0010
0000
,
0010
0000
0010
0000
,
0100
0000
0100
0000
,
0100
0000
0100
0000
,
0001
0000
0001
0000
,
0001
1000
0001
1000
,
1001
0000
0000
0000
;

//---------------dance-single - BlueChaos----------------
#NOTES:
     dance-single:
     BlueChaos:
     Medium:
     6:
     0.481,0.551,0.258,0.368,0.000:
0000
0000
0000
0000
,
0000
0000
0000
0000
,
0000
0000
0000
0000
,
0000
0000
0000
0000
,
2000
0001
0002
0000
,
0000
0000
3003
0000
,
0002
1000
2000
0000
,
0000
0000
3003
0000
,
1001
0000
0010
0000
1001
0000
1000
0001
,
1000
0000
0001
0100
0000
0100
0010
1000
,
1100
0000
0010
0000
1100
0000
1000
0100
,
0010
0000
0010
0001
0000
0001
0100
0010
,
1010
0000
0100
0000
1010
0000
0010
0100
,
0010
0000
0100
0001
0000
0001
0010
0001
,
2000
0100
0000
0000
3200
0010
0000
0000
,
0320
0001
0000
0000
0032
1000
0000
0000
,
1003
0000
0001
1000
0000
0001
0000
1000
,
0001
1000
1000
0100
0100
0010
0010
0001
,
1002
0000
0013
0000
0000
0000
0000
2001
,
0000
3010
0000
0000
0000
0000
0000
0000
,
0000
0000
0001
0100
0000
0001
0100
0000
,
0000
0000
0001
1000
0000
0001
1000
0000
,
0000
0000
0010
1000
0000
0010
0000
1000
,
0000
0001
0100
0001
0000
0000
0100
0001
,
0000
0000
1000
0100
0000
1000
0100
0000
,
0000
0000
1000
0010
0000
1000
0010
0000
,
0000
0000
1000
0100
0000
0010
0000
0001
,
0000
0000
1000
0001
0000
1000
0001
0000
,
0001
0100
0010
1000
0000
0100
0000
0010
,
0000
0000
0010
0001
0000
0001
1000
0000
,
1001
0000
0100
0000
1001
0000
0001
0100
,
0010
0000
0010
1000
0000
1000
0100
0010
,
0011
0000
1000
0000
0011
0000
0001
1000
,
0001
0000
1000
0010
0000
0010
0100
0001
,
0102
0000
0100
0000
0103
0000
0100
0010
,
1000
0000
0010
0100
0000
0100
0001
0010
,
0110
0000
0001
0000
0110
0000
0010
0100
,
1000
0000
1000
0010
0000
0010
0100
0001
,
1002
0000
1000
0000
1003
0000
0001
1000
,
0100
0000
1000
0010
0000
0010
1000
0001
,
0101
0000
0010
0000
0101
0000
0010
0001
,
0100
0000
0001
0100
0000
0100
0001
1000
,
2100
0000
0100
0000
3100
0000
1000
0100
,
0010
0001
0000
0001
1000
0000
0000
0000
,
0002
0100
0000
0000
0203
0010
0000
0000
,
0320
1000
0000
0000
2030
0100
0000
0000
,
3100
0000
1000
1000
0000
0001
0000
0100
,
0000
0001
0001
0100
0100
0010
0010
1000
,
1001
0000
1001
0000
0000
0000
0000
2001
,
0000
0010
3000
0000
0000
0000
0000
0000
,
1000
0000
0000
0100
0000
0000
0010
0000
,
0000
0000
0001
0100
0000
0000
0010
0000
,
0000
0100
0001
0100
0000
0100
0000
2002
,
0000
0000
0000
0000
0000
3003
0000
0000
,
0000
0000
1000
0100
0000
0000
1000
0000
,
0000
0000
1000
0010
0000
0000
0100
0000
,
0000
0000
0001
1000
0000
0001
0000
2002
,
0000
0000
0000
3003
,
0000
0000
1000
0001
0000
0100
0000
2002
,
0000
0000
0000
3003
,
2000
0000
3200
0000
,
0320
0000
0032
0000
,
2003
0000
3002
0000
,
0203
0000
0320
0000
,
2030
0000
3002
0000
,
0203
0000
0302
0000
,
1003
0100
0010
0001
,
1000
0001
1000
0001
,
1000
0010
1000
0010
,
1000
0010
0100
0010
,
0100
0001
0100
0001
,
1000
0001
1000
0001
,
0010
0001
1000
0010
,
0200
0001
0010
0301
,
1001
0000
0000
0000
;
