#TITLE:Ready for War;
#SUBTITLE:;
#ARTIST:Gammer;
#GENRE:Happy Nustyle;
#TITLETRANSLIT:;
#SUBTITLETRANSLIT:;
#ARTISTTRANSLIT:;
#CREDIT:;
#BANNER:war.png;
#BACKGROUND:war-bg.png;
#LYRICSPATH:;
#CDTITLE:;
#MUSIC:war.ogg;
#OFFSET:0.000;
#SAMPLESTART:60.960;
#SAMPLELENGTH:12.000;
#SELECTABLE:YES;
#BPMS:0.000=173.000;
#STOPS:240.000=2.081
;
#BGCHANGES:;

//---------------dance-single - Renard----------------
#NOTES:
     dance-single:
     Renard:
     Challenge:
     9:
     0.708,0.831,0.529,0.091,1.000:
0000
0000
0000
0000
,
0000
0000
0000
0000
,
1001
0000
0000
0000
,
0000
0000
0000
0000
,
0000
0000
0000
0000
,
0000
0000
0000
1002
,
0103
0000
0010
0000
0000
1000
0100
0000
0100
1000
0000
0000
,
0001
0000
0100
0000
0001
0000
1000
0100
0010
0001
0000
0000
,
1000
0000
1000
0010
0000
0010
0100
0000
0100
0001
0000
0001
,
1000
0000
0000
0001
0000
0001
0100
0000
0100
0010
0000
0000
,
0110
0000
0000
0001
0100
0001
0100
0001
0100
0001
0100
0001
,
1000
0010
1000
0010
1000
0010
1000
0010
1000
0010
0000
0000
,
1001
0000
0000
1000
0001
1000
0001
1000
0001
1000
0001
1000
,
0010
0100
0010
0100
0010
0100
0010
0100
0010
0100
0000
0000
,
1010
0000
0000
1000
0100
1000
0100
1000
0100
1000
0100
1000
,
0100
0010
0001
0010
0100
1000
0001
0100
0001
1000
0000
0000
,
2002
0000
0020
3033
,
0000
0000
0000
0000
0000
0000
0000
0000
0000
1000
0001
1000
,
0001
0000
0100
0000
0000
0010
1000
0000
0100
0010
0000
0000
,
0011
0000
0110
0000
1100
0000
0010
0001
0010
0100
0000
0000
,
1000
0000
0010
0000
0000
0100
0001
0000
0100
0010
0000
0000
,
1010
0000
0101
0000
1001
0000
1000
0100
0010
0001
0000
0000
,
1000
0000
0010
0000
0000
0100
0001
0000
0010
0100
0000
0000
,
1100
0000
0110
0000
0011
0000
0100
1000
0100
0010
0000
0000
,
0001
0000
0100
0000
0000
0010
1000
0000
0010
0100
0000
0000
,
0001
0000
0001
0100
0000
0100
0001
1000
0100
0020
0000
0000
,
0130
1000
0000
0001
0000
0100
0000
0010
0000
1000
0000
0100
,
0000
0010
0000
0001
0000
0010
0000
0100
0000
1000
0000
0001
,
0000
0100
0000
0010
0000
1000
0000
0100
0000
0001
0000
0100
,
0000
1000
0000
0010
0000
0100
0000
0001
0000
0010
0000
1000
,
0010
0001
0000
0100
0000
0010
0000
1000
0000
0001
0000
1000
,
0000
0100
0000
0010
0000
0100
0000
1000
0000
0001
0000
0000
,
2002
0000
0200
3303
,
0000
0000
0001
1000
0000
1000
0001
0000
0000
1000
0100
0010
,
0001
0000
0000
0000
,
0000
0000
0000
0000
,
1000
0000
0000
0001
0000
0100
0001
1000
0100
1000
0000
0001
,
0100
0000
0000
0010
0000
1000
0100
0000
0000
0010
0000
0001
,
0010
0000
0000
0100
0000
1000
0001
0100
0001
1000
0000
0100
,
1000
0000
0000
0001
0000
0100
0001
0000
0000
1000
0000
0000
,
0110
0000
0000
1000
0000
0001
0100
0001
1000
0100
0000
1000
,
0010
0000
0000
0100
0000
0001
0100
0000
0000
0010
0000
1000
,
0100
0010
0001
1000
0100
0010
0100
1000
0001
0010
0001
0100
,
0010
1000
0001
0100
0001
1000
0100
1000
0100
0010
0000
0000
,
1001
0000
1000
0010
0000
0010
0100
0001
0100
0010
0000
0010
,
1000
0000
0000
0001
0000
0100
0010
0000
0000
1000
0000
0000
,
1001
0000
0000
0220
0000
0000
1001
0330
0000
0010
0000
0010
,
0100
0000
0100
0001
0000
0000
1001
0000
0000
1010
0000
0000
,
0101
0000
0100
0010
0000
0010
1000
0000
0000
0100
0000
0010
,
0001
0000
0001
0010
0000
0000
1100
0000
0000
0011
0000
0000
,
1000
0000
0100
0010
0000
0100
1000
0001
0010
0001
0000
1000
,
0100
0000
0100
0010
0000
0010
0001
0000
0001
0010
0000
0000
,
1001
0000
1000
0001
0000
0001
1000
0100
0010
0001
0000
0001
,
1000
0000
1000
0001
0000
0001
0010
0100
1000
0001
0000
0000
,
1001
0000
0000
0100
0000
0000
1001
0000
0000
1000
0000
1000
,
0001
0000
0001
1000
0000
0000
1001
0000
0000
0110
0000
0000
,
1001
0000
0001
1000
0000
0000
1001
0000
1000
0001
0000
0000
,
0110
0000
0100
0010
0000
0000
0110
0000
0010
0100
0000
0000
,
0101
0110
1010
1100
,
0110
0000
0011
0000
1100
0000
0011
0000
1000
0100
0010
0001
,
0000
0000
0000
0000
0000
0000
1001
0000
1000
0001
0000
0001
,
0100
0010
1000
0100
0000
0100
0010
0000
0010
0001
0000
0001
,
0010
0000
0010
0100
0000
0000
1001
0000
1000
0001
0000
0001
,
1000
0100
0010
0001
0000
0001
0010
0000
0100
1000
0000
0001
,
0100
0000
0100
0010
0000
0000
1001
0000
0000
0110
0000
1000
,
0010
0100
0001
0010
0000
0100
1000
0000
1000
0001
0000
0001
,
0100
0000
0100
0010
0000
0000
1001
0000
0000
1010
0000
0000
,
0100
0001
0010
0100
0000
0000
0011
0000
0000
1100
0000
0000
,
0001
1000
0100
0010
0000
0010
0001
0000
0001
0010
0000
0010
,
0001
0010
0100
1000
0000
1000
0001
0000
0001
0100
0000
0100
,
0010
0000
0000
1001
0000
0000
1010
0000
1000
0010
0000
0010
,
0100
0001
0100
0001
0000
0001
0100
0000
0100
0010
0000
0010
,
1000
0000
0000
0101
0000
0000
1010
0000
0000
0101
0000
0001
,
0100
0001
0100
0001
0000
0001
0100
0000
0100
0010
0000
0010
,
1000
0100
0010
0001
1000
0001
1000
0000
0100
0000
0000
0011
,
0000
0000
0000
0000
0000
0000
1000
0000
1000
0001
0000
1001
;

//---------------dance-single - Renard----------------
#NOTES:
     dance-single:
     Renard:
     Hard:
     9:
     0.597,0.658,0.593,0.100,0.525:
0000
0000
0000
0000
,
0000
0000
0000
0000
,
1001
0000
0000
0000
,
0000
0000
0000
0000
,
0200
0000
0020
0000
,
0330
0000
0100
0010
0000
0010
1000
0000
0000
0001
0000
0000
,
1001
0000
0000
0100
0000
0000
0010
0000
0010
1000
0000
0000
,
0001
0100
0002
1003
,
1010
0000
0000
0100
0000
0000
1001
0000
0000
0100
0000
0100
,
0001
0000
0000
0010
0000
0010
0200
0000
0000
1300
0000
0000
,
1000
0000
1000
0100
0000
0100
1000
0000
1000
0100
0000
0100
,
0010
0000
0010
0001
0000
0001
0010
0000
0010
0001
0000
0000
,
1000
0000
1000
0001
0000
0001
1000
0000
1000
0001
0000
0000
,
0100
0000
0100
0001
0000
0001
1000
0000
1000
0100
0000
0000
,
1001
0000
0000
1010
0000
0000
0101
0000
0100
0010
0000
0000
,
0100
0000
0100
0001
0000
0001
1000
0000
1000
0001
1000
0001
,
1000
0000
0000
0000
,
0000
0000
0001
1000
0000
1000
0001
0000
0000
1001
0000
0000
,
1010
0000
1000
0010
0000
0010
0100
0000
0100
0001
0000
0000
,
0101
0000
0000
1010
0000
0000
0100
0000
0100
0001
0000
0000
,
0011
0000
0000
1100
0000
0000
0001
0000
0001
1000
0000
1000
,
0001
0100
0010
1002
,
0103
0000
0000
0001
0000
0001
0100
0000
0000
1010
0000
0000
,
0101
0000
0000
1000
0000
1000
0100
0000
0100
0010
0000
0000
,
0011
0000
0000
1100
0000
0000
0001
0000
0001
1000
0000
0000
,
0110
0000
0000
1001
0000
0000
1000
0001
1000
0001
0000
0000
,
1001
0100
1010
0100
,
0001
0000
0001
0010
0000
0010
0001
0000
0001
1000
0000
0000
,
1001
0000
0000
0010
0000
0000
0101
0000
0000
0010
0000
0010
,
1000
0000
1000
0001
0000
0001
2000
0000
0000
3001
0000
0000
,
1001
0010
0101
0010
,
1000
0000
1000
0100
0000
0100
1000
0000
1000
0001
0000
0000
,
0200
0301
1001
0000
,
0000
0000
1000
0001
0000
0001
0100
0000
0000
0100
0000
0000
,
1001
0000
0000
0000
,
0000
0000
0000
0000
,
1000
0000
0000
0001
0000
0000
1000
0000
1000
0100
0000
0100
,
1000
0000
0000
0001
0000
0000
0100
0000
0000
0001
0000
1000
,
0100
0000
0000
0010
0000
0000
0001
0000
0001
0010
0000
0000
,
0100
0000
0000
1000
0000
0000
0001
0000
0000
0100
0000
0100
,
0001
0000
0000
1000
0000
0000
0100
0000
0000
0010
0000
0010
,
0100
0000
0000
1000
0000
0000
0001
0000
0000
0100
0000
0100
,
0010
0000
0010
0100
0000
0100
0001
0000
0001
1000
0000
1000
,
0100
0000
0100
0010
0000
0010
0001
0010
0001
0010
0000
0010
,
0001
0000
0001
0010
0000
0010
0001
0000
0000
0100
0000
0010
,
1000
0000
1000
0100
0000
0100
0010
0000
0000
0100
0000
0000
,
2002
0000
0000
0000
0000
0000
0010
0000
0000
3003
0000
0000
1001
0000
0000
0000
0000
0000
1000
0000
0000
0000
1000
0000
,
0001
0000
0001
1000
0000
1000
0001
0000
0000
1001
0000
0000
,
1000
0000
1000
0010
0000
0010
0100
0000
0000
0001
0000
0000
,
1000
0000
1000
0100
0000
0100
0010
0000
0010
0001
0000
0000
,
1001
0000
0000
0100
0000
0100
0001
0000
0000
0100
0000
0000
,
0001
0000
0001
0100
0000
0100
1000
0000
1000
0100
0000
0100
,
0010
0000
0000
1000
0000
0000
0001
0000
0001
0100
0000
0100
,
0010
0000
0000
1000
0000
0000
0001
0000
0001
0100
0000
0000
,
2002
0000
0000
0000
0000
0000
0010
0000
0000
3003
0000
0000
1001
0000
0000
0000
0000
0000
0100
0000
0000
0000
0100
0000
,
0010
1000
1001
1010
,
1100
0011
1010
0011
,
0110
0011
1001
0011
,
1000
0000
0010
1000
0000
0001
0100
0000
0010
0100
0000
0000
,
1001
0000
1010
0000
1001
0000
0101
0000
0001
1000
0001
1000
,
0000
0000
1100
0001
,
1010
0000
0000
0001
0000
0000
1000
0000
1000
0001
0000
0001
,
0100
0010
0101
1000
,
0011
0000
0000
0100
0000
0000
0001
0000
0001
0100
0000
0100
,
0010
1001
1010
0100
,
1001
0000
0000
0010
0000
0000
0001
0000
0000
0100
0000
0100
,
0010
0000
0000
1000
0000
1000
0100
0000
0100
0010
0000
0010
,
0100
0000
0100
1000
0000
1000
0001
0000
0000
0110
0000
0000
,
1001
1010
0011
1000
,
0101
0000
0000
1000
0000
0000
0001
0000
0001
1000
0000
1000
,
0010
0100
1010
0001
,
1100
0000
0000
0010
0000
0000
1000
0000
1000
0010
0000
0010
,
0100
1001
0101
0010
,
1001
0000
0000
0100
0000
0000
1000
0000
0000
0010
0000
0010
,
0100
0000
0000
0001
0000
0001
0010
0000
0010
0000
0000
0001
,
0000
0000
0000
0000
0000
0000
1000
0000
0100
0010
0000
0001
;

//---------------dance-single - Renard----------------
#NOTES:
     dance-single:
     Renard:
     Medium:
     7:
     0.416,0.578,0.474,0.036,0.233:
0000
0000
0000
0000
,
0000
0000
0000
0000
,
1001
0000
0000
0000
,
0000
0000
0000
0000
,
0110
0000
1010
0000
,
0000
0000
0001
0100
0000
0100
0001
0000
0000
0000
0000
0000
,
0001
0000
1000
0000
0000
0100
0010
0000
0001
0010
0000
0000
,
0100
1000
0001
0100
,
0001
0001
1000
1000
,
0001
0100
0010
1000
,
0200
0000
0000
0000
,
0000
0000
0000
0000
,
0320
0000
0000
0000
,
0000
0000
0000
0000
,
0031
1001
1000
1001
,
1000
0001
1000
0001
1000
0001
1000
0001
1000
0001
0000
0000
,
1000
0000
0101
0000
,
0000
0000
0000
0000
,
1001
0000
1010
0000
,
0100
0001
0010
0110
,
0100
0000
1000
0000
,
0110
0100
1001
0100
,
1010
0100
0011
0100
,
1001
1010
0101
0011
,
1001
0100
1001
0010
,
1001
1100
0011
1001
,
1001
0000
1001
0000
,
0100
0000
0100
0001
0000
0000
1000
0000
0000
0000
0000
0000
,
1001
0000
1001
0000
,
0001
0000
1000
0001
0000
0000
1000
0000
0000
0001
0000
0000
,
0110
0000
0110
0000
,
1000
0000
1000
0010
0000
0000
0100
0000
0000
0001
0000
0000
,
2002
0000
0010
3003
,
0000
0000
0000
0000
,
1000
0000
0000
0000
,
0000
0000
0000
0000
,
1000
0001
0100
0010
,
1000
0000
0000
0100
0000
1000
0100
0000
0000
1000
0000
0100
,
1000
0100
0010
0001
,
0100
0000
0000
0001
0000
0100
0001
0000
0000
0100
0000
0001
,
0100
0010
1000
0100
,
0010
0000
0000
0001
0000
0010
0001
0000
0000
0010
0000
0001
,
0010
0100
1000
0010
,
0100
0000
0000
0001
0000
0100
0001
0000
0000
0100
0000
0001
,
0100
0000
0000
0010
0000
0000
1000
0000
0100
1000
0000
0100
,
1000
0000
0000
0100
0000
1000
0100
0000
0000
1000
0000
0100
,
0010
0000
0000
0001
0000
0000
0100
0000
0000
0001
0000
0100
,
0001
0000
0000
0100
0000
0001
0100
0000
0000
0001
0000
0100
,
0010
0000
0000
1000
0000
0000
0010
0000
1000
0010
0000
1000
,
0100
0000
0000
1000
0000
0100
1000
0000
0000
0100
0000
1000
,
0100
0000
0000
0010
0000
0000
0001
0000
0010
0001
0000
0010
,
0001
0000
0000
0100
0000
0001
0100
0000
0000
0001
0000
0100
,
0010
0000
0000
0000
,
0000
0000
0000
0000
,
1001
0000
0110
0000
,
0000
0000
1001
0110
,
1010
0000
0101
0000
,
0011
0000
1100
0000
,
0011
1100
1010
0101
,
1000
0000
0001
0000
0100
0000
0010
0000
1000
0000
0100
0000
,
0010
0000
1001
1000
,
0010
0000
0000
0100
0000
0000
0001
0000
0000
1000
0000
0100
,
1000
0000
0000
0100
0000
0010
0001
0000
0000
1000
0000
0000
,
0010
0000
0000
0100
0000
0000
0001
0000
0000
1000
0000
0100
,
1000
0000
0000
0001
0000
0010
0001
0000
0000
0100
0000
0000
,
0010
0000
0000
1000
0000
0000
0001
0000
0000
1000
0000
0100
,
1000
0000
0000
0001
0000
0010
0001
0000
0000
1000
0000
0000
,
0010
0000
0000
0100
0000
0000
0001
0000
0000
1000
0000
0010
,
1000
0001
1001
1100
,
0011
0000
0000
0000
0000
0000
0001
0000
0000
0100
0000
0001
,
1000
0000
1100
0011
,
0101
0000
0000
0000
0000
0000
0001
0000
0000
1000
0000
0010
,
1000
0001
0101
0000
,
1010
0000
0000
0000
0000
0000
1000
0000
0000
0100
0000
0010
,
0001
1000
1001
0000
;

//---------------dance-single - Renard----------------
#NOTES:
     dance-single:
     Renard:
     Easy:
     4:
     0.408,0.544,0.894,0.000,0.000: // measure 1
0000
0000
0000
0000
,  // measure 2
0000
0000
0000
0000
,  // measure 3
1001
0000
0000
0000
,  // measure 4
0000
0000
0000
0000
,  // measure 5
0110
0000
0101
0000
,  // measure 6
0000
1010
1010
0000
,  // measure 7
1000
0001
0110
1100
,  // measure 8
0010
0001
1000
0010
,  // measure 9
1000
1000
0001
0001
,  // measure 10
1000
0010
0100
0001
,  // measure 11
0010
0000
0000
0000
,  // measure 12
0000
0000
0000
0000
,  // measure 13
0100
0000
0000
0000
,  // measure 14
0000
0000
0000
0000
,  // measure 15
1000
1001
0001
1001
,  // measure 16
1001
1001
1001
1001
,  // measure 17
0001
0000
1010
0000
,  // measure 18
0000
0000
0000
0000
,  // measure 19
1001
0000
0101
0000
,  // measure 20
0010
1000
0100
0110
,  // measure 21
0010
0000
0001
0000
,  // measure 22
0110
0010
1001
0010
,  // measure 23
0101
0010
1100
0010
,  // measure 24
1001
0101
1010
1100
,  // measure 25
1001
0010
1001
0100
,  // measure 26
1001
0011
1100
1001
,  // measure 27
1001
0000
1001
0000
,  // measure 28
0010
1010
0001
0000
,  // measure 29
1001
0000
1001
0000
,  // measure 30
1000
1001
0001
1000
,  // measure 31
0110
0000
0110
0000
,  // measure 32
0001
0101
0010
1000
,  // measure 33
1001
0000
0100
0000
,  // measure 34
0000
0000
0000
0000
,  // measure 35
0001
0000
0000
0000
,  // measure 36
0000
0000
0000
0000
,  // measure 37
0001
1000
0010
0100
,  // measure 38
0001
0010
0011
0001
,  // measure 39
0011
0010
0100
1000
,  // measure 40
0010
1000
1010
0010
,  // measure 41
1010
0100
0001
0010
,  // measure 42
0100
1000
1100
0100
,  // measure 43
1100
0010
0001
0100
,  // measure 44
0010
1000
1010
0010
,  // measure 45
1010
0100
0001
0011
,  // measure 46
0011
0010
0011
0001
,  // measure 47
0110
1000
0010
1000
,  // measure 48
1010
0010
1010
1000
,  // measure 49
0110
0001
0100
0101
,  // measure 50
0011
0001
0011
0010
,  // measure 51
0011
0100
1000
1100
,  // measure 52
1100
0010
1010
1000
,  // measure 53
0110
0000
0000
0000
,  // measure 54
0000
0000
0000
0000
,  // measure 55
1001
0000
0110
0000
,  // measure 56
0000
0000
1001
0110
,  // measure 57
0101
0000
1010
0000
,  // measure 58
1100
0000
0011
0000
,  // measure 59
1100
0011
0101
1010
,  // measure 60
0001
1010
0100
0011
,  // measure 61
0100
0000
1001
0001
,  // measure 62
0100
0010
1000
0001
,  // measure 63
0011
0010
1100
0001
,  // measure 64
0100
0010
1000
0001
,  // measure 65
0011
1000
1100
0010
,  // measure 66
0100
0001
1000
0001
,  // measure 67
0011
1000
1100
0001
,  // measure 68
0100
0010
1000
0001
,  // measure 69
0101
1000
1001
0011
,  // measure 70
1100
0000
1000
0010
,  // measure 71
1001
0000
0011
1100
,  // measure 72
1010
0000
1000
0001
,  // measure 73
0101
1000
1010
0000
,  // measure 74
0101
0000
0001
0010
,  // measure 75
1100
0001
1001
0000
;
