#TITLE:Puttin' on the Ritz;
#SUBTITLE:;
#ARTIST:2PM;
#GENRE:Dance;
#TITLETRANSLIT:;
#SUBTITLETRANSLIT:;
#ARTISTTRANSLIT:;
#CREDIT:;
#BANNER:;
#BACKGROUND:;
#LYRICSPATH:;
#CDTITLE:;
#MUSIC:ritz.ogg;
#OFFSET:0.000;
#SAMPLESTART:15.980;
#SAMPLELENGTH:12.000;
#SELECTABLE:YES;
#BPMS:0.000=120.000;
#STOPS:;
#BGCHANGES:;

//---------------dance-single - Renard----------------
#NOTES:
     dance-single:
     Renard:
     Challenge:
     9:
     0.627,0.616,0.364,0.110,0.430:
0000
0000
0000
0000
,
0000
0000
0000
0000
,
0000
0000
0000
0000
,
0000
0000
0000
0000
,
1000
0000
0001
0100
0001
0000
1000
0000
0100
0000
0010
0001
0010
0001
0010
0001
,
0100
0000
0001
1000
0100
0000
1000
0000
0001
0000
1000
0001
1000
0001
1000
0001
,
1000
0000
0100
1000
0100
0000
1000
0000
0001
0000
0010
0001
0100
0001
0010
0001
,
0100
0000
0010
1000
0001
0000
1000
0001
0100
0000
0001
0000
1001
0000
0000
0000
,
1000
0000
0100
0000
0010
0000
0001
1000
0000
0001
0100
0000
0010
0000
1000
0000
,
0100
0000
0010
0000
0001
0100
0000
0010
1000
0000
0100
0000
0010
0000
0001
0000
,
1001
0000
1000
0000
1010
0000
0000
0000
1001
0000
0000
0000
0001
0010
0100
1000
,
1000
0100
0010
0001
0201
0000
0020
0300
,
1030
0000
0001
0000
1000
0000
0100
0010
0000
0001
0010
0000
0100
0000
1000
0000
,
0010
0000
0100
0000
0001
1000
0000
1000
0001
0000
0100
0000
0010
0000
1000
0000
,
1010
0000
1000
0000
1001
0000
0000
0000
0101
0000
0000
0000
1000
0010
0100
0001
,
0001
0100
0010
1000
2100
0000
0020
3000
,
1030
0010
0100
0001
0010
1000
0010
0100
,
1000
0000
0000
1000
0001
0000
0100
0000
0010
0000
1000
0000
0100
0000
0010
0000
,
0001
0000
0010
0000
0100
0000
1000
0000
0001
0000
0100
0001
0100
0000
0001
0000
,
1000
0000
0100
0000
1000
0000
0001
0000
1000
0000
1000
0001
0000
1001
0000
0000
,
1000
0000
0100
0000
0010
0000
0001
1000
0000
0100
0010
0000
0001
0000
1000
0000
,
0100
0000
0010
0000
0001
1000
0000
0100
0010
0000
0001
0000
1000
0000
0001
0000
,
1001
0000
0000
0000
1010
0000
0000
0000
0101
0000
0000
0000
1000
0100
0010
0001
,
0001
1000
0010
0100
0201
0000
0020
0300
,
1030
0000
0010
0000
0100
0000
0001
1000
0000
0010
0100
0000
0001
0000
1000
0000
,
0010
0000
0100
0000
0001
1000
0000
0010
0100
0000
0001
0000
1000
0000
0001
0000
,
1001
0000
1000
0000
0010
0000
0100
0000
0001
0000
0010
0000
0001
0100
0010
1000
,
1000
0010
0100
0001
2001
0000
0020
3000
,
0130
0001
0100
0010
1000
0010
0100
0001
,
1000
0000
0000
1000
0001
0000
0000
0001
0010
0000
0100
1000
0100
0000
1000
0000
,
0010
0000
0100
0001
0100
0000
0001
0000
0100
0000
0010
1000
0010
0000
0100
0000
,
0001
0000
1000
0000
0100
0000
0010
0000
0001
0000
0001
1000
0000
1001
0000
0000
,
1000
0000
0100
1000
0100
0000
0010
0001
0010
0000
0001
1000
0000
0000
0000
0000
,
0001
0000
0100
0001
0100
0000
0010
1000
0010
0000
1000
0001
0000
0000
0000
0000
,
1000
0000
0001
0100
0001
0000
1000
0100
1000
0000
1000
0001
0000
0000
0100
0000
,
0010
0000
1000
0010
1000
0000
0001
0100
0001
0000
0001
1000
0000
1000
0100
0000
,
1100
0100
0110
0000
0011
0001
0101
0100
,
0110
0000
0000
0000
1001
0000
0000
0001
1000
0000
0100
0000
0010
0001
0000
0000
,
1001
1000
1010
0010
0110
0000
0101
0000
,
0011
0000
0001
0010
0000
0010
0001
0000
0011
0000
0000
0000
0101
0000
0000
0000
,
2020
0000
0101
0030
0100
0100
3100
0000
,
1000
0000
0100
0010
0100
0010
0100
0000
0001
0000
0100
0010
0100
0010
0100
0000
,
1000
0000
0100
0010
0100
0010
0100
0000
0001
0000
0100
0000
1000
0000
0000
0000
,
1000
0000
0010
0100
0010
0100
0010
0000
0001
0000
0010
0100
0010
0100
0010
0000
,
1000
0000
0010
0100
0010
0100
0010
0000
0001
0000
0010
0000
1010
0000
0000
0000
;

//---------------dance-single - Renard----------------
#NOTES:
     dance-single:
     Renard:
     Hard:
     8:
     0.490,0.468,0.242,0.110,0.138:
0000
0000
0000
0000
,
0000
0000
0000
0000
,
0000
0000
0000
0000
,
0000
0000
0000
0000
,
1000
0000
1000
0001
0000
0000
1000
0000
0100
0000
0010
0000
0001
0000
0010
0000
,
0100
0000
0100
1000
0000
0000
0001
0000
0100
0000
0010
0000
1000
0000
0001
0000
,
1000
0000
1000
0001
0000
0000
1000
0000
0100
0000
1000
0000
0001
0000
0010
0000
,
0001
0000
0001
1000
0000
0000
0001
0000
1000
0000
0001
0000
1001
0000
0000
0000
,
0001
0100
0010
1000
0010
0001
0010
1000
,
1000
0010
0100
0001
0100
1000
0100
0001
,
0010
0000
0000
0000
0210
0000
0000
0000
1300
0000
0000
0000
0001
1000
0001
1000
,
0001
0000
2010
0000
0100
0100
3100
0000
,
1000
0010
0100
0001
0100
1000
0100
0001
,
0001
0100
0010
1000
0010
0001
0010
1000
,
0100
0000
0000
0000
0120
0000
0000
0000
0031
0000
0000
0000
1000
0001
1000
0001
,
1000
0102
0013
1001
,
1000
0100
0010
0001
0001
0100
0010
1000
,
1000
0000
0000
0001
0000
0000
1000
0000
0100
0000
1000
0000
0001
0000
0000
0000
,
1000
0010
0100
0001
0001
0010
0100
1000
,
1000
0000
0000
0001
0000
0000
0000
0000
1000
0000
1000
0100
0000
0100
0000
0000
,
1000
0010
0100
0001
0100
0010
1000
0100
,
0010
0001
0100
0010
1000
0001
0100
0001
,
1000
0000
0000
0000
1001
0000
0000
0000
0100
0000
0000
0000
0010
1000
0010
1000
,
0010
0000
0200
0001
0001
0000
0310
0000
,
0001
0100
0010
1000
0010
0100
0001
0010
,
0100
1000
0010
0100
0001
1000
0010
1000
,
0001
0000
0000
0000
1001
0000
0000
0000
0010
0000
0000
0000
0100
0001
0100
0001
,
0100
0000
0020
1000
1000
0000
0130
0000
,
1010
0000
0101
0000
0001
0010
0100
1000
,
0001
0000
0000
0001
0000
0000
1000
0000
0001
0000
0100
0000
0010
0000
0000
0000
,
1010
0000
0101
0000
1000
0010
0100
0001
,
1000
0000
0000
0001
0000
0000
0000
0000
1000
0000
1000
0001
0000
1000
0000
0000
,
0001
0000
0001
0000
0100
0000
0100
0000
0001
0000
1000
0100
0000
0000
0000
0000
,
1000
0000
1000
0000
0100
0000
0100
0000
1000
0000
0001
0100
0000
0000
0000
0000
,
0001
1000
0100
0010
0001
0010
0100
0000
,
1000
0100
1000
0001
0010
0001
1000
0000
,
0202
0000
0000
0000
1313
0000
0000
0000
0001
0000
0100
0000
0001
0100
0000
0000
,
1010
0000
1100
0000
0001
0010
0100
1000
,
0001
0001
0100
0100
0010
0000
1001
0000
,
1000
0000
1000
0100
0000
0100
1000
0000
0001
0000
0000
0000
0110
0000
0000
0000
,
1000
0110
0202
1313
,
0001
0100
0010
1000
0001
0100
0010
0000
,
1000
0010
0100
0001
1000
0010
0100
0000
,
0001
1000
0100
0010
0001
0010
0100
0000
,
1000
0100
1000
0001
0010
0001
1001
0000
;

//---------------dance-single - Renard----------------
#NOTES:
     dance-single:
     Renard:
     Medium:
     5:
     0.316,0.394,0.253,0.055,0.000:
0000
0000
0000
0000
,
0000
0000
0000
0000
,
0000
0000
0000
0000
,
0000
0000
0000
0000
,
1000
0000
0000
0011
0011
0000
0000
0000
,
0001
0000
0000
1010
1010
0000
0000
0000
,
1000
0000
0000
0101
0101
0000
0000
0000
,
0001
0000
0000
1010
1010
0000
1001
0000
,
1000
0100
0010
0000
0001
0000
0100
0000
,
0010
1000
0001
0000
0100
0000
0001
0000
,
2000
0000
0000
0000
0000
0000
3001
0010
,
0100
1000
0010
0010
,
0100
0001
1000
0000
0001
0000
1000
0000
,
0001
1000
0100
0000
1000
0000
0001
0000
,
0020
0000
0000
0000
0000
0000
0031
0010
,
0100
1000
0010
0100
,
0010
1000
0010
1000
0010
1000
0010
1000
,
0010
0000
1000
0000
,
0001
0100
0001
0100
0001
0100
0001
0100
,
0001
0100
0001
1000
,
1001
0000
1010
0000
1000
0100
0010
0000
,
0011
0000
0101
0000
0001
0100
0010
0000
,
1001
0000
0000
0000
0000
0000
0001
0010
,
0100
1000
0010
0100
,
0001
1000
0001
0000
1000
0000
0001
1000
,
0001
0000
1000
0000
0001
1000
0001
0000
,
1010
1000
1100
0110
,
0011
0000
1001
0000
1000
0001
1000
0000
,
0001
0001
0100
0000
0001
0000
1000
0000
,
0100
0100
0010
0010
,
0001
0001
1000
0000
0100
0100
1000
0000
,
0010
0010
1001
1001
,
1000
0100
0010
0010
,
0100
0010
0001
0001
,
0010
0001
1000
1000
,
0001
1000
0100
0100
,
2000
0000
3100
0100
,
0010
0001
0010
0010
,
0001
1000
1001
0000
,
0010
0100
0210
0001
,
2000
0000
0000
3300
,
1000
0100
0001
0010
,
1000
0010
0001
0100
,
1000
0100
0001
0010
,
1000
0000
0010
0000
0001
1000
0001
0000
;

//---------------dance-single - Renard----------------
#NOTES:
     dance-single:
     Renard:
     Easy:
     2:
     0.304,0.394,0.485,0.055,0.000: // measure 1
0000
0000
0000
0000
,  // measure 2
0000
0000
0000
0000
,  // measure 3
0000
0000
0000
0000
,  // measure 4
0000
0000
0000
0000
,  // measure 5
0001
0000
1100
0000
,  // measure 6
1000
0000
0101
0000
,  // measure 7
0001
0000
1010
0000
,  // measure 8
1000
0000
0101
1001
,  // measure 9
0001
0110
1000
0010
,  // measure 10
0100
1001
0010
1000
,  // measure 11
0002
0000
0000
1003
,  // measure 12
0110
0001
0100
0100
,  // measure 13
0010
1001
1000
0001
,  // measure 14
1000
0011
0001
1000
,  // measure 15
0200
0000
0000
1300
,  // measure 16
0110
0001
0100
0010
,  // measure 17
0100
0101
0101
0101
,  // measure 18
0101
0000
0001
0000
,  // measure 19
1000
1010
1010
1010
,  // measure 20
1010
0010
1000
0001
,  // measure 21
1001
0101
0001
0110
,  // measure 22
1100
1010
1000
0110
,  // measure 23
1001
0000
0000
1000
,  // measure 24
0110
0001
0100
0010
,  // measure 25
1000
1001
0001
1000
,  // measure 26
1001
0001
1000
1001
,  // measure 27
0101
0001
0011
0110
,  // measure 28
1100
1001
0001
1001
,  // measure 29
1000
1010
1000
0001
,  // measure 30
0010
0010
0100
0100
,  // measure 31
1000
1001
0010
0011
,  // measure 32
0100
0100
1001
1001
,  // measure 33
0001
0010
0100
0100
,  // measure 34
0010
0100
1000
1000
,  // measure 35
0100
1000
0001
0001
,  // measure 36
1000
0001
0010
0010
,  // measure 37
0002
0000
0013
0010
,  // measure 38
0100
1000
0100
0100
,  // measure 39
1000
0001
1001
0000
,  // measure 40
0100
0010
0120
1000
,  // measure 41
0002
0000
0000
0033
,  // measure 42
0001
0010
1000
0100
,  // measure 43
0001
0100
1000
0010
,  // measure 44
0001
0010
1000
0100
,  // measure 45
0001
0100
1000
1001
;
