#TITLE:Precious Consort;
#SUBTITLE:;
#ARTIST:Emoticon feat. Renard;
#GENRE:Speed Dance;
#TITLETRANSLIT:;
#SUBTITLETRANSLIT:;
#ARTISTTRANSLIT:;
#CREDIT:;
#BANNER:consort.png;
#BACKGROUND:consort-bg.png;
#LYRICSPATH:;
#CDTITLE:;
#MUSIC:consort.ogg;
#OFFSET:0.000;
#SAMPLESTART:10.032;
#SAMPLELENGTH:14.000;
#SELECTABLE:YES;
#BPMS:0.000=191.000;
#STOPS:208.000=0.628
;
#BGCHANGES:;

//---------------dance-single - Renard----------------
#NOTES:
     dance-single:
     Renard:
     Challenge:
     12:
     0.937,1.000,0.561,0.521,0.340:
0000
0000
0000
0000
,
0000
0000
0000
0000
,
0000
0000
0000
0000
,
0000
0000
0000
0000
,
1000
0000
0100
0000
1000
0010
0000
0100
0000
0001
0010
0000
0001
0100
0001
0000
,
0100
0000
0010
0000
1000
0100
0000
1000
0000
0010
0100
0000
0001
0100
0001
0000
,
1000
0000
0100
0000
0010
0100
0000
1000
0000
0001
0010
0000
0100
0000
0010
0001
,
1000
0000
0010
0000
0100
0001
0000
1000
0100
0000
0010
0000
0001
0000
1000
0000
,
0001
0100
0020
1030
0200
2300
3010
0200
,
0301
0020
0032
0203
0310
1000
0200
1300
,
1000
0100
0010
0001
0001
0010
0100
1000
,
1000
0010
0100
0001
0001
0100
0010
1000
,
1000
0100
0020
0031
0020
0230
1300
0020
,
0130
0002
0103
0020
1030
0200
1300
0010
,
0200
0002
0000
0010
0000
0313
0000
0101
,
0000
0110
0000
1100
0000
0110
0000
0101
,
0000
0000
0100
0000
0010
0000
1000
0000
0100
0000
1000
0000
0100
1000
0100
0000
,
1000
0000
0100
0000
0010
0000
0100
0000
1000
0000
0010
0000
0100
0001
0100
0000
,
0001
0000
0010
0000
0100
0000
1000
0000
0100
0000
0010
0000
0001
0010
0001
0000
,
0010
0000
0100
0000
1000
0000
0010
0000
0100
0000
0010
0000
0100
0010
0100
0000
,
0010
1000
1001
0100
0010
1010
0100
0010
,
0101
0011
0100
1010
0010
0110
0001
1000
,
0010
0100
1001
1000
0100
1100
0001
0010
,
1001
1010
0010
0110
0001
1001
0200
0000
,
1300
0010
1010
0001
0100
1010
1000
0100
,
0110
0011
0010
0101
1000
0101
0100
0001
,
1000
0010
1001
0001
0100
0110
1000
0100
,
0110
0011
0010
0110
1000
2002
3000
0000
,
1003
0100
0010
0001
0010
0100
2000
0000
,
3010
0100
0001
1000
0010
0100
0002
0000
,
0103
0010
1000
0100
0010
0100
2000
0000
,
3010
0100
0001
1000
0010
0100
0010
0100
,
0001
0000
0000
0001
0100
0000
0000
0100
0010
0000
1000
0000
0100
0000
0010
0000
,
0001
0000
0000
0001
0010
0000
0000
0010
0100
0000
1000
0000
0001
0000
0100
0000
,
0010
0000
0000
0010
1000
0000
0000
1000
0100
0000
1000
0000
0100
0000
0000
0000
,
1100
0000
0000
0100
1000
0000
0000
1000
0010
0000
0100
0001
0100
0000
0001
0000
,
0001
0100
0010
1000
0100
0100
0001
0001
,
0100
0100
1000
1000
0001
0001
0100
0100
,
0010
0010
0001
0001
0010
0010
1000
1000
,
0010
0100
0001
0100
1000
0100
0010
0100
,
0001
1000
0100
0010
0001
0010
1000
0010
,
0001
0010
0100
1000
0100
0001
0100
0010
,
0100
0001
0100
0010
0001
0010
1000
0010
,
0001
0010
0100
1000
0020
0000
1031
0000
,
0001
1000
0010
0100
0001
1000
0010
0100
0001
1000
0100
0010
0100
1000
0001
0100
,
0000
0000
0000
0000
,
0010
1000
0001
0100
0010
1000
0100
0010
0100
1000
0001
0010
0100
0010
0001
1000
,
0000
0000
0000
0000
,
0001
0100
0010
1000
0100
0010
0100
1000
0001
0010
0100
0010
0001
1000
0010
0100
,
0001
1000
0100
0010
0001
0010
0100
1000
0001
1000
0001
0100
0010
1000
0100
0010
,
0100
1000
0001
1000
0100
0010
0001
1000
0001
0010
0100
1000
0010
0100
0001
1000
,
1001
0000
0000
1100
0000
0000
0011
0000
0200
0000
2000
0000
0020
0000
0000
0000
,
0300
3030
0000
0000
0100
1000
0002
0013
,
2000
3020
0031
2000
3100
0002
0203
0320
,
0031
0001
2000
3100
0100
1000
0001
0100
,
0001
0010
1000
0010
0010
0001
1000
0100
,
1000
0010
0001
0010
0010
1000
0002
0103
,
0002
2003
3010
2000
3100
0020
0130
2000
,
3001
2000
3010
0100
0002
0200
0000
0010
,
0000
0313
0000
0101
0000
1001
0000
1010
,
0000
1001
0000
1001
0000
1000
0001
0100
,
0010
0100
0010
1000
0100
0010
0001
0010
,
1000
0010
0001
0010
0100
0001
0100
1000
,
0010
0100
0001
0100
1000
0100
0010
1000
,
0100
0010
0100
1000
0010
0100
1000
0100
,
0010
0001
0010
0100
0010
0001
0010
1000
,
0010
0001
0010
0100
0001
0100
0010
1000
,
0100
0010
0001
0010
0100
1000
0100
0001
,
0100
1000
0010
0100
0001
0000
0101
0000
,
0000
1010
0000
0000
2000
0200
3300
1100
,
0000
1010
0000
0000
0000
0000
0101
0000
,
0000
1010
0000
0000
0002
0200
0303
0101
,
0000
0101
0000
0000
0000
0000
1010
0000
,
0000
1100
0000
0000
0020
0200
0330
0110
,
0000
0101
0000
0000
0000
0000
1010
0000
,
0000
0110
0000
0000
0002
2000
3003
0110
,
0000
1010
0000
0000
0101
0000
0000
0000
;

//---------------dance-single - Renard----------------
#NOTES:
     dance-single:
     Renard:
     Hard:
     9:
     0.775,0.728,0.090,0.000,0.245:
0000
0000
0000
0000
,
0000
0000
0000
0000
,
0000
0000
0000
0000
,
0000
0000
0000
0000
,
1000
0000
0001
0000
0100
0010
0000
1000
0000
0000
0010
0000
0100
0000
0001
0000
,
1000
0000
0100
0000
0010
0001
0000
0010
0000
0000
0100
0000
1000
0000
0010
0000
,
0100
0000
0001
0000
1000
0001
0000
1000
0000
0000
0001
0000
0100
0000
0010
0000
,
1000
0000
0100
0000
0010
0001
0000
1000
0000
0000
0001
0000
0100
0000
0001
0000
,
1000
0000
0001
0000
0100
0001
0000
1000
,
0000
0000
0100
0000
0010
0000
0001
0000
0010
0000
0100
0010
0100
0000
0000
0000
,
1000
0010
1000
0010
0100
0010
0100
0010
,
0100
0000
0001
0000
0100
0000
0001
1000
0001
0000
1000
0000
0001
0000
0000
0000
,
0100
0000
0010
0000
1000
0000
0000
1000
0100
0000
1000
0000
0010
0000
0100
0000
,
0000
0100
0001
0010
0000
0010
0100
1000
,
0001
0000
1000
0000
0001
1000
0001
0000
1000
0000
0010
0000
0100
0000
0001
0000
,
1000
0000
0001
0000
1000
0001
1000
0000
0001
0000
1000
0000
0010
0000
0000
0000
,
1000
0000
0100
0000
0010
0000
0000
0010
0001
0000
0010
0000
0100
0000
0000
0100
,
1000
0000
0010
0000
0100
0000
0000
0100
0001
0000
1000
0000
0001
0000
0000
0001
,
1000
0000
1000
0000
0100
0000
0000
0100
1000
0000
1000
0000
0010
0000
0000
0010
,
0100
0000
0100
0000
0001
0000
0000
0001
1000
0000
1000
0000
0100
0000
0000
0000
,
1000
0001
0100
0001
1000
0001
0100
0001
,
1000
0010
0000
1001
0000
0101
0000
1000
,
0001
0100
0010
1000
0100
0010
0001
0010
,
0001
0010
0000
0110
0000
1100
0000
1000
,
0001
0100
0010
1000
0100
1000
0001
1000
,
0001
1000
0000
1010
0000
0101
0000
0001
,
0010
0001
0100
0001
1000
0001
0100
0001
,
0100
0010
0000
1010
0000
0101
0000
0000
,
1000
0001
0100
0001
0100
0001
0100
0001
,
1000
0001
0100
0001
0100
0001
0010
0001
,
1000
0001
0100
0001
0100
0001
0010
0001
,
1000
0001
0100
0001
0010
0001
0100
0001
,
1000
0100
1000
0010
1000
0001
1000
0000
,
1000
0100
1000
0010
1000
0000
0100
0000
,
1000
0001
1000
0010
1000
0100
1000
0000
,
0001
1000
0010
1000
0001
1000
0100
0000
,
0010
1000
0001
0000
0001
0100
0010
0000
,
0010
1000
0100
0000
0100
1000
0010
0000
,
0010
0000
1000
0000
0010
0000
0000
0010
1000
0000
0010
0000
1000
0000
0000
1000
,
0010
0000
0010
0000
1000
0000
0000
1000
0010
0000
0010
0000
1000
0000
0000
1000
,
0001
0100
0001
1000
0100
0010
0001
0000
,
0001
0010
0100
1000
0010
0100
0001
0000
,
0001
0100
0100
0001
1000
1000
0100
1000
,
1000
0001
0010
0100
1000
0010
1000
0000
,
0001
0000
1000
0000
0010
0000
0100
0001
,
1000
0000
0000
0000
0100
0000
0000
0000
1000
0000
0000
1000
0010
0000
0100
0000
,
0010
0000
1000
0000
0001
0000
0100
0001
,
1000
0000
0100
0000
0010
0000
0001
0000
1000
0000
0001
1000
0001
0000
1000
0000
,
0010
0000
0000
0010
0100
0000
0001
0000
1000
0000
0000
1000
0100
0000
0010
0000
,
0001
0000
0000
0001
1000
0000
0010
0000
0100
0000
0000
0100
0001
0000
1000
0000
,
0100
0000
0000
0010
0001
0000
1000
0000
0100
0000
0000
1000
0001
0000
1000
0000
,
0010
0000
1000
0001
1000
0000
0100
0000
1000
0000
0001
1000
0001
0000
1000
0000
,
0000
0000
0000
0000
1000
0000
0001
0100
,
0010
0000
0000
0010
1000
0000
0100
0000
0010
0000
0001
0000
0010
0000
0100
1000
,
0100
1000
0100
0000
1000
0000
0010
0100
,
0001
0000
0000
0001
1000
0000
0100
0000
0010
0000
0001
0000
1000
0000
0001
1000
,
0001
0000
1000
0000
0010
0000
0100
0000
0001
0000
0000
0001
1000
0000
0100
0000
,
0010
0000
0001
0000
0010
0000
0100
0000
1000
0000
0000
1000
0010
0000
0100
0000
,
0001
0000
0010
0000
0100
0000
0000
0000
0100
0000
0000
1000
0010
0000
0100
0000
,
0001
0000
0000
0001
1000
0000
0100
0000
0010
0000
0000
0010
0001
0000
0010
0000
,
0100
0000
1000
0000
0010
0000
0100
0000
0001
0000
1000
0000
0001
0000
1000
0001
,
1000
0000
0010
0000
0100
0000
0001
0000
0010
0000
0100
0000
1000
0000
0001
1000
,
0001
0000
1000
0000
0010
0000
0000
0000
0100
0000
0001
0000
1000
0000
0100
1000
,
0100
0000
1000
0000
0001
0000
0010
0000
0100
0000
1000
0000
0001
0000
1000
0001
,
1000
0000
0000
0000
0001
0000
0000
0000
1000
0000
0010
0000
0100
0000
0001
1000
,
0001
0000
1000
0000
0001
0000
0010
0000
0100
0000
1000
0000
0001
0000
1000
0001
,
1000
0010
0100
0001
0010
0000
0100
1000
,
0010
0000
0010
0100
0001
1000
0100
0010
,
0001
1000
0001
0000
0001
1000
0010
0000
,
0010
1000
0000
1000
0100
0001
0100
1000
,
0010
0001
0010
1000
0100
0010
0001
0000
,
0001
0010
0000
0010
1000
0010
0001
0100
,
1000
0100
0001
0010
0100
1000
0010
0000
,
0010
0100
0001
0100
0010
1000
0100
0010
,
0001
0010
0100
1000
0100
0001
0100
1000
,
0010
0001
0010
1000
0010
0100
0001
1000
,
0001
1000
0001
0000
1001
0000
0000
0000
;

//---------------dance-single - Renard----------------
#NOTES:
     dance-single:
     Renard:
     Medium:
     6:
     0.433,0.498,0.200,0.000,0.000:
0000
0000
0000
0000
,
0000
0000
0000
0000
,
0000
0000
0000
0000
,
0000
0000
0000
0000
,
1000
0000
0001
0000
0100
0000
0001
1000
,
0001
1000
0100
0000
,
1000
0000
0001
0000
0100
0000
0001
1000
,
0001
0000
0001
1000
0001
0000
0001
1000
,
0001
0000
1000
0000
0100
1000
0000
0010
,
0000
1000
0001
1000
0000
0000
0001
0000
,
0001
0000
0100
0001
0100
0000
0001
0000
,
1000
0000
0100
1000
0100
0000
1000
0000
,
0000
0000
0001
0000
0100
0010
0000
1000
,
0000
0001
0000
1000
0000
1001
0000
0000
,
0001
1000
0000
1001
0000
1001
0000
1000
,
0000
0010
0000
0100
0000
0001
0000
1000
,
0000
0001
0000
0100
,
0000
0010
1000
0100
,
0000
1000
0000
0001
,
0000
0100
0010
1000
,
0000
0000
0100
0000
0000
0010
0000
0000
,
0001
1000
0000
0001
0000
1000
0000
0000
,
0000
0000
0010
0000
0000
0100
0000
0000
,
0001
1000
0000
0100
0000
1000
0000
0000
,
0000
0000
0001
0000
0000
0010
0000
0000
,
0100
1000
0000
0001
0000
0010
0000
0000
,
0000
0000
0100
0000
0000
1000
0000
0000
,
0010
0100
0000
0001
0000
1000
0000
0000
,
0001
0000
0100
0000
0000
0010
0000
0000
,
1000
0010
0000
1000
0010
0000
1000
0000
,
0001
0100
0001
1000
,
0100
0010
0000
0100
0010
0000
0001
0000
,
1000
0010
1000
0001
,
0100
0001
0000
0100
0001
0000
1000
0000
,
0010
1000
0100
0010
,
0001
1000
0000
0001
1000
0000
0001
0000
,
0010
0010
0100
0100
,
1000
1000
0010
0010
,
0100
0100
1000
1000
,
0010
0010
0100
0100
,
0010
0001
0100
0010
,
1000
0010
0100
0001
,
0100
0001
1000
0100
,
1000
0000
0001
0000
1000
0001
1000
0000
,
1001
0000
0000
1000
,
0001
0000
0000
0000
0000
0000
1000
0001
,
1000
0000
0000
1001
,
1001
0000
0000
0000
0001
1000
0100
1000
,
0001
0000
0000
0001
1000
0000
0000
1000
,
0010
0000
0000
0010
0100
0000
0000
0100
,
0001
1000
0100
0010
,
0001
1000
0001
1000
0001
1000
0001
1000
,
0001
0000
1000
0010
,
0100
0001
0000
1000
0000
0100
1000
0001
,
0000
0000
0100
0000
0001
0000
1000
0100
,
1000
0000
0001
0100
0001
0000
1000
0001
,
1000
0001
0000
1001
,
1000
0010
0000
0001
0000
0001
0000
0100
,
0000
0100
0000
0000
0010
1000
0000
0101
,
0000
0101
0000
1000
0000
0100
0000
0010
,
0000
0010
0000
0001
0000
0000
1000
0000
,
0000
0010
0000
0000
0100
0001
0000
1000
,
0100
0000
0010
0001
0000
0000
1000
0000
,
0000
0010
0000
0000
0100
0001
0000
1000
,
0100
0000
0010
0001
0000
0000
1000
0000
,
0000
0010
0000
0000
0100
0001
0000
1000
,
0100
0000
0010
0001
0000
0000
1000
0000
,
0000
0010
0000
0000
0100
0001
0000
1000
,
0001
0000
1000
0001
1000
0000
1000
0000
,
0000
0001
0000
0000
0100
0010
0000
1000
,
0000
0101
0000
0000
0000
0000
1100
0000
,
0000
0011
0000
0000
0001
0100
0000
1010
,
0000
0101
0000
0000
0000
0000
1100
0000
,
0000
0011
0000
0000
1000
0100
0000
0010
,
0000
0011
0000
0000
0000
0000
0101
0000
,
0000
1010
0000
0000
0001
0100
0000
0001
,
0000
1000
0000
0000
1001
0000
0000
0000
;

//---------------dance-single - Renard----------------
#NOTES:
     dance-single:
     Renard:
     Easy:
     4:
     0.330,0.421,0.250,0.000,0.000: // measure 1
0000
0000
0000
0000
,  // measure 2
0000
0000
0000
0000
,  // measure 3
0000
0000
0000
0000
,  // measure 4
0000
0000
0000
0000
,  // measure 5
1000
0000
0000
0000
,  // measure 6
0001
0000
0000
0000
,  // measure 7
0100
0000
0000
0000
,  // measure 8
0010
0000
0000
0000
,  // measure 9
1000
0001
0100
0001
,  // measure 10
1000
0100
1000
0001
,  // measure 11
0010
0100
1000
0001
,  // measure 12
1000
0000
1001
0000
,  // measure 13
0001
0100
0010
0000
,  // measure 14
1000
0010
0100
0000
,  // measure 15
0001
1000
0100
0010
,  // measure 16
0001
0010
0100
1000
,  // measure 17
0001
1001
0000
1001
,  // measure 18
1000
1001
0000
1001
,  // measure 19
0010
0110
0000
0110
,  // measure 20
0100
0110
0000
0110
,  // measure 21
0010
1000
0001
0100
,  // measure 22
0001
1000
0100
0000
,  // measure 23
1000
0001
0010
0001
,  // measure 24
1000
0000
0010
0000
,  // measure 25
1000
0001
0100
1000
,  // measure 26
0100
0001
0100
0000
,  // measure 27
0001
0010
1000
0010
,  // measure 28
0001
1000
0001
0000
,  // measure 29
1000
0000
0100
0001
,  // measure 30
0010
0000
1000
0100
,  // measure 31
0001
0000
0010
1000
,  // measure 32
0100
0000
0001
0010
,  // measure 33
1000
0000
0100
0001
,  // measure 34
0010
0000
1000
0100
,  // measure 35
0001
0000
0010
1000
,  // measure 36
0100
1000
0100
0000
,  // measure 37
1000
1000
0001
0001
,  // measure 38
1000
1000
0001
0001
,  // measure 39
1000
1000
0001
0001
,  // measure 40
1000
0001
1000
0001
,  // measure 41
0100
0100
0010
0010
,  // measure 42
0100
0100
0010
0010
,  // measure 43
0100
0010
0100
0010
,  // measure 44
0100
0010
0100
0010
,  // measure 45
1000
0000
0000
0000
,  // measure 46
0000
0000
0000
0000
,  // measure 47
0001
0000
0000
0000
,  // measure 48
0100
0000
0001
1000
,  // measure 49
0100
0000
0000
0000
,  // measure 50
1000
0000
0000
0000
,  // measure 51
0010
0000
0100
0000
,  // measure 52
0001
1000
0001
1000
,  // measure 53
1001
0000
1000
0010
,  // measure 54
0100
0001
0100
0010
,  // measure 55
1000
0100
1000
1000
,  // measure 56
0001
0001
1000
0001
,  // measure 57
0010
0100
1000
1000
,  // measure 58
0001
0001
1000
0001
,  // measure 59
0010
0100
1000
0001
,  // measure 60
1000
0001
1010
0000
,  // measure 61
1001
0000
0101
0000
,  // measure 62
0001
0100
0010
0000
,  // measure 63
0010
1000
1100
0000
,  // measure 64
0010
0001
0100
0000
,  // measure 65
0001
1000
1001
0000
,  // measure 66
1001
0000
1010
0000
,  // measure 67
0001
0100
0101
0000
,  // measure 68
0011
0000
1100
0000
,  // measure 69
1000
0001
1001
0000
,  // measure 70
1000
0000
1000
0000
,  // measure 71
0000
0000
1001
0000
,  // measure 72
0001
0000
0001
0000
,  // measure 73
0000
0000
0110
0000
,  // measure 74
0100
0000
0100
0000
,  // measure 75
0000
0000
0110
0000
,  // measure 76
0010
0000
0010
0000
,  // measure 77
0000
0000
1001
0000
;
