#TITLE:Power!;
#SUBTITLE:;
#ARTIST:Hecate;
#GENRE:Samplepop;
#TITLETRANSLIT:;
#SUBTITLETRANSLIT:;
#ARTISTTRANSLIT:;
#CREDIT:;
#BANNER:power.png;
#BACKGROUND:power-bg.png;
#LYRICSPATH:;
#CDTITLE:;
#MUSIC:power.ogg;
#OFFSET:0.000;
#SAMPLESTART:59.955;
#SAMPLELENGTH:10.000;
#SELECTABLE:YES;
#DISPLAYBPM:160.015;
#BPMS:0.000=160.015;
#STOPS:158.000=0.187
,158.500=0.187
;
#BGCHANGES:;

//---------------dance-single - Renard----------------
#NOTES:
     dance-single:
     Renard:
     Challenge:
     10:
     0.819,0.801,0.391,0.379,0.379:
0000
0000
0000
0000
,
0000
0000
0000
0000
,
0000
0000
0000
0000
,
1001
0110
1110
0111
,
1010
0000
0001
0200
0010
0000
0010
0000
,
0310
0100
0010
2000
0100
0000
0100
3000
,
2000
0000
3100
1000
0200
0000
2300
0000
,
3010
0100
0001
0100
0010
0000
0110
0000
,
1000
0000
0100
0000
1000
0000
0010
0100
0000
0000
0001
0000
0100
0000
0010
1000
,
0100
0000
1000
0000
0010
0000
0100
0001
0000
0000
0001
0000
0100
0000
0010
1000
,
0010
0000
0100
0000
0010
0000
1000
0100
0000
0000
0010
0000
0001
0000
0010
0100
,
1000
0000
0010
0000
0100
0000
0001
0100
0010
0000
1000
0000
0100
1000
0100
0000
,
1000
0000
0100
1000
0100
0000
1000
0000
0010
0100
0001
0000
0010
0000
0001
0000
,
1000
0000
0010
0000
0100
0001
0010
0000
0001
0000
1000
0000
0010
0100
0010
0000
,
1000
0000
0010
0100
0010
0000
1000
0000
0010
0100
0010
0000
0100
0000
0001
0000
,
0010
0100
1000
0000
0100
0000
0010
0001
1000
0100
0010
0100
1000
0000
0010
0000
,
0100
0000
0001
0000
1000
0000
0100
0000
1000
0000
0001
0000
0100
0000
0001
0010
,
0001
0000
1000
0000
0100
0000
1000
0000
0010
0200
0000
0001
0300
0100
0001
1000
,
0001
0000
0001
0000
0100
0000
0100
0000
0010
2000
0000
0100
0000
3100
1000
0100
,
1000
0000
0010
0000
0100
0001
0000
2000
0000
0000
0001
0000
0001
0000
3001
0000
,
0010
0000
1000
0000
0001
0000
0010
0000
0001
0000
1000
0000
0010
0000
1000
0100
,
1000
0000
0001
0000
0010
0000
0001
0000
0100
0020
0000
1000
0030
0010
1000
0001
,
1000
0000
1000
0000
0010
0000
0010
0000
0100
0002
0000
0010
0000
0013
0001
0010
,
0001
0000
0100
0000
0010
1000
0000
0001
1000
0000
0000
0000
1101
0000
0000
0000
,
1000
0000
0000
0100
1000
0000
0010
0000
0100
0001
0010
0001
0100
0000
0010
0000
,
1000
0000
0000
1000
0010
0000
0100
0000
0001
0100
0010
1000
0100
0000
1000
0000
,
0100
0000
0000
0100
1000
0000
0100
0000
0010
0001
0010
0100
1000
0000
0010
0000
,
0100
0000
0000
0100
0001
0000
1000
0000
0010
0100
0001
0100
0010
0000
1000
0000
,
0001
0000
0100
0010
0100
0000
0001
0000
1000
0000
0010
0000
0100
0000
0002
0000
,
0000
0000
1003
0000
0100
0000
1000
0000
0010
0000
0100
0001
0100
0000
0010
0000
,
2000
0000
0200
3000
2000
0300
0020
3000
,
0130
0100
0001
1000
0010
0010
0010
0010
,
0100
0101
0001
0011
0010
1010
0010
0011
,
0001
0101
0100
1100
0100
0101
1010
1001
,
0000
1010
1000
1100
0100
0101
0100
1100
,
1000
1010
0010
1010
1000
2200
3311
0000
,
1000
0010
1000
0100
1100
0001
0100
0010
,
0100
0000
0000
0001
0000
0000
1000
0000
0000
0010
0000
0000
0100
0000
0000
0001
0000
0000
1000
0000
0001
0000
0000
0000
,
1000
1000
0010
0010
0100
0001
0010
0001
,
0100
0000
0001
0010
0001
0100
0010
1000
0200
0000
1311
0000
1000
0000
0100
0010
,
0001
0000
0010
0000
0100
0000
1000
0000
0100
0000
0010
0000
0001
0000
0010
0100
,
1000
0000
0010
0000
0100
0000
0001
0000
0100
0000
0010
0000
1000
0000
0010
0100
,
0001
0100
0010
1000
0100
1000
0001
0010
,
0001
1000
0100
0000
1000
0000
0000
0000
1111
0000
0000
0000
0001
0000
0010
0100
,
1000
0000
0100
0000
0010
0000
0001
0000
0010
0000
0100
0000
1000
0000
0100
0010
,
0001
0000
0100
0000
0010
0000
1000
0000
0010
0000
0100
0000
0001
0000
0100
0010
,
1000
0010
0100
0001
0010
0001
1000
0100
,
1000
0001
0010
0000
0001
0000
0000
0000
1111
0000
0000
0000
2010
0000
0000
0000
,
3100
1000
0010
0100
0001
0000
0102
0000
,
0010
0013
0001
0100
0010
1000
2020
0030
,
3020
1030
0010
0100
0001
0010
0002
0000
,
2000
0100
3113
1010
,
0102
0100
0100
0000
0013
0001
0100
0010
,
1000
0100
2000
0000
0010
3000
1000
0100
,
1000
0010
0200
0000
0002
0300
0203
0000
,
0002
2000
0020
3333
;

//---------------dance-single - Renard----------------
#NOTES:
     dance-single:
     Renard:
     Hard:
     9:
     0.657,0.671,0.103,0.000,0.293:
0000
0000
0000
0000
,
0000
0000
0000
0000
,
0000
0000
0000
0000
,
1000
0000
0000
0000
0001
0000
0000
0001
0100
0000
0010
0000
1000
0000
0000
0000
,
0100
0000
0010
0000
0001
0100
0010
0000
,
1000
0000
0000
0000
0100
0000
0000
1000
0010
0000
0100
0000
0001
0000
0010
0000
,
0010
0000
0001
0100
0010
1000
0001
1000
,
0100
0000
0000
0100
0010
0000
0001
0000
1000
0000
0001
1000
0001
0000
1000
0000
,
0010
0000
0100
0000
0001
0000
1000
0100
0000
0000
0010
0000
0001
0000
0010
0001
,
0000
0000
0010
0000
0100
0000
1000
0100
0000
0000
1000
0000
0010
0000
0100
0000
,
0001
0000
1000
0000
0100
0000
0010
0001
0000
0000
1000
0000
0100
0000
0010
0001
,
0000
1000
0010
0100
0001
1000
0001
0000
,
1000
0000
0010
0000
0100
0000
0001
1000
0000
0000
0001
0000
0100
0000
0010
1000
,
0000
0000
0100
0000
0010
0000
0001
0010
0000
0000
0100
0000
1000
0000
0010
0100
,
0000
0000
0001
0000
1000
0000
0100
0010
0000
0000
0001
0000
1000
0000
0010
0000
,
0100
0000
0001
0000
1000
0000
0100
0000
0010
0000
0001
1000
0001
0000
0000
0000
,
1000
0000
0010
0000
0100
0000
0001
0000
1000
0000
0001
0000
0100
0010
0000
1000
,
0010
0000
0100
0000
0001
0000
0010
0000
0100
1000
0000
0010
0000
0000
0100
0000
,
0001
0100
0010
1000
0001
0100
0010
1000
,
0001
0000
1000
0000
0100
0010
0000
0001
0000
0000
0010
0000
0100
0000
1000
0000
,
0010
0000
0100
0000
0001
0000
1000
0000
0010
0000
0100
0000
0001
0100
0000
0010
,
1000
0001
0100
0010
1000
0100
0010
0001
,
0010
0100
1000
0001
0010
0100
1000
0010
,
0100
0000
0001
0000
1000
0001
0000
0100
0010
0000
1000
0000
0001
0000
0000
0000
,
1000
0000
0000
0100
0000
0000
0010
0000
0000
0000
0001
0000
0010
0000
0000
0000
,
0100
0000
0000
1000
0000
0000
0010
0000
0000
0000
0100
0000
0001
0000
0100
0000
,
0010
0000
0000
1000
0000
0000
0100
0000
0000
0000
0010
0000
0001
0000
0010
0000
,
0100
1000
0010
0000
0100
0001
0100
0000
,
0000
0000
0010
1000
0010
0000
1000
0000
0010
0000
0100
0000
0001
0000
0010
0000
,
0000
0000
0100
0000
1000
0000
0010
0000
0100
0000
0001
1000
0001
0000
1000
0000
,
0100
0000
0010
0000
0001
0010
0100
1000
,
0010
0100
0001
0100
0001
1000
0001
1000
,
0000
0110
0000
0011
0000
1001
0000
1010
,
0000
0101
0000
0001
1000
0100
0010
0001
,
0000
1010
0000
0101
0000
1000
0100
0010
,
0001
0000
0001
0100
0010
1000
0100
0010
,
0000
0001
1000
0010
0100
0000
0001
0000
,
1000
0000
0100
0000
0010
0000
0001
0000
1000
0000
0010
0000
0100
0001
0000
0000
,
0100
0010
1000
0100
0010
0001
1000
0010
,
0100
0000
0001
0100
0001
0100
0001
0000
0101
0000
1001
0000
1000
0000
0100
0000
,
0010
0001
0010
0100
1000
0010
0100
0001
,
0100
0010
1000
0100
0010
0001
0010
0100
,
1000
0001
0010
0100
1000
0010
0100
0000
,
0001
1000
0001
0000
0000
0000
0000
0000
1000
0000
0000
0000
1000
0000
0000
1000
,
0010
0000
0100
0000
0001
0000
0010
0000
0100
0000
1000
0000
0010
0000
0000
0010
,
0100
0000
0001
0000
0010
0000
0100
0000
1000
0000
0010
0000
0100
0000
0000
0001
,
0010
0001
0010
0100
1000
0010
0100
0000
,
0001
0010
0001
0000
0000
0000
0000
0000
0001
0000
0000
0000
0100
0000
0010
0000
,
1000
0000
0100
0010
0000
0000
0001
0000
0010
0000
0100
1000
0000
0000
0010
0000
,
0100
0000
0001
0010
0100
0000
1000
0000
0010
0000
0000
0000
0100
0000
0001
0000
,
1000
0000
0100
0010
0000
0000
0001
0000
0010
0000
0100
1000
0000
0000
0010
0000
,
0100
0000
0001
0000
1000
0001
1000
0000
0001
0000
0000
0000
1000
0000
0010
0000
,
0100
0000
0001
1000
0000
0000
0010
0000
1000
0000
0001
0100
0000
0000
0001
0000
,
1000
0000
0010
1000
0000
0000
0001
0000
0100
0000
0001
1000
0001
0000
1000
0000
,
0100
0000
0010
0001
0000
0000
1000
0000
0100
0000
0010
0001
0000
0000
1000
0000
,
0010
0000
0100
0000
0001
1000
0001
0000
1000
0000
0100
0000
0000
0000
0000
0000
;

//---------------dance-single - Renard----------------
#NOTES:
     dance-single:
     Renard:
     Medium:
     7:
     0.475,0.447,0.184,0.000,0.000:
0000
0000
0000
0000
,
0000
0000
0000
0000
,
0000
0000
0000
0000
,
1000
0100
0010
0001
,
1000
0000
0001
0010
0001
0000
1010
0000
,
0101
0000
1000
0100
1000
0000
0001
0000
,
0011
0100
1010
0001
,
0110
1001
0100
1000
,
0000
0001
0010
0001
0000
0100
0010
0100
,
0000
0010
1000
0010
0000
1000
0100
1000
,
0000
0001
0010
0001
0000
1000
0010
1000
,
0001
0100
0001
0000
1000
0100
0010
0000
,
0000
0001
0010
0001
0000
0010
0100
0010
,
0000
0100
1000
0100
0000
1000
0010
1000
,
0000
0010
0100
0010
0000
0100
0001
0100
,
0001
1000
0001
1000
0001
0000
1000
0000
,
0001
0000
0100
0000
0010
0000
1000
0100
,
0010
0001
0010
0000
,
0100
0000
1000
0000
0010
0000
0100
0001
,
1000
0001
0100
1010
,
0100
0000
0001
0000
0010
0000
0100
1000
,
0100
0000
0010
0000
0001
0000
0100
0001
,
0100
0000
0010
0000
1000
0100
0010
0001
,
0010
0100
1000
0010
,
0100
0000
0001
0000
0100
0010
0000
1000
,
0000
0010
0100
0000
0001
1000
0100
1000
,
0001
0000
0010
0000
0001
1000
0000
0010
,
0000
0100
0001
0000
1000
0001
1000
0000
,
0001
0000
1000
0000
0100
0010
0000
0001
,
0000
1000
0001
0000
0100
0001
1000
0001
,
1000
0000
0100
0000
1000
0100
0000
0010
,
0000
0001
1000
0000
0001
0100
0001
0000
,
0000
1001
0000
1010
0000
0101
0000
1001
,
0000
1100
0000
1000
0100
0000
0010
0000
,
0000
0001
0000
0100
0000
0010
1000
0001
,
0100
0000
0001
1000
0100
0010
0001
0000
,
0000
1000
0001
1000
0001
0000
0100
0000
,
0010
0010
0010
0010
0010
0000
0010
0000
,
1000
0000
0010
0000
0100
0000
0001
1000
,
0100
0010
0001
0010
0100
1001
1000
0000
,
0010
0100
0010
0000
0100
0000
0001
0000
,
0100
0001
0100
0000
0010
0000
1000
0000
,
0100
1000
0100
0000
1000
0000
0100
0000
,
0010
0000
1001
0010
,
0100
0001
0100
0000
0001
0000
0010
0000
,
0100
0010
0100
0000
1000
0000
0010
0000
,
0100
0001
0100
0000
0001
0000
0100
0000
,
1010
0100
0011
0100
,
0100
0000
0100
0000
0100
0010
1000
0000
,
1000
0100
0010
0000
0010
0001
0100
0000
,
0100
0100
0100
0100
,
0100
0000
0100
0010
0100
0010
0100
0000
,
0100
0001
1000
0000
1000
0001
0100
0000
,
0100
0001
1000
0000
1000
0001
0010
0000
,
0010
0001
1000
0010
1000
0000
0001
0010
,
0001
1000
0001
1000
0001
0000
0000
0000
;

//---------------dance-single - Renard----------------
#NOTES:
     dance-single:
     Renard:
     Easy:
     4:
     0.452,0.447,0.770,0.000,0.000: // measure 1
0000
0000
0000
0000
,  // measure 2
0000
0000
0000
0000
,  // measure 3
0000
0000
0000
0000
,  // measure 4
0001
0010
0100
1000
,  // measure 5
0001
1000
1100
0101
,  // measure 6
1010
0001
0011
1000
,  // measure 7
1100
0010
0101
1000
,  // measure 8
0110
1001
0010
0001
,  // measure 9
0000
1100
1000
0110
,  // measure 10
0010
0101
0100
0011
,  // measure 11
0001
1100
1000
0101
,  // measure 12
1001
1010
0001
0110
,  // measure 13
0000
1100
1000
0110
,  // measure 14
0100
0011
0010
0101
,  // measure 15
0001
0110
0100
1010
,  // measure 16
1010
1001
1001
0001
,  // measure 17
1000
0010
0100
0001
,  // measure 18
0110
1000
0100
0000
,  // measure 19
0010
0001
0100
0010
,  // measure 20
1001
1000
0010
0101
,  // measure 21
0010
1000
0100
0010
,  // measure 22
0011
0100
1000
0010
,  // measure 23
1010
0100
0001
0110
,  // measure 24
1100
0010
0001
0100
,  // measure 25
0010
1000
0010
0100
,  // measure 26
0001
0110
1000
0011
,  // measure 27
1001
0100
1000
0001
,  // measure 28
0100
1010
0001
1001
,  // measure 29
1000
0001
0010
0100
,  // measure 30
1000
1001
0010
1001
,  // measure 31
1001
0010
0001
0010
,  // measure 32
0100
1001
1000
1010
,  // measure 33
0000
1000
0000
0001
0000
0100
0000
0010
,  // measure 34
0000
1000
0000
0100
0010
0000
0000
0000
,  // measure 35
0000
0001
0000
0100
0000
0010
0000
1000
,  // measure 36
0010
0000
0100
0001
0000
0000
1000
0000
,  // measure 37
0000
0001
1000
0001
1000
0000
0001
0000
,  // measure 38
0100
0100
0100
0100
,  // measure 39
0001
0100
0010
1000
,  // measure 40
0001
0000
1000
0001
1000
0000
1001
0000
,  // measure 41
0100
0110
0010
1000
,  // measure 42
0010
1010
0100
0001
,  // measure 43
0010
0011
0001
0010
,  // measure 44
0100
0000
1001
0100
,  // measure 45
0010
1010
1000
0100
,  // measure 46
0010
0110
0001
0100
,  // measure 47
0010
1010
1000
0010
,  // measure 48
0101
0010
1100
0010
,  // measure 49
0010
0010
0010
0101
,  // measure 50
0001
0110
0100
1010
,  // measure 51
0010
0010
0010
0010
,  // measure 52
0010
0010
0110
0110
,  // measure 53
0010
1001
0001
1010
,  // measure 54
0010
1001
0001
1100
,  // measure 55
0100
1001
0101
1000
,  // measure 56
1100
1001
1001
0000
;
