#TITLE:Poison;
#SUBTITLE:;
#ARTIST:Groove Coverage;
#GENRE:Hard Dance;
#TITLETRANSLIT:;
#SUBTITLETRANSLIT:;
#ARTISTTRANSLIT:;
#CREDIT:;
#BANNER:poison.png;
#BACKGROUND:poison-bg.png;
#LYRICSPATH:;
#CDTITLE:;
#MUSIC:poison.ogg;
#OFFSET:0.000;
#SAMPLESTART:17.409;
#SAMPLELENGTH:12.000;
#SELECTABLE:YES;
#BPMS:0.000=68.770,19.500=206.310,21.000=137.540,156.000=68.770,157.500=206.310,159.000=137.540;
#STOPS:121.000=0.872
,157.500=1.309
;
#BGCHANGES:;

//---------------dance-single - Renard----------------
#NOTES:
     dance-single:
     Renard:
     Hard:
     8:
     0.586,0.697,0.281,0.354,0.203:
0000
0000
0000
0000
2002
0000
0010
3003
,
0001
1000
0200
0000
1001
0000
0300
0000
2000
0000
0200
0000
0011
0000
3300
0001
,
0010
0200
2000
0000
0011
0000
3300
0000
0001
0200
0002
0000
1010
0303
0000
0000
,
2200
0000
0000
0000
0011
3300
0000
2000
0002
0000
0000
0000
3113
0000
0000
0000
,
0202
0000
0000
0000
1010
0303
0000
0000
1001
0000
1000
0001
1000
0000
1001
0000
,
0000
0000
1000
0100
0001
1000
0001
0100
,
1000
0010
0001
1000
0100
0001
0010
0000
,
1000
0000
0001
0100
0010
1000
0001
0100
,
1000
0010
0100
0001
0100
0010
1000
0000
,
0100
0000
0001
0010
0001
0100
0010
1000
,
0001
0100
0010
0001
1000
0010
0100
0000
,
0001
0000
0100
1000
0100
0001
0010
1000
,
0010
0001
1000
0001
0100
1000
0001
1000
,
0100
0001
1000
0100
1000
0010
1000
0001
,
0100
0010
1000
0100
1100
0000
0001
0010
,
0011
0000
1001
0000
1010
0000
0002
0200
,
0303
1001
0000
1010
0000
1001
0000
0001
,
0100
0010
1000
0100
0010
0001
0100
0010
,
1000
0100
0010
0001
0100
0010
1000
0100
,
0010
0001
0010
0100
1000
0000
1010
1001
,
0000
0101
0000
0011
0000
1001
0000
2000
,
0002
3000
0200
0003
0002
0000
1303
0000
,
1111
0000
0000
0000
1000
0100
0000
0000
0010
0000
0001
0000
0010
0000
0100
0000
,
1000
0000
0000
0000
0001
0100
0000
0000
0010
0000
1000
0000
0100
0000
1000
0000
,
0010
0000
0000
0000
0100
0001
0000
0000
0100
0000
0010
0000
1000
0000
0100
0000
,
0010
0000
0000
0000
0001
0010
0000
0000
0100
0000
1000
0000
0001
0000
1000
0000
,
0001
0000
0000
0000
1000
0100
0000
0000
1000
0000
0100
0000
1000
0000
0100
0000
,
1000
0000
0000
0000
0100
0010
0000
0000
0100
0000
0010
0000
0100
0000
0010
0000
,
0100
0000
0000
0000
0010
0001
0000
0000
0010
0000
0001
0000
0100
0001
0000
0000
,
0100
0000
0010
0000
1000
0010
0000
0000
0100
0001
0000
0000
1000
0001
0000
0000
,
0200
0000
0000
0000
0000
0000
0000
0000
0322
0033
0000
0000
0000
0000
0000
0000
0000
0000
0000
0000
0000
0000
0000
0000
1000
0000
0000
0000
0001
0000
0000
0000
,
0100
1000
0001
1000
0100
0001
1000
0100
,
0001
1000
0010
0001
0100
0010
1000
0001
,
0100
1000
0001
1000
0100
0001
1000
0100
,
0001
0000
1000
0000
0010
0000
0001
0000
0100
0000
0010
0000
2000
0000
0000
3001
,
0200
0000
0000
1300
0002
0000
0000
1003
0200
0000
0000
0301
2000
0000
0000
3100
,
0002
0000
0000
1003
0020
0000
0000
0031
0200
0000
0000
0310
1000
0000
0010
0000
,
0100
0001
1000
0100
0010
0001
1000
0010
,
0100
0001
1000
0100
0010
0100
0020
0000
,
0200
0000
0000
0000
0000
0000
0000
0000
0330
0000
0000
0000
1000
0001
0000
0000
,
1000
0000
0001
0000
0100
0000
0010
0000
1000
0000
0100
0000
0010
0001
0000
0000
,
0010
0000
0100
0000
0001
0000
0100
0000
1000
0000
0010
0000
0100
0001
0000
0000
,
0100
0000
0010
0000
1000
0000
0100
0000
0010
0000
0001
0000
0010
0100
0000
0000
,
1000
0000
0010
0000
0100
0000
0001
0000
0100
0000
0010
0000
1000
0100
0000
0000
,
0010
0000
0001
0000
0010
0100
0000
0000
1000
0000
0010
0000
0100
0001
0000
0000
,
0100
0000
0010
0000
1000
0100
0000
0000
0010
0000
0001
0000
0010
0100
0000
0000
,
0010
0000
0001
0000
0100
0001
0000
0000
0100
0000
0010
0000
1000
0100
0000
0000
,
0010
0001
0000
0000
1000
0001
0000
0000
0100
0010
0000
0000
1001
0000
0000
0000
;

//---------------dance-single - Renard----------------
#NOTES:
     dance-single:
     Renard:
     Challenge:
     9:
     0.717,0.846,0.438,0.167,0.511:
0000
0000
0000
0000
2000
0100
3100
0000
,
0200
0010
0310
0000
0020
0001
0031
0000
,
2000
0001
3001
0000
0220
0000
1331
0000
,
2002
3113
2200
3311
,
0202
0000
0000
0000
1313
0000
0000
0000
1000
0100
0010
0001
1001
1001
1001
0000
,
0000
0000
1000
0010
0100
0001
0100
1000
,
0001
0010
1000
0010
0100
0001
1000
0100
,
0010
0001
0010
1000
0010
0100
1000
0100
,
0001
0100
1000
0010
0100
0001
0100
0010
,
1000
0100
0001
0100
0010
0001
0010
1000
,
0010
0100
1000
0100
0001
0100
1000
0010
,
0100
0001
0100
1000
0001
1000
0100
0001
,
0010
1000
0001
1000
0010
0001
0100
0010
,
1000
0000
0100
0000
0010
0000
0001
0010
0001
0000
0010
0000
0100
0000
1000
0000
,
0010
0000
0100
0000
0001
0000
1000
0100
1000
0000
0100
0000
0010
0000
0001
0000
,
1000
0000
0010
0000
0100
0000
0001
0100
0001
0000
0100
0000
0010
0000
1000
0000
,
0100
0000
0010
0000
0100
0000
1000
0100
1000
0000
0100
0000
0010
0000
0001
0010
,
0001
0000
0010
0000
0100
0000
1000
0100
1000
0000
0100
0000
0010
0000
0001
0000
,
0100
0000
0010
0000
1000
0000
0001
0010
0001
0000
0010
0000
0100
0000
1000
0000
,
0001
0000
0100
0000
0010
0000
1000
0010
1000
0000
0010
0000
0100
0000
0001
0000
,
0010
0000
0100
0000
0010
0000
0001
0010
0001
0000
0010
0000
0100
0000
1000
0100
,
1000
0100
1000
0000
1100
0000
1110
0000
,
1111
0000
0000
0000
1000
0100
0000
0000
0010
0000
0001
0010
0100
1000
0000
0000
,
0001
0000
0010
0100
1000
0100
0000
0000
0010
0000
0001
0010
0100
1000
0000
0000
,
0001
0000
0010
0100
0010
0001
0000
0000
1000
0000
0100
0010
0001
0010
0000
0000
,
0100
0000
1000
0001
0010
0100
0000
0000
1000
0000
0001
0010
0100
0010
0000
0000
,
0001
0000
0101
0000
1000
0001
0000
1000
0100
0000
0010
0001
0010
0100
0000
1000
,
0010
0000
0100
0001
1000
0100
0000
0010
0001
0000
0010
0100
1000
0001
0000
0010
,
0001
0000
0100
0010
1000
0100
1000
0100
0010
0001
0010
0001
1000
0010
1000
0010
,
0100
0000
0000
0001
0000
0000
0100
0000
0000
0001
0000
0000
1000
0000
0000
0100
0000
0000
0010
0000
0000
0001
0000
0000
0010
0000
0000
0100
0000
0000
1000
0000
0000
0001
0000
0000
1000
0000
0100
0000
1000
0000
0001
0000
0010
0000
0001
0000
,
2000
0000
3011
0000
0000
0000
1100
0010
,
0001
0100
1010
0100
1001
0010
0100
0001
,
0010
0100
1000
0010
1001
0100
1010
0100
,
0011
0100
1010
0100
0001
0100
0010
1000
,
0100
0010
1001
0100
1001
0010
0101
0010
,
1000
0100
0011
0100
1001
0100
1010
0100
,
0001
1000
0110
1000
0101
0010
0101
0010
,
1001
0100
1010
0100
1001
0010
1100
0010
,
0101
1000
0011
0100
1001
0100
2010
0000
,
0022
0000
0000
0000
0000
0000
3033
0000
0000
0000
0000
0000
1000
0001
0000
1000
,
0001
0000
1000
0001
1000
0010
0000
0100
0010
0000
0100
0010
0100
0001
0000
0100
,
0001
0000
0100
0001
0100
0010
0000
1000
0010
0000
1000
0010
0100
0001
0000
1000
,
0100
0000
0010
0001
0010
0100
0000
1000
0001
0000
0100
0010
1000
0010
0000
0100
,
0001
0000
0100
0010
1000
0100
0000
0010
0001
0000
0010
0100
1000
0001
0000
1000
,
0001
0000
1000
0000
0010
0100
0000
0010
0100
0000
0001
0000
1000
0100
0000
0010
,
0001
0000
0010
0000
0100
1000
0000
0001
0010
0000
0001
0000
1000
0100
0000
0100
,
0010
0000
0001
0000
0010
0100
0000
0100
1000
0000
0010
0000
0100
0001
0000
0001
,
1000
0000
0100
0000
0010
0001
0000
0001
0010
0100
1000
0100
1100
0000
0000
0000
;

//---------------dance-single - Renard----------------
#NOTES:
     dance-single:
     Renard:
     Medium:
     6:
     0.365,0.373,0.146,0.156,0.000:
0000
0000
0000
0000
1000
0100
0020
0000
,
0000
0031
0200
0000
0000
0310
2000
0000
,
0000
3100
0020
0000
0031
0000
0101
0000
,
0010
1100
0010
1001
,
0100
0000
2200
0000
0010
0001
0010
3311
,
0000
0000
1000
0000
0001
0100
0001
0000
,
1000
0100
1000
1000
0100
0000
0010
0000
,
0000
0000
0000
0001
0100
0000
0001
0000
,
1000
0001
0001
1000
,
0010
1000
0010
0000
0100
0000
0001
0000
,
1000
0000
0100
1000
0100
0000
1000
0000
,
0000
0001
0010
0001
,
0100
0000
0001
0000
1000
0000
0001
1000
,
0001
0100
0002
2003
,
0000
3200
0000
0310
,
0001
0000
0100
0000
0010
0000
1000
0100
,
0000
0011
0000
1100
0000
1010
0000
0000
,
0100
0001
0001
2000
,
0000
3200
0000
0310
,
0000
0000
0001
0000
0100
0000
0010
1000
,
0000
0101
0000
1010
0000
1100
0000
0010
,
0002
0000
0200
0000
0000
0000
1010
0303
,
0000
1000
0000
0010
,
0000
0100
0000
0001
,
0010
0100
1000
0000
0000
0000
0010
0000
,
0000
0100
0001
1000
,
0000
0100
0010
0000
0001
0000
0010
0000
,
0100
1000
0010
0000
0100
0000
0001
0000
,
0010
0001
1000
0000
0001
0100
0001
0000
,
1000
0100
1000
0001
1000
0001
1000
0001
,
1000
1001
0000
1000
,
0010
0100
0001
0000
1000
0000
0001
0001
,
1000
1000
0001
0001
1000
0000
0001
0000
,
0100
0010
1000
0000
0100
0000
0010
0010
,
0001
0001
0010
0010
0001
0000
0010
0000
,
0100
1000
0001
0000
0100
0000
0001
1000
,
0100
1000
0100
1000
0100
0000
1000
0000
,
0010
0100
0001
0000
1000
0000
0010
0100
,
0010
0100
0010
0010
0100
0000
2002
0000
,
0000
0000
0000
3003
0000
0000
1000
0000
,
0100
0000
0010
0001
0010
0000
0001
0000
,
0010
0000
0100
1000
0100
0000
1000
0000
,
0010
0000
0100
0001
0100
0000
0001
0000
,
0100
0000
0010
1000
0010
0000
1000
0000
,
0100
0000
0010
0001
0010
0001
0010
0000
,
0100
0000
1000
0010
1000
0010
0100
0000
,
0001
0000
1000
0100
0010
0000
0001
0000
,
0010
0000
0100
1000
0001
0100
0001
0000
;

//---------------dance-single - Renard----------------
#NOTES:
     dance-single:
     Renard:
     Easy:
     3:
     0.348,0.373,0.615,0.083,0.000: // measure 1
0000
0000
0001
0110
,  // measure 2
0000
1010
0000
0101
,  // measure 3
0000
0110
1000
1010
,  // measure 4
0100
0011
0100
1001
,  // measure 5
0010
0001
0100
0010
,  // measure 6
0000
0001
1000
1010
,  // measure 7
0001
0011
0011
0100
,  // measure 8
0000
0000
1010
1000
,  // measure 9
0001
1000
1000
0001
,  // measure 10
0100
0101
0010
1000
,  // measure 11
0001
0010
0011
0001
,  // measure 12
0000
1000
0100
1000
,  // measure 13
0010
1000
0001
1000
,  // measure 14
1001
0010
2000
3002
,  // measure 15
0000
0023
0000
0130
,  // measure 16
1000
0010
0100
0001
,  // measure 17
0010
1100
0011
0101
,  // measure 18
0010
1000
1000
0002
,  // measure 19
0000
0023
0000
0130
,  // measure 20
0000
1000
0010
0100
,  // measure 21
0001
1010
0101
0011
,  // measure 22
2100
0010
0010
0001
,  // measure 23
3000
0001
0000
0100
,  // measure 24
0000
0010
0000
1000
,  // measure 25
0100
0011
0000
0100
,  // measure 26
0000
0010
1000
0001
,  // measure 27
0000
0110
1000
0100
,  // measure 28
0010
0101
0010
1000
,  // measure 29
0100
1001
1000
1010
,  // measure 30
0001
0011
1001
1001
,  // measure 31
1001
1001
0000
0001
,  // measure 32
0100
1010
0001
1000
,  // measure 33
1001
1001
1001
1000
,  // measure 34
0010
0101
0010
0100
,  // measure 35
1100
1100
1100
0100
,  // measure 36
0010
1001
0010
1000
,  // measure 37
0011
0011
0011
0001
,  // measure 38
0100
1010
0001
0100
,  // measure 39
0110
0110
0110
2002
,  // measure 40
0000
0000
3003
0001
,  // measure 41
0010
0100
1100
1000
,  // measure 42
0100
0010
0011
0001
,  // measure 43
0100
0010
1010
1000
,  // measure 44
0010
0100
0101
0001
,  // measure 45
0010
0100
1100
1100
,  // measure 46
0010
0001
0101
0110
,  // measure 47
1000
0001
0110
1000
,  // measure 48
0100
0010
1001
1010
;
