#TITLE:Please;
#SUBTITLE:;
#ARTIST:Renard vs Kitsune²;
#TITLETRANSLIT:;
#SUBTITLETRANSLIT:;
#ARTISTTRANSLIT:;
#CREDIT:;
#BANNER:please.img;
#BACKGROUND:please-bg.img;
#LYRICSPATH:;
#CDTITLE:;
#MUSIC:please.ogg;
#OFFSET:0.000;
#SAMPLESTART:42.572;
#SAMPLELENGTH:12.000;
#SELECTABLE:YES;
#DISPLAYBPM:180..360;
#BPMS:0.000=360.294,460.000=180.147,462.000=360.294,474.000=180.147,476.000=360.294,488.000=180.147,490.000=360.294,506.000=180.147,539.000=360.294;
#STOPS:;
#BGCHANGES:;
#GENRE:Speedcore;

//---------------dance-single - Renard----------------
#NOTES:
     dance-single:
     Renard:
     Challenge:
     14:
     1.000,1.000,1.000,0.311,0.032: // measure 1
0000
0000
0000
0000
,  // measure 2
0000
0000
0000
0000
,  // measure 3
0000
0000
0000
0000
,  // measure 4
0000
0000
0000
0000
,  // measure 5
0000
0000
0000
0000
,  // measure 6
0000
0000
0000
0000
,  // measure 7
0000
0000
0000
0000
,  // measure 8
0000
0000
0000
0000
,  // measure 9
1100
0000
1010
0000
,  // measure 10
0101
0000
0011
0011
,  // measure 11
0101
0000
1001
0000
,  // measure 12
1001
0000
0000
0110
0000
0000
1001
0000
,  // measure 13
1001
0000
1010
0000
,  // measure 14
0101
0000
0011
0000
,  // measure 15
1000
0100
1000
0100
0010
0001
0010
0001
,  // measure 16
1000
0010
1000
0010
0100
0001
0100
0001
,  // measure 17
0101
0000
0010
1010
,  // measure 18
0000
1000
1100
0100
,  // measure 19
0110
0010
0011
0001
,  // measure 20
0101
0100
0110
0010
,  // measure 21
1010
0000
1100
1010
,  // measure 22
0000
1001
0101
0011
,  // measure 23
0101
0100
0110
0010
,  // measure 24
1010
0000
1000
0010
1000
0000
0010
0000
,  // measure 25
1010
0000
0100
0101
,  // measure 26
0000
0001
0011
0010
,  // measure 27
0110
0100
1100
1000
,  // measure 28
1010
0010
0110
0100
,  // measure 29
0101
0000
0011
0101
,  // measure 30
0000
1001
1010
1100
,  // measure 31
1010
0010
0110
0100
,  // measure 32
0101
0000
1010
0000
,  // measure 33
0001
0000
1000
0001
1000
0000
0010
0000
,  // measure 34
1000
0000
0100
1000
0100
0000
1000
0000
,  // measure 35
0001
0000
0010
0001
0010
0000
0001
0100
,  // measure 36
0101
0000
0011
0000
,  // measure 37
0011
0000
0011
0000
0010
0001
0000
0100
,  // measure 38
0010
0000
1000
0000
0100
1000
0100
0000
,  // measure 39
0011
0000
0011
0000
0100
1000
0000
0001
,  // measure 40
0100
0000
1001
0000
,  // measure 41
1000
0000
0100
1000
0100
0000
1000
0000
,  // measure 42
0010
0000
0100
0001
0100
0000
0001
0000
,  // measure 43
0010
0000
0100
1000
0001
0000
0100
0000
,  // measure 44
1001
0000
1001
0000
,  // measure 45
1010
0000
1010
0000
0100
0001
0000
0001
,  // measure 46
0100
0000
0010
0000
1000
0010
0000
1000
,  // measure 47
1010
0000
1010
0000
0001
0100
0000
0010
,  // measure 48
0110
0000
0000
0000
,  // measure 49
1000
0000
0100
0000
0010
0000
0001
0010
,  // measure 50
0100
0000
1000
0000
0010
0000
0100
0001
,  // measure 51
0100
0000
0010
0000
1000
0000
0100
0010
,  // measure 52
0110
0000
0000
0000
,  // measure 53
0010
0000
0001
0010
0100
0000
1000
0000
,  // measure 54
0010
0000
0100
0001
0100
0000
0010
0000
,  // measure 55
1000
0000
0100
0010
0001
0000
0010
0100
,  // measure 56
0110
0000
0000
0000
,  // measure 57
0010
0000
0001
0010
0001
0000
1000
0100
,  // measure 58
1000
0000
0010
1000
0010
0000
0100
0001
,  // measure 59
0100
0010
1000
0100
0010
0001
0010
0100
,  // measure 60
0110
0000
0000
0000
,  // measure 61
0001
0000
1000
0100
1000
0000
0001
0010
,  // measure 62
0001
0000
1000
0100
0010
0001
1000
0001
,  // measure 63
1000
1000
0001
0001
,  // measure 64
2002
0000
0000
3003
,  // measure 65
1100
0000
1010
0000
1001
0000
0001
0100
,  // measure 66
0001
0010
0001
0000
1000
0100
0010
0001
,  // measure 67
1000
1000
0100
0100
,  // measure 68
0011
0000
1001
0000
,  // measure 69
0011
0000
0101
0000
1001
0000
0100
0001
,  // measure 70
0100
0010
0100
0001
0100
0000
0010
1000
,  // measure 71
0010
0000
0100
0000
0001
1000
0001
0000
,  // measure 72
0100
0100
0100
0100
,  // measure 73
0010
0000
1000
0010
1000
0000
0010
0000
,  // measure 74
0100
0000
0001
0100
0001
0000
0010
0000
,  // measure 75
0100
0000
1000
0001
1000
0000
0001
0000
,  // measure 76
2000
0001
0001
0000
,  // measure 77
3001
0001
1000
1000
,  // measure 78
0010
0000
0100
0001
0100
0000
0010
0000
,  // measure 79
0100
0001
0100
0010
1000
0100
0010
0001
,  // measure 80
0010
0100
1000
0001
0100
0000
0000
0000
,  // measure 81
0101
0000
0010
1000
0010
0000
0100
0001
,  // measure 82
0100
0000
0010
1000
0010
0000
1000
0100
,  // measure 83
1100
0000
0010
0001
0010
0100
1000
0001
,  // measure 84
0100
0000
0001
0001
0001
0000
0001
0000
,  // measure 85
1100
0000
0010
0001
0010
0000
1100
0000
,  // measure 86
0011
0000
0001
0100
0010
0000
1010
0000
,  // measure 87
0101
0000
1000
0001
0100
0010
1000
0010
,  // measure 88
0200
0001
0002
0300
,  // measure 89
0013
0000
0100
1000
0100
0000
0010
0001
,  // measure 90
0010
0000
0100
1000
0100
0000
1100
0000
,  // measure 91
0011
0000
0001
0100
0010
1000
0001
1000
,  // measure 92
2002
0000
0000
3003
,  // measure 93
1000
0100
0010
0000
0001
0010
0100
0000
,  // measure 94
1000
0010
0001
0000
1000
0100
0001
0000
,  // measure 95
0010
0100
1000
0100
0010
0001
0010
0100
,  // measure 96
2000
0000
3002
0000
,  // measure 97
1003
0100
0010
0001
0010
0100
1000
0000
,  // measure 98
0001
0100
0001
0000
1010
0000
0001
0100
,  // measure 99
0010
1000
0100
0010
0001
0100
0010
1000
,  // measure 100
1010
1010
0200
0000
,  // measure 101
0301
0010
0000
0010
0100
0000
1000
0100
,  // measure 102
0000
0100
0010
0000
0001
0000
0001
0010
,  // measure 103
0100
1000
0001
0000
1000
0100
0010
0001
,  // measure 104
0000
1000
2002
3000
,  // measure 105
1003
0100
1000
0001
0010
0100
1000
0000
,  // measure 106
0010
0100
0001
0000
0100
0000
0010
1000
,  // measure 107
0001
0100
0010
1000
0100
0010
0001
0010
,  // measure 108
0110
0110
0000
0000
,  // measure 109
0010
0001
0000
0010
0100
0000
1000
0010
,  // measure 110
0000
0100
0001
0000
0100
0000
1000
0001
,  // measure 111
0010
1000
0001
0100
0010
1000
0100
0010
,  // measure 112
0001
0001
0001
0000
,  // measure 113
1000
0100
0010
0001
0100
0010
1000
0010
,  // measure 114
0100
0001
0010
1000
0010
0100
1000
0010
,  // measure 115
0100
0001
0100
0010
1000
0100
1000
0001
,  // measure 116
0010
0000
1100
0000
,  // measure 117
0011
0000
0000
0000
0001
0000
0010
0000
0000
0000
0010
0000
,  // measure 118
0100
0000
0000
0000
0000
0000
0000
0000
0100
0000
0000
0000
1000
0000
0000
0100
0000
0000
0010
0000
0000
0001
0000
0000
,  // measure 119
0010
0100
1000
0001
0100
0000
0000
0000
,  // measure 120
0010
1000
0001
0100
0010
1000
0100
0001
,  // measure 121
0100
0010
0001
0010
0100
1000
0010
0100
,  // measure 122
0001
0100
0010
1000
0001
0100
0010
0100
,  // measure 123
0001
0000
1100
0000
,  // measure 124
0011
0000
0101
0000
,  // measure 125
1010
0000
0000
0000
0001
0100
0001
0100
,  // measure 126
0001
0100
0001
0100
0001
0100
0001
0000
0000
0000
0000
0000
,  // measure 127
1010
0000
0000
MMMM
M002
M000
M2M0
M0M3
,  // measure 128
20MM
03MM
02MM
30MM
M0M2
M3M0
MM20
MM03
,  // measure 129
2M0M
0M3M
0M2M
3M0M
MM02
MM30
MM20
MM03
,  // measure 130
MM02
MM30
M2M0
M0M3
M310
010M
M01M
M00M
,  // measure 131
1M1M
MMMM
0000
MMMM
M1MM
M00M
M2MM
M0MM
,  // measure 132
M0M1
00M0
M3M2
M000
MM10
M000
MM23
0M00
,  // measure 133
2M0M
0M3M
0M2M
3M0M
MM31
01M0
200M
000M
,  // measure 134
02MM
30MM
M0M2
M3M0
MM10
M000
MM23
0M0M
,  // measure 135
M20M
M00M
M33M
MMMM
0000
0000
1001
0000
,  // measure 136
0000
1010
1010
0101
,  // measure 137
0000
0000
1001
0000
1001
0000
0100
0010
,  // measure 138
0100
0000
1001
0000
1001
0000
0100
0010
,  // measure 139
0100
0110
0110
1001
,  // measure 140
1000
0100
0010
0001
0010
0100
1000
0000
,  // measure 141
0000
0000
1001
0000
1001
0000
0010
0100
,  // measure 142
0010
0000
1001
0000
1001
0000
0010
0100
,  // measure 143
0010
0110
0110
1001
,  // measure 144
0001
0010
0100
1000
0100
0010
0001
0000
,  // measure 145
0000
0000
1000
0100
1000
0001
0010
0001
,  // measure 146
1000
0010
0100
0001
0010
0100
1000
0010
,  // measure 147
0100
0001
0100
1000
0100
0001
0010
0100
,  // measure 148
1000
0100
0001
0000
0001
0000
0001
0000
,  // measure 149
0001
0000
0100
0010
0001
0010
0100
1000
,  // measure 150
0010
0100
0001
0100
0010
1000
0010
0100
,  // measure 151
0001
0010
0100
0010
0100
1000
0010
0100
,  // measure 152
0001
0100
1000
0100
0010
0100
0001
0100
,  // measure 153
0010
0100
0110
0000
0000
0000
0000
0000
;
