#TITLE:Plasticworld;
#SUBTITLE:;
#ARTIST:Pendulum feat. Fats & TC;
#GENRE:Jazzstep;
#TITLETRANSLIT:;
#SUBTITLETRANSLIT:;
#ARTISTTRANSLIT:;
#CREDIT:;
#BANNER:plastic.png;
#BACKGROUND:plastic-bg.png;
#LYRICSPATH:;
#CDTITLE:;
#MUSIC:plastic.ogg;
#OFFSET:0.000;
#SAMPLESTART:33.103;
#SAMPLELENGTH:11.000;
#SELECTABLE:YES;
#BPMS:0.000=174.000;
#STOPS:;
#BGCHANGES:;

//---------------dance-single - Renard----------------
#NOTES:
     dance-single:
     Renard:
     Hard:
     9:
     0.502,0.611,0.059,0.017,0.055:
0000
0000
0000
0000
,
0000
0000
0000
0000
,
0000
0000
0000
0000
,
0000
0000
0000
0000
,
1000
0000
1000
0000
,
0001
0000
0001
0000
,
0100
0100
0010
0010
,
1000
0000
0001
0000
1000
0001
1000
0000
,
0001
0000
0000
0000
1000
0000
0000
1000
0010
0000
0100
0000
0001
0000
0010
0000
,
0100
1000
0010
0100
0001
1000
0010
1000
,
0001
0000
0000
0000
1000
0000
0000
1000
0100
0000
1000
0000
0010
0000
0100
0000
,
0001
0000
0010
0000
0001
0000
1000
0000
0001
0000
1000
0001
1000
0000
0000
0000
,
0001
0000
0000
0001
0100
0000
0010
0000
1000
0000
0000
1000
0100
0000
1000
0000
,
0010
0100
0001
1000
0100
1000
0001
1000
,
0001
0000
0001
0100
1000
0000
0001
0010
,
1000
0000
0001
0100
1000
0100
0001
1000
,
0100
0000
0000
0100
1000
0000
0010
0000
0100
0000
0001
0000
0010
0000
0100
0000
,
1000
0010
0100
0001
,
1000
0000
0000
1000
0100
0000
0010
0000
0001
0000
0010
0000
0100
0000
1000
0000
,
0010
0000
0010
0100
0001
0000
0001
1000
,
0100
0000
0000
0100
1000
0000
0010
0000
0100
0000
0000
0100
0001
0000
0010
0000
,
0100
0000
0000
0100
1000
0000
0010
0000
0100
0000
0001
1000
0001
0000
1000
0000
,
0001
0000
0100
0010
1000
0000
0100
0010
,
0001
1000
0010
0100
,
0001
0000
1000
0100
0001
0000
1000
0010
,
0001
0000
1000
0010
0001
0000
1000
0100
,
0001
0000
0010
0001
1000
0100
0010
0001
,
1000
0010
0100
0001
1000
0100
1000
0000
,
1001
1000
1010
1000
,
1001
1000
1100
0000
,
0001
0010
1000
0001
,
0100
0000
1000
0000
0010
0100
0001
0100
,
1000
0000
1000
0100
0001
0000
0001
0010
,
0001
0000
1000
0001
0100
0010
0100
0000
,
0010
0100
0001
0100
1000
0100
0001
0010
,
1000
0010
0001
1000
0100
1000
0010
0000
,
0010
0000
1000
0001
0100
0000
0100
0001
,
1000
0000
1000
0100
0010
0000
0001
1000
,
0010
0000
0010
0100
0001
1000
0100
1000
,
0001
1000
0010
0100
0001
1000
0001
0000
,
0001
0100
0000
0000
0010
1000
0000
0000
,
0100
0010
0001
0010
0100
1000
0010
0000
,
0100
0001
0000
0000
1000
0010
0000
0000
,
1000
0100
0010
0100
1000
0010
0100
0001
,
0100
0001
0000
0000
1000
0010
0000
0000
,
1000
0100
0010
0001
0010
0100
1000
0010
,
0100
0001
1000
0001
1000
0100
1000
0100
,
0010
0001
0010
0001
0010
0001
1000
0001
,
0100
0000
0010
1000
0001
0000
0001
0100
,
0010
0000
0010
1000
0100
0000
0010
0001
,
1000
0000
0010
0100
0001
0000
1000
0100
,
0010
0000
0001
1000
0001
1000
0001
0000
,
1000
0000
1000
0010
0100
0000
0100
0001
,
0010
0000
0010
0100
1000
0000
1000
0001
,
1000
0010
0100
0001
,
1000
0011
0100
1010
,
0101
0000
1000
0000
0001
0100
0010
0000
,
1000
0000
0100
0000
0010
0001
0010
0100
,
1000
0010
0100
0001
,
1000
0000
0001
0000
0100
0001
1000
0100
,
1000
1000
0001
0001
,
0100
1000
0001
0010
,
1000
0000
0100
0000
0001
0100
1000
0010
,
0001
0010
1000
0001
,
0100
0010
1000
0100
,
0010
0001
1000
0010
0100
0001
1000
0100
,
0010
0001
1000
0010
,
0100
0001
1000
0000
0001
1000
0100
0000
,
1000
0000
1000
0100
0000
0100
0010
0001
,
1000
0000
1000
0010
0000
0010
0100
0001
,
0010
0000
0100
1000
0010
0100
0001
0000
,
1000
0000
1000
0001
0000
0001
0100
0000
,
0010
0000
0000
0010
,
0000
0000
0100
0000
,
0001
0000
0000
0000
,
0000
0000
0000
0000
0000
0000
0000
0000
0000
0000
0000
0100
0000
0000
0000
0000
0000
0000
0000
0000
0000
0000
0000
0000
0000
0000
0000
0000
0000
0000
0000
0000
,
0000
0001
0000
0000
0000
0000
0000
0000
0000
0000
0000
0000
0000
0000
0000
0000
,
0000
0000
2000
0000
,
0000
0000
0002
0000
,
0000
0000
0000
0000
,
0000
0000
3003
0000
;

//---------------dance-single - Renard----------------
#NOTES:
     dance-single:
     Renard:
     Medium:
     6:
     0.289,0.341,0.008,0.430,0.000:
0000
0000
0000
0000
,
0000
0000
0000
0000
,
0000
0000
0000
0000
,
0000
0000
0000
0000
,
2000
0000
0000
0000
,
0000
0000
0000
0000
,
3020
0000
0230
0000
,
0302
0000
2003
0000
,
3100
0000
0010
0000
0000
0001
0010
0000
,
0100
0000
1000
0000
0000
0010
0100
0000
,
0001
0000
1000
0000
0000
0001
1000
0000
,
0100
0000
0010
0000
0000
0001
1000
0000
,
0001
0000
0100
0000
0000
0001
1000
0000
,
0010
0000
1000
0000
0000
0001
1000
0000
,
0100
0000
0000
0100
0010
0000
0000
0010
,
0001
0100
0010
1000
,
0100
0000
0000
1000
0001
0000
0000
0000
,
0100
0010
1000
0000
,
0100
0000
0000
0010
0001
0000
0000
0000
,
0010
0100
1000
0010
,
0100
0000
0000
0001
1000
0000
0000
0000
,
0100
0010
0001
0010
,
0100
0100
1000
1000
,
0010
0100
0001
0000
,
1000
0000
1000
0100
,
0001
0000
0001
0100
,
1000
0100
0001
0000
,
0001
0010
1000
0000
,
2000
0000
0000
0000
,
3002
0000
0000
0000
,
0203
0000
2300
0000
,
3020
0000
0032
0000
,
0203
0000
0000
0000
,
0302
0000
2003
0000
,
3200
0000
0000
0000
,
0000
0000
0000
0000
,
0320
0000
0000
0000
,
0032
0000
0000
0003
,
2000
0000
3200
0000
,
2300
0000
0000
0000
0020
3000
0000
0000
,
0130
0100
0100
0100
,
0001
0000
1000
0000
0100
0000
0010
0001
,
1000
0000
0001
0100
,
0010
0000
1000
0010
1000
0000
0000
0000
,
0101
0000
0010
1000
,
0100
0000
0010
0001
0010
0000
0100
0000
,
1000
0000
0010
0100
,
0001
1000
0100
0010
,
0001
0000
0000
0000
0010
0100
0000
0100
,
1000
0000
0000
0000
0010
0100
0000
0100
,
0001
0000
0000
0000
1000
0100
0000
0100
,
0010
0000
0000
0000
0001
0100
0001
0000
,
1000
0000
0000
0000
0001
1000
0000
0001
,
1000
0000
0000
0000
0001
1000
0001
0000
,
1000
0000
0010
0100
,
0002
0000
2003
0000
,
3200
0000
0000
0000
,
0000
0000
2300
0000
,
3020
0000
0000
0000
,
0000
0000
0230
0000
,
0302
0000
0000
0000
,
2003
0000
3200
0310
,
0002
0000
0000
0000
0000
0003
0010
0100
,
2000
0000
0000
0000
,
3020
0000
0000
0000
,
0000
0000
0230
0301
,
2000
0000
3200
0000
,
0320
0000
0031
0010
,
0200
0000
0000
0000
,
2300
0000
3010
0100
,
0002
0000
0000
0000
0023
0000
0000
0030
,
0002
0000
2003
0000
,
3020
0000
0000
0000
0000
0030
0200
0000
,
0000
0000
0000
0002
0300
0000
0000
0000
,
2003
0000
0000
0000
,
0000
0000
3200
0000
,
0000
0320
0000
0000
0000
0000
0000
0000
,
0000
0000
0032
0000
,
0000
0000
2000
0000
,
0000
0000
0000
0000
,
0000
0000
0000
0000
,
3003
0000
0000
0000
;

//---------------dance-single - Renard----------------
#NOTES:
     dance-single:
     Renard:
     Easy:
     4:
     0.228,0.331,0.185,0.000,0.000:
0000
0000
0000
0000
,
0000
0000
0000
0000
,
0000
0000
0000
0000
,
0000
0000
0000
0000
,
0001
0000
0000
0000
,
0000
0000
0000
0000
,
0100
0000
0010
0000
,
1000
0000
0001
0000
,
0010
0100
0000
1100
,
0010
0001
0000
0110
,
1000
0001
0000
1001
,
0010
0100
0000
1001
,
1000
0010
0000
1001
,
0100
0001
0000
1001
,
0010
0000
0110
0000
,
1100
0010
0100
0001
,
0010
0000
1001
0000
,
0010
0100
0001
0000
,
0010
0000
1100
0000
,
0100
0010
0001
0100
,
0010
0000
1001
0000
,
0010
0100
1000
0100
,
0010
0010
0001
0001
,
0100
0010
1000
0000
,
0001
0000
0001
0010
,
1000
0000
1000
0010
,
0001
0010
1000
0000
,
1000
0100
0001
0000
,
0001
0000
0000
0000
,
1000
0000
0000
0000
,
0010
0000
0001
0000
,
0100
0000
1000
0000
,
0010
0000
0000
0000
,
1000
0000
0001
0000
,
0010
0000
0000
0000
,
0000
0000
0000
0000
,
0100
0000
0000
0000
,
1000
0000
0000
0000
,
0001
0000
0010
0000
,
0001
0000
0100
0000
,
0010
0010
0010
0010
,
1000
0001
0010
0100
,
1001
0000
1000
0010
,
0100
0001
0101
0000
,
1010
0000
0100
0001
,
0010
0100
1100
0010
,
0001
0000
0100
0010
,
1000
0001
0010
0100
,
1000
0000
0100
0010
,
0011
0000
0100
0010
,
1010
0000
0001
0010
,
0110
0000
1000
1010
,
0001
0000
1000
0001
,
1001
0000
1000
1001
,
0001
0000
0100
0010
,
1000
0000
0001
0000
,
0010
0000
0000
0000
,
0000
0000
0001
0000
,
0100
0000
0000
0000
,
0000
0000
0010
0000
,
1000
0000
0000
0000
,
0001
0000
0010
0100
,
1000
0000
0000
0100
,
0011
0000
0000
0000
,
0100
0000
0000
0000
,
0000
0000
0010
1000
,
0001
0000
0010
0000
,
0100
0000
1000
0100
,
0010
0000
0000
0000
,
0001
0000
0100
0010
,
1000
0000
0100
0000
,
1000
0000
0001
0000
,
0100
0000
0000
0010
,
0000
0000
1000
0000
,
0001
0000
0000
0000
,
0000
0000
0010
0000
,
0000
0100
0000
0000
,
0000
0000
1000
0000
,
0000
0000
0001
0000
;

//---------------dance-single - BlueChaos----------------
#NOTES:
     dance-single:
     BlueChaos:
     Challenge:
     11:
     0.759,0.817,0.337,0.287,0.417: // measure 1
0000
0000
0000
0000
,  // measure 2
0000
0000
0000
0000
,  // measure 3
2000
0000
0100
0000
,  // measure 4
0010
0000
0001
0000
,  // measure 5
3200
0000
0010
0000
,  // measure 6
0001
0000
1000
0000
,  // measure 7
0320
0000
0032
0000
,  // measure 8
0203
0000
0320
0000
,  // measure 9
1030
0000
0100
0000
0010
0000
0100
0000
1000
0000
0001
0000
0101
0000
0000
0001
,  // measure 10
0100
0000
0001
1000
0100
0000
1000
0100
1000
0100
0010
0000
0011
0000
0000
0000
,  // measure 11
0001
0100
0101
0001
1000
0100
0110
0000
,  // measure 12
0100
0000
0010
0000
0001
0000
0100
0000
0010
1000
0010
1000
0001
0000
0010
0000
,  // measure 13
0001
0000
0100
0000
0010
0000
1000
0000
0100
0010
0001
0010
0100
0000
1000
0000
,  // measure 14
0100
0000
1000
0000
0010
0000
0100
0000
0001
1000
0010
0000
0100
0000
0001
0000
,  // measure 15
1000
0010
0100
0001
0010
0100
0010
0001
,  // measure 16
1000
0000
0100
0000
0001
0000
0100
0000
1000
0010
0100
0001
1000
0000
0001
0000
,  // measure 17
0020
0000
0000
0000
0130
0000
1000
0000
0010
1000
0001
1000
0100
0000
1000
0000
,  // measure 18
1010
0000
0000
0000
0100
0000
0001
0000
0010
0100
0010
0001
1000
0000
0001
0000
,  // measure 19
0101
0000
0000
0000
0010
0000
0100
0000
0010
1000
0100
0010
0100
0000
0010
0000
,  // measure 20
1001
0000
0000
0000
1000
0000
0010
0000
0100
0010
1000
0100
0010
0000
0001
0000
,  // measure 21
2000
0000
0000
0000
3001
0000
0100
0000
0001
1000
0100
0000
1100
0000
0000
0000
,  // measure 22
1001
0000
0000
0000
1010
0000
0000
0000
1000
0010
1000
0100
1000
0000
0000
0000
,  // measure 23
2100
0000
0001
0001
3002
0000
0010
0010
,  // measure 24
0023
0000
0100
0100
0230
0000
0000
0000
,  // measure 25
1300
0000
0001
0100
0010
0000
0000
0000
0100
0000
0010
1000
0100
0000
0000
0000
,  // measure 26
1000
0000
0100
0010
0001
0000
1000
0000
0001
0100
0010
0000
1001
0000
0000
0000
,  // measure 27
1000
0000
0001
0100
0010
0000
0000
0000
1000
0000
0100
0010
0001
0000
0000
0000
,  // measure 28
0010
0000
0100
1000
0001
0000
0100
0000
0010
1000
0100
0000
1100
0000
0000
0000
,  // measure 29
1000
0000
0001
0100
0001
0000
0000
0100
0010
0000
1000
0000
0100
0000
0000
1000
,  // measure 30
0100
0000
1000
0000
0001
0000
0000
1000
0001
0010
0100
0000
1100
0000
0000
0000
,  // measure 31
1000
0000
0100
0010
0100
0000
0000
0010
0001
0000
0010
0000
0100
0000
0000
1000
,  // measure 32
0010
0000
0100
0000
0010
0000
0000
1000
0001
0010
0100
0000
1100
0000
0000
0000
,  // measure 33
1000
0000
0001
0100
0010
0000
0100
0000
0010
0000
1000
0000
0100
0000
0010
0000
,  // measure 34
0001
0000
0010
0100
1000
0000
0010
0000
0100
0010
1000
0001
0010
0000
0100
0000
,  // measure 35
1000
0000
0100
1000
0001
0000
1000
0000
0100
0000
0001
0000
0100
0000
1000
0000
,  // measure 36
0001
0000
0100
0001
0010
0000
0001
0000
1000
0001
0100
0001
0010
0000
0001
0000
,  // measure 37
0100
0000
0010
1000
0001
0000
0010
0000
0100
0000
1000
0000
0010
0000
0100
0000
,  // measure 38
0001
0000
0100
0001
0010
0000
0100
0000
1000
0010
1000
0010
0100
0000
0001
0000
,  // measure 39
0010
0000
0100
1000
0010
0000
0001
0000
0010
0000
1000
0000
0100
0000
0010
0000
,  // measure 40
0001
0000
0010
0100
1000
0000
0100
0000
0010
0001
0010
0001
1000
0000
0001
0000
,  // measure 41
0202
0000
0000
0000
0303
0000
0000
0100
0001
0000
0100
0000
1000
0000
0100
0000
,  // measure 42
0001
0000
0000
0010
0100
0000
0010
0000
0001
0000
0100
0000
1000
0000
0100
0000
,  // measure 43
0020
0000
0000
0130
0001
0000
0010
0000
0100
0000
1000
0000
0100
0000
0010
0000
,  // measure 44
0001
0000
0000
0100
0010
0000
0100
0000
1000
0000
0100
0000
0001
0000
1000
0000
,  // measure 45
0200
0000
0000
1300
0001
0000
0100
0000
1000
0000
0100
0000
0010
0000
0100
0000
,  // measure 46
0001
0000
0000
1000
0100
0000
1000
0000
0100
0000
0001
0000
0100
0000
1000
0000
,  // measure 47
0002
0000
0000
0000
0000
0003
1000
0000
0010
0000
0000
0000
0100
0000
0000
0000
0010
0000
0000
0000
0001
0000
0000
0000
0010
0000
0000
0000
1000
0000
0000
0000
,  // measure 48
0001
0010
0100
0010
0001
1000
0010
0001
,  // measure 49
0020
0000
0000
0000
1000
0000
0000
0030
1000
0000
0010
0000
1000
0000
0001
0000
,  // measure 50
1000
0000
0001
0000
0001
0000
0100
0000
0010
1000
0020
0000
1000
0000
0000
0000
,  // measure 51
0001
0000
0100
0000
1030
0100
0010
0100
,  // measure 52
1000
0000
0001
0000
0100
0000
0010
0000
1000
0001
2000
0000
0100
0000
0000
0000
,  // measure 53
0001
0000
0010
0000
3100
1000
0001
1000
,  // measure 54
2001
3010
1002
0013
,  // measure 55
2100
0000
3001
0000
1000
0001
1000
0010
,  // measure 56
1000
0100
0010
0001
0021
0000
0130
0000
,  // measure 57
0210
0000
0000
0000
1300
0000
0100
0000
0010
0001
1000
0001
0100
0000
0001
0000
,  // measure 58
0100
0000
0001
0010
0100
0000
1000
0000
0100
1000
0010
0000
0100
0000
0001
0000
,  // measure 59
1000
0000
0010
1000
0100
0000
0010
0000
0001
0010
0001
0010
0100
0000
1000
0000
,  // measure 60
0001
0000
0100
0010
0100
0000
0001
0000
0010
0100
0010
0000
0100
0000
1000
0000
,  // measure 61
0001
0000
0100
0010
1000
0000
0010
0000
0100
0001
1000
0100
1000
0000
0100
0000
,  // measure 62
0010
0000
0001
1000
0010
0000
1000
0000
0010
0100
0001
0010
0100
0000
0010
0000
,  // measure 63
0100
0000
1000
0001
0100
0000
0010
0000
0100
0010
1000
0001
1000
0000
0001
0000
,  // measure 64
0011
0000
0000
0000
1001
0000
0000
0000
0001
0100
0010
1000
0100
0000
0000
0000
,  // measure 65
1100
0000
0000
0000
1001
0000
0000
0000
1000
0001
0100
0010
1000
0000
0000
0000
,  // measure 66
1010
0000
0000
0000
0101
0000
0000
0000
0100
0001
0010
0100
0010
0000
0000
0000
,  // measure 67
0110
0000
0000
0000
1100
0000
0000
0000
1000
0100
0010
0001
1000
0000
0000
0000
,  // measure 68
1001
0000
0000
0000
0011
0000
0000
0000
0001
0100
0010
1000
0010
0000
0000
0000
,  // measure 69
1010
0000
0000
0000
1100
0000
0000
0000
1000
0001
0100
0010
1000
0000
0001
0000
,  // measure 70
0101
0000
0100
0000
0010
0000
1000
0000
0100
0010
0001
0010
0100
0000
1000
0000
,  // measure 71
1100
0000
1000
0000
0001
0000
0100
0000
0010
1000
0001
0010
0100
0000
1000
0000
,  // measure 72
1001
0001
1001
0000
0101
0100
0101
0001
,  // measure 73
2002
0003
0000
3200
,  // measure 74
0000
0000
0320
0000
,  // measure 75
0032
0000
0000
0000
,  // measure 76
0000
0000
0000
2000
0003
0000
0000
0000
,  // measure 77
0000
3020
0000
0000
0000
0000
0000
0000
,  // measure 78
0000
0000
0230
0000
,  // measure 79
0000
0000
0000
0001
0002
0000
0000
0000
,  // measure 80
0000
0000
0000
0000
,  // measure 81
0000
0000
0000
0303
;
