#TITLE:Pack of Wolves (Pendulum Remix);
#SUBTITLE:;
#ARTIST:Nightbreed;
#GENRE:Drum N Bass;
#TITLETRANSLIT:;
#SUBTITLETRANSLIT:;
#ARTISTTRANSLIT:;
#CREDIT:;
#BANNER:wolves.png;
#BACKGROUND:wolves-bg.png;
#LYRICSPATH:;
#CDTITLE:;
#MUSIC:wolves.ogg;
#OFFSET:0.010;
#SAMPLESTART:38.021;
#SAMPLELENGTH:12.000;
#SELECTABLE:YES;
#BPMS:0.000=176.650,16.000=88.325,48.000=176.650;
#STOPS:;
#BGCHANGES:;

//---------------dance-single - Renard----------------
#NOTES:
     dance-single:
     Renard:
     Hard:
     9:
     0.643,0.942,0.704,0.000,0.147:
0000
0000
0000
0000
,
0000
0000
0000
0000
,
0000
0000
0000
0000
,
0000
0000
0000
0000
,
1001
0000
1000
0001
0100
0000
0100
0010
1000
0000
1000
0100
1000
0000
1000
0010
,
0100
0000
0100
0001
0100
0000
0001
0010
0100
0000
0100
1000
0010
0000
0010
1000
,
0001
0000
0001
0100
0001
0000
1000
0100
1000
0000
1000
0100
1000
0000
1000
0010
,
0100
0000
0100
0001
0010
0000
0010
0001
1000
0000
1000
0001
0100
0000
0010
0000
,
1010
0000
0011
0000
1010
0000
0110
0000
0011
0000
0001
0010
1000
0010
0001
0000
,
0110
0000
0101
0000
1100
0000
0101
0000
0001
0100
1000
0100
0001
0000
0001
0000
,
1000
0000
0100
0000
1000
0010
0100
0001
0100
0001
1000
0100
0010
0001
0010
0000
,
0001
0010
1000
0000
1000
0010
0001
0000
0001
0100
1000
0000
1000
0100
0001
0000
,
1001
0000
1100
0000
1000
0010
0100
0000
,
0001
0000
0011
0000
0001
0010
0100
0000
,
1000
0000
1001
0000
1000
0010
0100
0000
,
0001
0000
1100
0000
0100
1000
0010
0000
,
0100
0000
0000
0100
0001
0000
1000
0000
,
0100
0000
0000
0100
1000
0000
0010
0000
,
1010
0000
0000
1000
1100
0000
0000
0100
,
0110
0010
0011
0110
,
1100
0000
1010
0000
0101
0000
0001
0100
,
1000
0100
0001
0010
0100
1000
0010
0100
,
0001
1001
0100
1100
,
1000
0100
0001
0100
1000
0100
1000
0000
,
1100
0000
0101
0000
0011
0011
0000
0110
,
0110
0000
1100
1100
0000
1010
1010
0000
,
0010
0100
0001
0100
1000
0100
0001
0010
,
0100
0010
0001
0010
1000
0010
0001
0010
,
0100
0000
0100
1000
0000
1010
0000
0101
,
0000
0001
0010
0100
1000
0010
0100
0001
,
1000
0100
0010
0001
0000
0011
0000
0110
,
0000
0100
1000
0010
0100
0001
0100
0010
,
1000
0000
1100
0000
0100
1000
0010
0100
,
0001
0000
0011
0000
0001
0010
0100
1000
,
0001
0000
1010
0000
0100
0001
0100
0010
,
1000
0000
1100
0000
0100
1000
0010
0000
,
0101
0000
0100
0001
0000
0001
0100
0010
,
1000
0100
0010
0001
0010
0100
1000
0000
,
1100
0000
1000
0010
0100
0001
0010
0000
,
0011
0110
1010
0110
,
0100
1000
0100
0001
0100
1000
0010
0100
,
0001
0100
0010
0000
0010
0100
0000
0100
,
1000
0100
0001
0010
0100
0010
1000
0010
,
0001
0010
0001
0000
0001
0010
0000
0010
,
0100
1000
0010
1000
0000
1000
0010
0000
,
0010
0100
0001
0100
1000
0100
0001
0010
,
1000
0010
0001
0010
0000
0010
0100
0000
,
0100
1000
1100
0000
0100
0010
0110
0000
,
0010
0001
0010
1000
0000
1000
0010
0000
,
0010
0100
1000
0010
0100
0001
0100
1000
,
0100
0001
0100
0010
1000
0100
1000
0001
,
1000
1010
0101
0011
,
0010
0000
0000
0010
0100
0000
1000
0000
,
1010
0000
0000
0100
0001
0000
0010
0000
,
0110
0000
0000
0100
1000
0000
0010
0000
,
0101
0000
0000
0001
0100
0000
1000
0000
,
0101
0000
0000
0101
0110
0000
1000
0000
,
1100
0000
0000
1100
0110
0000
0010
0000
,
0011
0000
0000
0110
0000
0000
1100
0000
,
0000
1000
0010
0001
0010
0000
0110
0000
;

//---------------dance-single - Renard----------------
#NOTES:
     dance-single:
     Renard:
     Medium:
     6:
     0.419,0.534,0.589,0.105,0.000:
0000
0000
0000
0000
,
0000
0000
0000
0000
,
0000
0000
0000
0000
,
0000
0000
0000
0000
,
1000
0000
0001
0000
1100
0001
1001
0000
,
1000
0000
0010
0000
0101
0010
1001
0000
,
1100
0000
0011
0001
1000
0010
0100
0100
,
0001
1000
2002
3013
,
1000
1000
0001
0001
1000
1000
0000
0000
,
0001
0001
1000
1000
0001
0001
0000
0000
,
0100
0100
0010
0010
0100
0100
0000
0000
,
0010
1000
0001
1000
0001
0000
1001
0000
,
1000
0000
0000
0100
0010
0000
0000
0001
,
0010
0000
0000
0100
1000
0000
0000
0010
,
0100
0000
0000
0001
1000
0000
0000
0001
,
1000
0000
0000
0001
1000
0000
0000
0000
,
2200
0000
3311
0000
,
0202
0000
1313
0000
,
2002
0000
3113
0000
,
2200
0000
3311
0000
,
1000
1000
1001
1001
,
0001
0001
1001
1001
,
1000
1000
1001
1001
,
1001
1010
1001
1100
,
1100
0000
0011
0000
0001
0100
0000
0010
,
1000
0000
0100
0010
0000
0001
0010
0000
,
0100
0000
1000
0100
1000
0000
0001
0000
,
0001
1000
1000
0010
,
1000
0000
0001
0100
0000
1010
0000
0101
,
0000
1000
0001
1000
0001
0000
1000
0000
,
0001
0000
0100
0010
0000
1000
0000
0001
,
0000
1000
0100
1000
0001
0000
1000
0000
,
0100
0100
1000
1000
,
0001
0010
0100
1000
,
1001
1000
1100
1000
,
1010
1001
1100
1001
,
1000
0000
0000
0001
0000
0100
0010
0000
,
0000
0000
1100
0000
0000
0011
0000
0000
,
0101
0000
0000
0010
0000
0000
1000
0000
,
0000
0000
0100
0000
0000
0010
0000
0000
,
0001
0000
0000
1000
0000
0010
0100
0000
,
0000
0000
1001
0000
0000
1010
0000
0000
,
0101
0000
0000
1001
0000
0000
1100
0000
,
0001
1100
0100
1000
,
0001
0000
0000
0100
0000
0010
1000
0000
,
0000
0000
1001
0000
0000
1001
0000
0000
,
0001
0000
0000
1000
0000
0000
0100
0000
,
0000
0000
1001
0000
0000
1001
0000
0000
,
1001
0000
0000
1010
0000
0000
0101
0000
,
0000
0000
1000
0000
0000
1000
0000
0000
,
0001
0000
0000
1000
0000
0000
0001
0000
,
1000
0001
1000
0000
0001
0000
0001
0000
,
1000
0000
0000
1000
0001
0000
0000
0000
,
0100
0000
0000
0100
0010
0000
0000
0000
,
1000
0000
0000
1000
0100
0000
0000
0000
,
0010
0000
0000
0010
0001
0000
0000
0000
,
0100
0000
0000
0100
0001
0000
0000
0000
,
1000
0000
0000
1000
0010
0000
0000
0000
,
1001
0000
0000
1010
0000
0000
0101
0000
,
0000
1000
0001
1000
0001
0000
1001
0000
;

//---------------dance-single - Renard----------------
#NOTES:
     dance-single:
     Renard:
     Easy:
     3:
     0.368,0.565,0.820,0.021,0.000:
0000
0000
0000
0000
,
0000
0000
0000
0000
,
0000
0000
0000
0000
,
0000
0000
0000
0000
,
1001
0100
0010
1000
,
0100
0010
0001
0001
,
1000
0011
1000
0101
,
1000
0000
1001
0000
,
1001
1000
0010
0000
,
1001
0000
1010
0101
,
1001
1001
1010
1010
,
0101
0101
2002
0000
,
3013
0000
0000
0000
,
0010
0000
0000
0000
,
0100
0000
0100
0000
,
0010
0010
0010
0000
,
1001
0000
0000
0000
,
1100
0000
0000
0000
,
0011
0000
0011
0000
,
0101
0000
1001
0000
,
1000
0001
0100
0010
,
1000
0100
0010
0001
,
0010
0100
1000
0010
,
0100
0001
1000
0001
,
1001
1001
1010
1100
,
1001
1001
1010
1100
,
1001
0000
0001
0100
,
0001
1000
0001
0000
,
1000
0001
0100
0010
,
1000
0100
0010
0000
,
0001
0010
0100
1000
,
0010
0100
0001
0000
,
1000
0001
1001
1001
,
1000
0001
1001
1001
,
0001
1000
0010
0100
,
0001
1000
0100
1000
,
0001
0011
0000
0011
,
0000
0011
0000
0011
,
1000
1100
0000
1100
,
0000
1100
0000
1100
,
0010
0011
0000
0011
,
0000
0011
0000
0011
,
0100
1100
0100
1100
,
0100
1100
0100
1100
,
1000
1010
0000
1010
,
0100
0101
0000
0101
,
0001
0011
0000
0011
,
0100
1100
0000
1100
,
0010
1010
0000
1010
,
0100
0101
0000
0101
,
0010
0011
0100
1100
,
1001
0000
1001
0000
,
1001
0000
1001
0000
,
1010
0000
1010
0000
,
0101
0000
0101
0000
,
0011
0000
0011
0000
,
1100
0000
1100
0000
,
1001
0000
1001
0000
,
1000
0000
0001
0000
,
1000
0001
1000
0001
;

//---------------dance-single - Renard----------------
#NOTES:
     dance-single:
     Renard:
     Challenge:
     11:
     0.838,1.000,0.568,0.757,0.568: // measure 1
0000
0000
0000
0000
,  // measure 2
0000
0000
0000
0000
,  // measure 3
0000
0000
0000
0000
,  // measure 4
0000
0000
0000
0000
,  // measure 5
1000
0000
0001
0000
0100
0100
0010
0010
1000
0010
1000
0000
0101
0000
0000
0000
,  // measure 6
0100
0000
0010
0000
1000
1000
0100
0100
0010
0001
0010
0000
1100
0000
0011
0000
,  // measure 7
0101
0000
0010
0000
1000
1000
0001
0001
0100
0001
1000
0000
0100
1000
0001
0000
,  // measure 8
1001
0000
0000
0000
1010
0000
0000
0000
0101
0000
0000
0000
1000
0000
0001
0000
0100
0000
0000
0000
0001
0000
1000
0000
0100
0000
1000
0100
1000
0000
0000
0000
,  // measure 9
0100
0010
0001
1000
0100
1000
0001
0010
0100
0010
0001
0000
2200
0000
0000
0000
,  // measure 10
3311
0000
0000
0000
1000
0100
0010
0001
0001
0010
0100
0000
0220
0000
0000
0030
,  // measure 11
0001
0000
0001
0000
0301
0001
0100
0100
1000
0100
1000
0000
1100
0000
1010
0000
,  // measure 12
0110
0000
0000
0000
0101
0000
0000
0000
0001
0100
0001
0000
1000
0100
1000
0000
0001
0000
0100
0000
0001
0000
0000
0000
1000
0000
0010
0000
1000
0010
1000
0010
,  // measure 13
1000
0000
0100
0010
0001
0000
0010
0100
,  // measure 14
1000
0000
0001
0010
0100
0000
0010
0001
,  // measure 15
1000
0000
0010
0100
0001
0000
1000
0001
,  // measure 16
0100
0010
1000
0100
0010
0000
0000
0000
,  // measure 17
0011
0000
0000
0011
2200
0000
0000
0000
,  // measure 18
3311
0000
0000
1100
1010
0000
0000
0000
,  // measure 19
0110
0000
0000
0110
0202
0000
0000
0000
,  // measure 20
1313
0000
0000
0101
0110
0000
1001
0000
,  // measure 21
1000
0100
0010
0001
1000
0000
0001
0000
0010
0000
0100
0000
1000
0000
0001
0000
,  // measure 22
0010
0100
1000
0001
0010
0000
0001
0000
1000
0000
0100
0000
0010
0000
0001
0000
,  // measure 23
1000
0100
0010
0001
1000
0000
0001
0000
0010
0000
0100
0000
1000
0000
0001
0010
,  // measure 24
0001
0000
0010
0000
0100
0000
1000
0100
1000
0000
0100
0000
0010
0000
0001
0000
,  // measure 25
1100
0000
2200
0000
0001
3310
0000
0002
,  // measure 26
0200
0000
0010
1303
0000
0002
2000
0000
,  // measure 27
3113
0000
1002
0000
,  // measure 28
0100
0000
0010
0000
1000
1000
1003
0000
,  // measure 29
1000
0100
0010
0001
0000
0011
0000
0110
,  // measure 30
0000
0000
1100
0000
0000
0000
1000
0100
1000
0000
0001
0010
0001
0000
1000
0000
,  // measure 31
1000
0100
0010
0001
0000
0011
0000
0110
,  // measure 32
0000
0000
1100
0000
0000
0000
1000
0100
1000
0000
0001
0010
0001
0000
1000
0000
,  // measure 33
0002
0000
0203
0000
0010
0010
0320
0000
,  // measure 34
1000
1000
2030
0000
0100
0100
3200
0000
,  // measure 35
0302
0203
2300
3020
0230
0302
0203
2300
,  // measure 36
3200
0320
0032
0023
2030
3020
0230
0000
,  // measure 37
0301
0000
0000
0110
0000
0010
1000
0000
,  // measure 38
1000
0100
0010
0000
0010
0001
0000
0001
,  // measure 39
0020
0000
0000
1000
0000
0100
0002
0030
,  // measure 40
0200
0003
0010
0000
1000
0001
0000
0001
,  // measure 41
0010
0000
0000
1000
0000
1000
2300
0000
,  // measure 42
0010
0000
3020
0000
0000
0032
0000
0000
,  // measure 43
0103
0000
0010
1000
0010
0000
0100
0001
,  // measure 44
1000
0100
0010
0001
1000
0000
1001
0000
,  // measure 45
1000
0100
0010
0001
1000
0100
0010
0001
1000
0010
0100
0001
1000
0010
0100
0001
,  // measure 46
0100
0010
1000
0001
0100
0010
1000
0001
0010
0100
1000
0001
0010
0100
1000
0100
,  // measure 47
0010
0001
0010
0100
1000
0001
0010
0100
1000
0001
0100
0010
1000
0010
0100
0001
,  // measure 48
1000
0100
0010
0001
0100
0010
1000
0001
1000
0001
1000
0100
0010
0001
1000
0001
,  // measure 49
1000
0001
0010
0100
1000
0100
1000
0010
1000
0001
0010
0100
1000
0001
0100
0001
,  // measure 50
0010
0001
0010
0100
1000
0010
1000
0100
1000
0001
0010
0100
1000
0010
1000
0100
,  // measure 51
1000
0100
0010
0001
0010
0001
0100
0001
1000
0100
0010
0001
0010
0001
0100
0001
,  // measure 52
1000
0100
0010
0001
1000
0001
0100
0010
1000
0100
0010
0001
0010
0000
0000
0000
,  // measure 53
1100
0000
0000
2200
0022
0000
3333
0000
,  // measure 54
0101
0000
0000
0202
2020
0000
3333
0000
,  // measure 55
1001
0000
0000
2002
0220
0000
3333
0000
,  // measure 56
0110
0000
0000
0220
2002
0000
3333
0000
,  // measure 57
2000
3200
2000
0000
0022
0000
3333
0000
,  // measure 58
0002
0203
0002
0000
2020
0000
3333
0000
,  // measure 59
2000
0000
0000
0200
0000
0000
0020
0000
,  // measure 60
0000
0001
0032
0010
0020
0033
3311
0000
;
