#TITLE:Overload;
#SUBTITLE:;
#ARTIST:Infected Mushroom;
#GENRE:Psytrance;
#TITLETRANSLIT:;
#SUBTITLETRANSLIT:;
#ARTISTTRANSLIT:;
#CREDIT:;
#BANNER:over.png;
#BACKGROUND:over-bg.png;
#LYRICSPATH:;
#CDTITLE:;
#MUSIC:over.ogg;
#OFFSET:0.000;
#SAMPLESTART:31.953;
#SAMPLELENGTH:12.000;
#SELECTABLE:YES;
#BPMS:0.000=150.035;
#STOPS:12.000=0.800
,26.000=1.200
;
#BGCHANGES:;

//---------------dance-single - Renard----------------
#NOTES:
     dance-single:
     Renard:
     Challenge:
     11:
     0.786,0.807,0.413,0.484,0.630:
0000
0000
0000
0000
,
0000
0000
0000
0000
,
0000
0000
0000
0000
,
0000
0000
0000
0000
0000
0000
0000
0000
1000
0100
0010
0000
0100
1000
0000
0100
,
0001
0000
0100
0010
0000
0010
0001
0010
0100
1000
0100
0000
0010
1000
0000
0010
,
0001
0000
0010
0100
0000
0010
0001
0010
0100
0010
1000
0000
0010
0001
0000
0010
,
0100
0000
0010
1000
0000
0010
0001
0010
0100
0000
0000
0000
0200
0000
1000
0000
,
1300
0100
0000
0100
1000
0000
0010
0000
0200
0000
0310
0000
0101
0000
0010
0000
,
0100
0001
0000
0002
0100
0000
0003
0000
1001
0000
0000
0000
0020
0000
0100
0000
,
0130
0010
0000
0010
1000
0000
0001
0000
0200
0000
0010
0000
0002
0000
0300
0000
,
0013
0001
0000
0001
0010
0000
0100
1000
0000
0002
1000
0000
0200
0000
0303
0000
,
0010
0100
0000
0100
0020
0000
1000
0000
0130
0010
0000
0010
2000
0000
0100
0000
,
3001
0100
0000
0200
0010
0000
0301
0000
1001
0000
0000
0001
1000
0000
0100
0000
,
0010
0001
0000
0001
0010
0000
0100
1000
0000
2000
0100
0000
0001
0000
3001
0000
,
0100
0010
0000
0010
1000
0001
0000
1010
0000
0100
0001
1000
0020
0000
0000
0000
,
0200
0000
0030
0000
0002
0000
0300
0000
0010
0000
0003
0010
2000
0000
0000
0000
,
0002
0000
3000
0000
2000
0000
0003
0000
0010
0000
3000
0010
0002
0000
0000
0000
,
0200
0000
0003
0000
2000
0000
0300
0000
0001
0000
3000
0001
0020
0000
0000
0000
,
0002
0000
0030
0000
1000
0000
0003
0000
0100
0000
0000
0010
0100
0000
0001
0000
,
1000
0000
0100
0020
0001
0000
0000
0000
0100
0000
0000
0000
1030
0000
0001
0000
,
0100
0010
0001
0000
1001
0000
0010
1000
,
0001
0000
0010
0200
1000
0000
0000
0000
0010
0000
0000
0000
0301
0000
1000
0000
,
0010
0001
1000
0000
0101
0000
0100
0001
,
1000
0000
0100
0020
0001
0000
0000
0000
0100
0000
0000
0000
1030
0000
0001
0000
,
0100
1000
0001
0000
1010
0000
0010
1000
,
0001
0000
0010
0200
1000
0000
0000
0000
0010
0000
0000
0000
0301
0000
1000
0000
,
0010
0100
0000
0000
1000
0000
0001
0100
0001
0000
0000
0000
1000
0000
0100
0000
,
0010
0100
1000
0001
0010
0100
0010
0001
,
1000
0000
0100
0000
0010
0000
1000
0000
0010
0000
0100
0000
1000
0000
0001
0100
,
0000
0010
0000
1000
0100
0010
0000
0001
0000
0010
0000
0100
1000
0000
0010
0100
,
0000
0000
0001
0000
0100
0001
0100
0000
0010
0000
1000
0000
0000
0000
0002
0000
0200
0000
0000
0000
0303
0000
0000
0000
0001
0000
0000
0000
0100
0000
0010
0000
,
0000
0100
0000
0010
1000
0000
0010
0000
0100
0000
0001
0000
0100
0000
0001
0010
,
0001
0000
1000
0000
0010
0000
0200
0000
1000
0000
0000
0000
0301
0000
0100
0010
,
0000
1000
0000
0100
0010
0000
0002
0000
0100
0000
0000
0003
0010
0000
0100
0010
,
0001
0000
1000
0000
0001
0000
0010
0000
0100
0000
0010
0000
1000
0000
0010
0001
,
0000
0010
0000
0100
0001
0000
0100
0000
1000
0000
0010
0000
0100
0000
0001
0100
,
0010
0000
1000
0000
0001
0000
0020
0000
1000
0000
0000
0000
0031
0000
0010
0100
,
0000
1000
0000
0001
0100
0000
0020
0000
0001
0000
0000
0000
1030
0000
0100
0010
,
0001
0000
0000
0000
0000
0000
1000
0000
0000
0000
0000
0000
0001
0000
0000
0100
0000
0000
0010
0000
0000
0000
0000
0000
1000
0000
0001
0000
1000
0000
0001
0000
0000
0000
0000
0000
2002
0000
0000
0000
0000
0000
0000
0000
0000
0000
0000
0000
,
0000
0000
0000
0000
3113
0000
0000
0000
0000
0000
0000
0000
1000
0100
0010
0001
,
0100
0000
0100
0001
0100
0010
1000
0000
0001
0100
0001
0000
1000
0100
0010
0001
,
0100
0000
0010
1000
0001
0100
0010
0000
1000
0100
1000
0000
0001
0100
0010
1000
,
0100
0000
0100
0010
0100
1000
0001
0000
0100
0010
0100
0000
0001
0100
0010
1000
,
0100
0000
0100
1000
0001
0100
0001
0000
1000
0100
0010
0000
0010
0100
1000
0001
,
0100
0000
0100
0010
1000
0100
0010
0000
0100
1000
0100
0000
1000
0001
0100
0010
,
1000
0000
0100
0010
0001
0010
0100
0000
1000
0100
1000
0000
0010
0100
0001
0100
,
0010
0000
0010
1000
0100
0010
0001
0000
0001
0010
0100
0000
0100
1000
0010
0100
,
0001
0000
0001
0100
0010
0000
0100
0000
1001
0000
0101
0000
1010
0000
0000
0000
,
0101
0000
0110
0001
1010
0000
1100
0000
,
0011
0000
1010
0100
1001
0000
1010
0000
,
0101
0000
1010
0100
1001
0000
1100
0000
,
0011
0000
1001
0010
0101
0000
1000
0100
,
0010
0000
1001
0010
0101
0000
0010
0100
,
0001
0000
1010
0100
1001
0000
0010
0100
,
0001
0000
1010
0100
1001
0000
0110
0000
,
1010
0000
0001
0100
0010
1000
0002
0000
,
0203
0010
0000
0310
1001
0000
2020
0030
,
3200
0020
0030
0020
1331
0000
2000
0000
,
3020
0100
0000
0130
1001
0000
0202
0300
,
2020
3033
0000
0000
;

//---------------dance-single - Renard----------------
#NOTES:
     dance-single:
     Renard:
     Hard:
     9:
     0.588,0.535,0.141,0.181,0.096:
0000
0000
0000
0000
,
0000
0000
0000
0000
,
0000
0000
0000
0000
,
0000
0000
0000
0000
1000
0100
1000
0010
,
1000
0001
0100
0010
1000
0100
0010
0001
,
0010
0001
0010
0000
0001
0010
0100
1000
,
0010
0200
0002
0000
1313
0000
1000
0100
,
1000
0001
0010
0001
1000
0100
0010
0100
,
1000
0001
0010
0100
0010
0001
1000
0001
,
0100
0001
1000
0010
1000
0100
0010
0001
,
0010
0001
0100
0000
1001
0000
0001
0010
,
0001
1000
0100
1000
0001
0010
0100
0010
,
0001
1000
0100
0010
0100
1000
0001
1000
,
0010
1000
0001
0100
0001
0010
0100
1000
,
0100
1000
0010
0000
1001
0000
1020
0000
,
0130
0201
0310
2001
,
3010
0000
1002
0000
0103
0000
0010
0100
,
0001
0100
0010
0100
0001
0100
0010
1000
,
0100
1000
0010
0100
1000
0100
0010
1000
,
0001
0000
0100
0020
0000
0000
0000
0000
1000
0000
0000
0000
0130
0000
0001
0000
,
0010
0000
0100
2000
0000
0000
0000
0000
0010
0000
0000
0000
3001
0000
0100
0000
,
0010
0000
1000
0200
0000
0000
0000
0000
0010
0000
0000
0000
0301
0000
0100
0000
,
1000
0000
0010
0200
0000
0000
0000
0000
0001
0000
0000
0000
0310
0000
0100
0000
,
0001
0000
0100
0020
0000
0000
0000
0000
1000
0000
0000
0000
0130
0000
0001
0000
,
1000
0000
0100
0020
0000
0000
0000
0000
0001
0000
0000
0000
0031
0000
0010
0000
,
0100
0000
1000
0020
0000
0000
0000
0000
0100
0000
0000
0000
1030
0000
0010
0000
,
0100
0001
1000
0002
0100
0003
0100
0001
,
1000
0010
0100
0001
1000
0010
0100
0001
,
1000
0010
0100
0001
1000
0010
0100
0001
,
1000
0100
0010
0001
1000
0100
1000
0001
,
0010
0000
0100
0000
0010
0000
0100
0000
1000
0000
0000
0000
0100
0000
1000
0100
,
0000
0100
1000
0000
0100
0000
1000
0000
0100
0000
0010
0000
0001
0000
0010
0001
,
0000
0001
0010
0000
0001
0000
0000
0000
0010
0000
0000
0000
0001
0000
0001
0100
,
0000
0100
0001
0000
0100
0000
0001
0000
0100
0000
0000
0000
0010
0000
0010
1000
,
0000
1000
0010
0000
1000
0000
0000
0000
0010
0000
0000
0000
0100
0000
0001
0000
,
1000
0100
0010
0001
0020
0000
0130
1000
,
0010
0000
0100
0000
0001
0100
0000
0100
0001
0000
1000
0000
0010
0000
1000
0000
,
0001
0010
0100
1000
0200
0000
0310
0001
,
0100
0000
0010
0000
1000
0010
0000
0010
1000
0000
0001
0000
2002
0000
0000
0000
,
0000
0000
0010
0000
3003
0000
0001
0100
,
0010
1000
0001
0010
0001
1000
0100
0010
,
0001
0010
0100
1000
0001
0100
0010
1000
,
0001
0100
0010
1000
0001
0100
0001
1000
,
0100
1000
0001
0000
0110
0000
1000
0001
,
0100
0010
1000
0000
0100
1000
0100
1000
,
0001
0010
0100
0000
1000
0100
0010
0001
,
1000
0010
0100
0000
0001
0100
0010
0000
,
1001
0000
1010
0000
0101
0000
1000
0100
,
0010
0000
0100
1000
0001
0000
0010
0001
,
1000
0000
0100
0010
0001
0000
0010
0100
,
1000
0000
0001
0010
0001
0000
0100
0010
,
0001
0000
0010
0100
1000
0000
0100
0010
,
0001
0000
0010
0100
1000
0000
0100
0010
,
0100
0000
0010
0001
0010
0000
0100
0001
,
0100
0000
0010
1000
0100
0010
0001
0010
,
0100
1000
0010
0100
0001
1000
0100
0000
,
0010
0001
0000
0001
0010
0000
0100
0000
,
1001
0000
1000
0010
0100
0000
0001
0000
,
0001
0100
0000
0100
0010
0000
1000
0100
,
1100
0000
0000
0000
;

//---------------dance-single - Renard----------------
#NOTES:
     dance-single:
     Renard:
     Medium:
     6:
     0.406,0.447,0.313,0.212,0.000:
0000
0000
0000
0000
,
0000
0000
0000
0000
,
0000
0000
0000
0000
,
0000
0000
1000
1000
,
1000
0000
1000
0001
0100
0000
0100
0000
,
0100
0000
0010
1000
0100
0000
0100
0000
,
0100
0000
0100
0010
0001
0000
1000
0000
,
1000
0000
1000
0000
1000
0001
0100
0000
,
0100
0000
0100
0000
0100
0010
1000
0000
,
1000
0000
1000
0000
1000
0001
0010
0000
,
0010
0100
1000
0000
1000
0001
0100
0000
,
0100
0000
0100
0000
0100
0001
1000
0000
,
1000
1000
1000
0100
,
0000
0100
0000
0010
,
0001
1000
1001
0001
,
0110
1000
0110
0001
,
0110
1000
0000
0010
,
1001
0100
1001
0010
,
1001
0100
0000
0001
,
1000
0100
0000
0010
,
0001
0200
0000
0310
,
1000
0100
0000
2200
,
0000
0010
3301
1000
,
0100
0020
0000
0031
,
0100
0000
0020
0000
0000
0030
1000
0000
,
0100
2200
0000
0011
,
0000
0000
0011
3300
0000
0000
1000
0000
,
1000
1000
1000
1000
,
1000
0000
1000
0000
1000
0000
1000
0100
,
0010
0001
0010
0100
1000
0100
0010
0001
,
0010
0100
1000
0010
0100
0000
0001
0000
,
0100
0000
0010
1000
0000
0000
0100
0000
,
0010
0000
0001
0010
0001
0000
1000
0000
,
0010
0000
0100
0001
1000
0000
0001
0000
,
0100
0000
0010
1000
0100
1000
0001
0000
,
0010
0000
0100
1000
0000
0000
0101
0000
,
0010
0000
1000
0100
1000
0000
0010
0000
,
0101
0000
0000
1010
0000
0000
0101
0000
,
1100
0011
1001
0202
,
0000
1313
0000
0001
,
0001
0000
0100
0000
0010
1000
0100
0000
,
0100
0010
0001
0000
0001
1000
0010
0000
,
0010
0000
0010
0000
0010
0100
0001
0000
,
0001
1000
0100
1000
0001
0000
1000
0000
,
0001
0000
0100
0000
0010
1000
0100
0000
,
0010
0001
1000
0001
,
1000
0100
0000
0010
0001
0000
2200
0000
,
0000
3300
2200
0000
0000
3300
2200
0000
,
0010
0000
0001
0000
0010
0001
0010
0000
,
0001
0001
0000
0010
,
0010
0000
0001
0000
0010
0001
3310
0000
,
0000
1100
0000
0202
,
0000
0000
0000
0000
0010
1000
0010
0000
,
1000
1010
0000
0010
,
0000
0010
1000
0000
0010
1000
0010
0000
,
1010
1313
0000
0001
,
0100
0010
0000
1000
0100
0000
2200
0000
,
0000
3311
0000
1000
,
0100
0010
0000
0002
0200
0000
0000
0000
,
1010
0303
0000
0000
0000
0000
0000
0000
;

//---------------dance-single - Renard----------------
#NOTES:
     dance-single:
     Renard:
     Easy:
     3:
     0.307,0.357,0.141,0.161,0.000: // measure 1
0000
0000
0000
0000
,  // measure 2
0000
0000
0000
0000
,  // measure 3
0000
0000
0000
0000
,  // measure 4
0000
0000
1000
1000
,  // measure 5
1000
1000
0001
0001
,  // measure 6
0100
0000
0001
1000
0100
0000
0100
0000
,  // measure 7
0100
0100
1000
0001
,  // measure 8
0000
0000
0100
0000
0000
0001
1000
0000
,  // measure 9
0100
0010
0000
0001
,  // measure 10
0000
0000
1000
0000
0000
0010
0100
0000
,  // measure 11
0001
1000
0000
0001
,  // measure 12
0000
0000
1000
0000
0000
0100
0010
0000
,  // measure 13
0001
0010
0000
0100
,  // measure 14
0000
0000
1000
0000
0000
0010
0100
0000
,  // measure 15
0001
1000
0000
1001
,  // measure 16
0000
1000
0000
0110
,  // measure 17
0000
0001
0000
1100
,  // measure 18
0000
0001
0000
0101
,  // measure 19
0000
0010
1001
1000
,  // measure 20
0100
0010
0000
0001
,  // measure 21
0010
0200
0000
1300
,  // measure 22
0010
0100
0000
0001
,  // measure 23
0100
0020
0000
1030
,  // measure 24
0100
0000
0010
0020
0000
0000
0031
0000
,  // measure 25
0100
0010
0000
1000
,  // measure 26
0100
0020
0000
0031
,  // measure 27
0000
1000
0001
1000
,  // measure 28
1000
1000
1000
1000
,  // measure 29
1000
1000
1000
1000
,  // measure 30
1000
0001
1000
0000
1000
0100
1000
0010
,  // measure 31
1000
0001
1000
0000
1000
0000
2000
0000
,  // measure 32
0000
3200
0000
0310
,  // measure 33
0001
0100
0010
2000
,  // measure 34
0000
3200
0000
1300
,  // measure 35
0010
0100
0001
0020
,  // measure 36
0000
0000
0031
0002
0000
0000
0103
0000
,  // measure 37
0010
1000
0100
0020
,  // measure 38
0000
0032
0000
0103
,  // measure 39
0001
1000
0100
0010
,  // measure 40
0000
0101
0000
0010
,  // measure 41
1000
0100
1000
0010
,  // measure 42
0100
0000
0001
0000
0000
1000
0001
0000
,  // measure 43
0100
0010
1000
0100
,  // measure 44
0010
0000
0001
0000
0000
1000
0001
0000
,  // measure 45
0000
0100
0001
0000
0000
0010
0001
0000
,  // measure 46
0100
0000
0001
0000
0000
1000
0100
0000
,  // measure 47
0000
0010
0001
0000
0000
1000
0010
0000
,  // measure 48
0100
0001
0000
1000
,  // measure 49
0100
0000
1100
0010
,  // measure 50
0001
0000
0011
0001
,  // measure 51
0100
0000
0101
0010
,  // measure 52
1000
0000
1010
1000
,  // measure 53
0100
0000
0000
0010
0001
0000
0100
0000
,  // measure 54
0001
0000
0000
1000
0010
0000
0100
0000
,  // measure 55
0001
0000
0000
1000
0100
0000
0010
0000
,  // measure 56
0001
1000
0000
2200
,  // measure 57
0000
0000
0000
0010
,  // measure 58
0000
0000
0011
3300
0000
0000
0201
0002
,  // measure 59
0000
0000
0000
0000
,  // measure 60
1313
0000
0000
0000
;
