#TITLE:Out Here;
#SUBTITLE:;
#ARTIST:Pendulum;
#GENRE:Nustyle Breaks;
#TITLETRANSLIT:;
#SUBTITLETRANSLIT:;
#ARTISTTRANSLIT:;
#CREDIT:;
#BANNER:out.png;
#BACKGROUND:out-bg.png;
#LYRICSPATH:;
#CDTITLE:;
#MUSIC:out.ogg;
#OFFSET:0.006;
#SAMPLESTART:65.394;
#SAMPLELENGTH:12.000;
#SELECTABLE:YES;
#BPMS:0.000=132.000;
#STOPS:;
#BGCHANGES:;

//---------------dance-single - Renard----------------
#NOTES:
     dance-single:
     Renard:
     Challenge:
     10:
     0.725,0.846,0.682,0.000,0.529:
0000
0000
0000
0000
,
0000
0000
0000
0000
,
1000
0000
1001
0000
0000
0001
1001
0000
,
1000
0000
1001
0000
0000
0001
1001
0000
,
1000
0000
0010
0000
0100
0000
0000
0001
1000
0000
0010
0000
0100
0000
0001
0000
,
0010
0000
0100
0000
1000
0000
0000
0010
0100
0000
0001
0000
1000
0000
0010
0000
,
0100
0000
0001
0000
1000
0000
0000
0100
1000
0000
0100
0000
1000
0000
0010
0000
,
0100
0000
0000
0000
1001
0000
0000
0001
1000
0000
0010
0000
0100
0000
0001
0000
,
0000
1000
0001
0100
0010
1000
0100
1000
0001
0010
0100
1000
0001
0010
0000
0001
,
0000
0010
0100
1000
0100
1000
0010
0100
0001
0100
0001
1000
0100
1000
0000
0001
,
0000
0100
0010
1000
0010
0100
0001
0100
0001
1000
0100
1000
0001
0100
0001
1000
,
0100
1000
0001
0010
0100
1000
0001
0100
0001
1000
0100
1000
0001
0100
0001
1000
,
0001
0100
0000
1001
0000
1000
0100
1000
0001
0010
0100
1000
0001
0100
0001
1000
,
0001
1000
0000
1001
0000
1000
0100
1000
0001
0010
0001
1000
0010
1000
0001
0100
,
0001
1000
0000
1001
0000
1000
0100
0010
0001
1000
0100
0010
0001
1000
0001
1000
,
0001
0100
0000
1001
0000
1000
0100
1000
0001
0010
0100
1000
0001
0010
0001
1000
,
0010
0100
0110
0000
1000
0010
1010
0000
,
0001
0100
0101
0000
1000
0100
1100
0000
,
0011
0010
0011
0000
0110
0100
0110
0000
,
1010
0010
0110
0010
0011
0010
0110
0000
,
0100
0000
1000
0000
0010
0000
0100
0000
0001
0100
0001
0000
0100
0000
0010
0000
,
1000
0000
0100
0000
0010
0000
0001
0000
1000
0001
1000
0000
0001
0000
0100
0000
,
1010
0000
0100
0000
0001
0000
0010
0000
0100
0010
0100
0000
1000
0000
0010
0000
,
0100
0100
0001
1000
1000
0010
1001
0000
,
1000
0000
0010
0000
0101
0000
0000
1000
0010
1000
0010
0000
1000
0000
0001
0000
,
0100
0000
0001
0000
0011
0000
0000
0010
0001
0010
0001
0000
0010
0000
0000
0000
,
0100
0000
1000
0000
1001
0000
0000
1000
0010
1000
0010
0000
1001
0000
0000
0000
,
1000
0010
0101
1000
1010
0100
0101
1000
,
0110
0000
0000
0101
0000
0000
0110
0000
0000
1100
0000
0000
0110
0000
0101
0000
,
0100
0010
1000
0100
0010
0001
0010
0100
,
1000
0000
1000
0001
0000
0001
0100
0000
0100
0010
0000
0010
1000
0000
0100
0000
,
1000
0100
1000
0000
0010
1000
0010
0000
1000
0001
1000
0000
0100
1000
0100
0000
,
1000
0010
0100
0001
0100
0010
1000
0100
,
0011
0010
0110
0100
1100
1000
1010
0010
,
0110
0100
0101
0100
0110
0100
0101
0100
,
0001
0000
0100
0000
0001
0000
0100
0001
0100
0000
0001
0100
0001
0000
0100
0000
,
1001
0000
0000
1001
0000
0000
0110
0000
0000
0110
0000
0000
1000
0000
0001
0000
,
1000
0000
0000
1000
0001
0000
0000
0001
1000
0000
0010
0000
0100
0000
0001
0000
,
1000
1000
0100
0100
0010
0100
0010
0100
,
1000
1010
0101
1001
,
1000
0000
1000
0001
0000
0001
1000
0000
1000
0010
0000
0010
0100
0000
0001
0000
,
1000
0000
0001
1000
0001
0000
1000
0010
1000
0000
0100
1000
0100
0000
1000
0000
,
1000
1000
0100
0100
0010
0010
0001
0000
,
0010
0001
0011
0000
0110
0000
1100
0000
,
1001
0000
0110
0000
1000
0010
0110
0000
,
0001
0000
0011
0000
0010
0100
0110
0000
,
1000
0000
1001
0000
1000
0001
1001
0000
,
0001
0000
0101
0000
0100
0010
0110
0000
,
1000
1000
0010
0010
0100
0100
0001
0001
,
1000
1000
0001
0001
1000
1000
0001
0001
,
1000
0000
0001
1000
0001
0000
1000
0100
1000
0000
0100
0010
0100
0000
0010
0001
,
0010
0001
1001
1000
1010
0010
0110
0100
,
0101
0000
0000
0000
;

//---------------dance-single - Renard----------------
#NOTES:
     dance-single:
     Renard:
     Hard:
     7:
     0.530,0.582,0.600,0.020,0.061:
0000
0000
0000
0000
,
0000
0000
0000
0000
,
0000
0000
0000
0000
,
0000
0000
0000
0000
1000
0100
0010
0001
,
1000
0000
1001
0000
0001
0100
0010
1000
,
0100
0000
1001
0000
0001
1000
0100
0010
,
0001
0000
1001
0000
0001
0100
0010
1000
,
0100
0010
0100
0010
0001
1000
1001
0000
,
1000
0100
1000
0001
0010
0001
1000
0001
,
0100
0010
0100
0001
1000
0001
0100
0010
,
1000
0100
1000
0001
0010
0001
1000
0010
,
0100
0001
0100
0010
1000
0010
1000
0001
,
1000
0001
0000
1000
0000
0000
0001
0000
0100
0000
0001
0000
1000
0000
0100
0000
,
0010
0001
0000
0010
0000
0000
0100
0000
1000
0000
0001
0000
1000
0000
0001
0000
,
0100
0001
0000
1000
0000
0000
0001
0000
1000
0000
0100
0000
1000
0000
0001
0000
,
0010
0001
0000
1000
0000
0000
0001
0000
0100
0000
0001
0000
1000
0000
0100
0000
,
0010
0000
0000
0010
0001
0000
0000
0001
,
1000
0000
0000
1000
0010
0000
0000
0010
,
0100
1001
0010
1001
,
0010
0010
0100
0100
0101
0001
1001
0000
,
1010
0000
1001
0000
0100
0010
1000
0100
,
0010
0000
1001
0000
0001
0010
0100
0000
,
1100
0000
0110
0000
0001
0100
1000
0010
,
0001
0000
0011
0000
0010
1000
0100
0000
,
0101
0000
1001
0000
0010
0100
0001
0010
,
0100
0000
1001
0000
1000
0100
0010
0110
,
0000
0000
0011
0000
0010
0100
1000
0010
,
0100
0000
0001
0000
1000
1000
0001
0001
,
1000
0000
0000
1000
0000
0000
0100
0000
0000
0010
0000
0000
0001
0000
0010
0000
,
0110
0110
1100
1100
,
0001
0010
0001
1000
0100
1000
0010
0100
,
0101
0100
0110
0100
1100
0100
0110
0000
,
0010
0000
0000
1000
0000
0000
0100
0000
0000
0001
0000
0000
0100
0000
1000
0000
,
1010
0000
1010
0000
0001
0100
0001
0000
,
1000
1000
0100
0010
0001
0010
0001
0000
,
0011
0000
0110
0100
1100
0000
0011
0000
,
1000
0100
0010
0001
1000
0100
1000
0000
,
0001
0010
0100
1000
0001
0010
0001
0000
,
1000
0010
0100
0001
1000
0010
1000
0000
,
0001
0100
0010
1000
0001
0100
0001
0000
,
1001
0000
1010
0000
0101
0001
0011
0000
,
0110
0000
0100
1000
0010
0100
0001
0000
,
1010
0000
0101
0000
1001
1000
1010
0000
,
0010
0100
0001
0100
0101
0000
1001
0000
,
0100
0000
1010
0000
0100
0001
0010
0100
,
1000
0000
0011
0000
0100
1000
0010
0100
,
0001
0000
1010
0000
0100
0001
0100
0010
,
0100
0000
1001
0000
0010
0010
0100
0000
,
0101
0100
1100
0100
0101
0100
1100
0100
,
0120
0000
2030
0000
3100
0010
0001
0011
,
0000
0000
0110
0000
0100
1000
0010
0100
,
0001
1010
0101
0011
,
1111
0000
0000
0000
;

//---------------dance-single - Renard----------------
#NOTES:
     dance-single:
     Renard:
     Medium:
     5:
     0.324,0.370,0.295,0.051,0.000:
0000
0000
0000
0000
,
0000
0000
0000
0000
,
0000
0000
0000
0000
,
0000
0000
0000
0000
,
0001
0000
1000
0000
0000
0100
0010
0000
,
0001
0000
0010
0000
0000
0100
1000
0000
,
0010
0000
0100
0000
0000
0001
0100
0000
,
0010
0000
1000
0000
0100
1000
0100
0000
,
1000
1000
0010
0010
,
0100
0100
0001
0001
,
1000
1000
0100
0100
,
0010
0010
0001
0001
,
0001
0000
0001
0000
0001
0000
0001
0010
,
0100
0000
0100
0000
0100
0000
0100
1000
,
0010
0000
0010
0000
0010
0000
0010
0100
,
0001
0001
0001
0001
,
1000
0110
0001
0110
,
1000
0110
0001
0110
,
1100
0000
1010
0000
,
0101
1001
1100
0011
,
1000
0000
0110
0000
0000
0001
0001
0000
,
0100
0000
0110
0000
0000
1000
1000
0000
,
0010
0000
0101
0000
0000
1000
1000
0000
,
0100
0000
0010
0000
0001
1000
0010
0000
,
0000
1010
0000
0101
0000
0000
1000
0000
,
0000
0011
0000
1100
0000
0000
0001
0000
,
0000
1010
0000
0101
0000
0000
1000
0000
,
0100
0010
0001
0000
,
2000
0000
0000
0000
,
3001
0001
0100
0100
,
0010
1000
0010
1000
0010
1000
0010
1000
,
0010
0000
0010
0000
0100
0001
0100
0000
,
0001
0001
0001
0001
,
0010
0100
0010
0100
0010
0000
0010
0000
,
0100
0000
0100
1000
0100
0000
1000
0010
,
1000
0010
0100
0100
,
0001
0001
1000
1000
,
0100
0000
0100
0000
0010
0001
0010
0000
,
0100
0100
1000
1000
,
0010
0100
0010
0000
0100
0000
0000
0000
,
0001
0002
0000
0000
0000
0000
0000
0000
,
1003
2000
0000
0000
3100
0000
0020
0000
,
0032
0000
0000
0000
,
0103
0010
1001
0000
,
1000
0110
0000
0101
,
0010
1001
0000
0100
,
1000
0011
0000
1100
,
0011
1001
0110
1001
,
1000
1000
1000
1000
,
0010
0000
0000
0000
0000
0100
0001
0010
,
0000
0000
0000
0000
0000
0100
1000
0010
,
0000
0000
0100
0000
0001
0000
1000
0100
,
0010
0000
0000
0000
;

//---------------dance-single - Renard----------------
#NOTES:
     dance-single:
     Renard:
     Easy:
     3:
     0.285,0.344,0.315,0.132,0.000: // measure 1
0000
0000
0000
0000
,  // measure 2
0000
0000
0000
0000
,  // measure 3
0000
0000
0000
0000
,  // measure 4
0000
0000
0000
0000
,  // measure 5
1000
1000
1000
1000
,  // measure 6
0001
0001
0001
0100
,  // measure 7
0010
0010
0010
0010
,  // measure 8
1000
0100
0010
0001
,  // measure 9
1000
0001
0100
0001
,  // measure 10
1000
0001
0100
0001
,  // measure 11
1000
0001
0100
0001
,  // measure 12
1000
0001
0100
0001
,  // measure 13
2000
0000
3002
0000
,  // measure 14
0203
0000
0320
0000
,  // measure 15
2030
0000
3200
0000
,  // measure 16
0320
0000
0032
0000
,  // measure 17
0103
0010
0000
1000
,  // measure 18
0100
0010
0000
0001
,  // measure 19
0100
0010
0100
0001
,  // measure 20
0100
0100
0110
0000
,  // measure 21
1000
0110
0000
0110
,  // measure 22
0001
0110
0000
0110
,  // measure 23
0010
1001
0000
1001
,  // measure 24
0100
1001
0000
1001
,  // measure 25
1000
0100
0010
0001
,  // measure 26
1001
0000
0000
0001
,  // measure 27
1001
0000
0000
1000
,  // measure 28
1001
0000
1010
0000
,  // measure 29
0101
0000
0000
0000
,  // measure 30
0010
1000
0100
0010
,  // measure 31
0100
0010
0100
0010
,  // measure 32
0100
0011
0100
1010
,  // measure 33
0100
1001
0100
1001
,  // measure 34
0010
1001
0010
1001
,  // measure 35
1000
0010
0100
0001
,  // measure 36
1000
0100
0011
0011
,  // measure 37
0100
1000
1010
1010
,  // measure 38
0001
0100
0011
0000
,  // measure 39
0100
1000
0011
0011
,  // measure 40
0001
0100
1010
0000
,  // measure 41
2000
0000
0000
3010
,  // measure 42
0200
0000
0000
0301
,  // measure 43
0020
0000
0000
0130
,  // measure 44
2000
0000
3020
0000
,  // measure 45
0130
0001
0000
0001
,  // measure 46
1000
0001
0000
0001
,  // measure 47
0010
0001
0000
0001
,  // measure 48
1000
0100
1000
0010
,  // measure 49
0100
0100
0001
0010
,  // measure 50
0110
0000
0000
0100
,  // measure 51
1100
0000
1000
0000
,  // measure 52
0010
0100
0001
0100
,  // measure 53
1001
0000
0000
0000
;
