#TITLE:Oh Yeah;
#SUBTITLE:;
#ARTIST:Yello;
#GENRE:Techno;
#TITLETRANSLIT:;
#SUBTITLETRANSLIT:;
#ARTISTTRANSLIT:;
#CREDIT:;
#BANNER:ohyeah.png;
#BACKGROUND:ohyeah-bg.png;
#LYRICSPATH:;
#CDTITLE:;
#MUSIC:ohyeah.ogg;
#OFFSET:-0.000;
#SAMPLESTART:0.100;
#SAMPLELENGTH:23.340;
#SELECTABLE:YES;
#BPMS:0.000=132.000;
#STOPS:41.000=2.273
,116.000=2.273
;
#BGCHANGES:;

//---------------dance-single - Shorty----------------
#NOTES:
     dance-single:
     Shorty:
     Hard:
     9:
     0.563,0.520,0.493,0.435,0.235:
0000
0000
0000
0000
,
0000
0000
0000
0000
,
1002
0000
0000
0003
0201
0000
0000
0000
0020
0000
0000
0000
1330
0000
0000
0000
,
0100
0001
1000
0200
0000
0000
0300
0000
1000
0010
0100
0002
0000
0000
0003
0000
,
1000
0000
0100
1000
0002
0000
0200
0000
,
1003
0000
0000
0000
0301
0000
0000
0000
1000
0010
0100
0000
0001
1000
0100
0000
,
0010
0000
0011
0000
0100
1000
0100
0010
,
0001
0010
0001
0000
0100
0001
1000
0001
0000
1000
0000
0000
0100
0010
0000
0000
,
0011
0000
1100
0000
0010
1000
0100
0000
,
0010
0001
0010
0002
0000
0000
1000
0000
0103
0000
0001
0010
0001
0000
1000
0000
,
2002
3013
0010
1001
,
2100
0000
0000
0000
0110
0000
0100
0000
0010
0000
0100
0000
3010
0100
0000
0000
,
0001
0100
0010
1000
0001
0010
0110
0000
,
0012
0000
0110
0100
0010
0100
0013
0001
,
1000
0100
0010
0001
1001
0000
1010
0000
,
0102
0000
0000
0000
1010
0000
1000
0000
0010
0000
1000
0000
0013
0100
0000
0000
,
0001
0010
0001
2000
0100
3100
1100
0000
,
1002
0000
0000
0000
0000
0000
0200
0000
0000
0000
0303
0000
0000
0000
1000
0001
,
1000
0001
0000
0000
0000
0000
0000
0000
1000
0000
0000
0000
0012
0000
0000
0000
,
0013
0000
0000
0000
0000
0000
0200
0000
0000
0000
0300
0000
0000
0000
0010
0100
,
0010
0100
0000
0000
0000
0000
0100
0001
0000
0001
0100
0000
2010
0000
0000
0000
,
3010
0000
0100
0001
0100
0001
0011
0010
,
0100
1000
0010
0100
0001
1000
2100
0000
,
3100
0000
0010
0001
1000
0010
0110
0100
,
0001
0010
0000
0000
0100
0000
1000
0000
0001
0000
0000
0000
0201
0000
0000
0000
,
0301
0000
0100
0010
1000
0100
1100
1000
,
0010
1000
0000
0000
0010
0000
0100
0000
0001
0000
0000
0000
0120
0000
0000
0000
,
0130
0000
0010
0001
0001
0100
0001
0010
,
0001
0020
0000
0000
0100
0000
0100
0000
0130
0000
0010
0000
0011
0000
0000
0000
,
1100
0000
0000
0000
0010
0000
0000
0000
2001
0000
0000
3000
1002
0000
0000
0003
,
1000
0000
0010
0000
0100
0000
0001
0000
0010
0001
0000
0001
1000
0000
0010
0000
,
1000
0000
0001
0000
0101
0000
0000
0000
0010
1000
0001
1000
0010
0000
0100
0001
,
1000
0000
0100
0000
0020
0000
0001
0000
0031
0000
0000
0001
0010
0000
0001
0000
,
1000
0000
0100
0000
0010
0000
0001
0000
0201
0000
0000
0300
0102
0000
0000
0003
,
0100
0000
0001
0000
0010
0000
0100
0000
1000
0010
0000
0010
1000
0000
0001
0000
,
0100
0000
0010
0000
1010
0000
0000
0000
1000
0100
0010
0001
1000
0000
0010
1000
,
0002
0000
0100
0000
0103
0000
0000
0001
1000
0000
0100
0000
0010
0000
0001
0000
,
0010
0000
0000
0001
1000
0000
0010
0000
0110
0000
0000
0000
2002
0000
0000
0000
,
0000
0010
0000
0000
0000
3013
2002
0000
,
0000
3103
0110
0202
,
0000
0010
0000
0000
0000
1303
0202
0000
,
0000
0000
0010
1000
0313
0000
0000
0000
0101
0000
0000
0000
1001
0000
0000
0000
,
0000
0000
1100
0000
0000
0000
0000
0000
0000
0000
0001
0010
0001
0020
0000
0000
,
0000
0030
0000
0000
;

//---------------dance-single - Shorty----------------
#NOTES:
     dance-single:
     Shorty:
     Easy:
     2:
     0.198,0.196,0.069,0.057,0.000:
0000
0000
0000
0000
,
0000
0000
0000
0000
,
0100
0000
0101
0000
,
1000
0000
0010
0010
,
1000
0000
0100
0000
,
1100
0000
0010
0001
,
0001
1000
0000
0001
,
0100
0000
0010
0000
,
1000
0100
0000
0100
,
0010
0000
1001
0000
,
0001
0001
1000
0010
,
0010
0000
1000
0001
,
1000
0000
0100
0010
,
0010
0000
0001
1000
,
0001
0000
0100
0001
,
0001
0000
0010
0100
,
0010
0000
0001
1000
,
1000
0000
0000
0000
,
1001
0000
0020
0100
,
0130
0000
0000
0000
,
0101
0000
0000
1000
,
1000
0010
1000
0001
,
0000
0100
0000
0001
,
0001
0010
0001
1000
,
0000
0100
0000
1000
,
1000
0000
0010
0100
,
0010
0000
1000
0001
,
0001
0000
0010
0100
,
0010
0000
0001
1000
,
1000
0000
2000
3001
,
0010
0001
1000
0000
,
0100
0000
2000
3010
,
1000
0001
0100
0000
,
0001
0000
0002
0013
,
0001
1000
0100
0000
,
1000
0000
0020
1030
,
0010
0100
0001
0000
,
0010
0000
0100
0100
,
0000
0000
0000
0010
,
0000
0100
1000
1000
,
0000
0001
0000
0100
,
0000
0010
0100
0100
,
0000
0000
0000
1001
;

//---------------dance-single - Shorty----------------
#NOTES:
     dance-single:
     Shorty:
     Medium:
     5:
     0.354,0.343,0.332,0.195,0.000:
0000
0000
0000
0000
,
0000
0000
0000
0000
,
0001
1000
0020
0100
,
0130
0001
0011
0000
,
1000
0010
0200
0001
,
0301
1100
0010
0001
,
1001
0000
1001
0000
0100
0010
0100
0000
,
0001
0010
0100
1000
,
0110
0000
0110
0000
0001
1000
0001
0000
,
0010
0100
1000
0001
,
0100
1010
0100
0201
,
0301
0000
0001
0000
0010
0000
0100
1000
,
0001
0100
0010
1020
,
1030
0100
0010
0001
,
0100
0000
0001
1000
0100
0000
0210
0000
,
0310
0001
0100
0010
,
1000
0000
0001
0100
0010
0000
1020
0000
,
1030
0000
0000
1000
0000
0000
0000
0001
,
1000
0000
0001
1100
,
0101
0000
0000
0010
0000
0000
0000
0010
,
0100
0000
0001
1100
,
0011
0000
0100
0010
0100
0000
0001
0000
,
0010
0100
1000
0101
,
1010
0000
0010
0100
0010
0000
1000
0000
,
0100
0020
0031
1100
,
1001
0000
0100
0001
1000
0000
0020
0000
,
0130
0002
1003
1100
,
0011
0000
0010
0100
1000
0000
0002
0000
,
0103
0010
0100
1001
,
0110
0001
1002
0103
,
0001
1000
0100
0000
0010
0000
0100
0000
,
1002
0000
0103
0000
0010
1000
0001
0000
,
0100
0001
0100
0000
0001
0010
0100
1000
,
0001
2000
0010
3001
,
1000
0100
0010
0000
0001
0000
1100
0000
,
0011
0000
0100
0001
0100
0000
0010
0000
,
1000
0000
0001
0010
0001
0000
2000
0000
,
0020
3000
1000
1030
,
0000
0100
0000
0000
0000
0100
0002
0000
,
0000
0013
0100
0100
,
0000
1000
0000
0000
0000
1000
0020
0000
,
0000
0130
1001
1001
,
0000
0100
0000
0000
0000
0010
0100
0000
;
